Начать новую тему Ответить на тему
Статистика раздачи
Размер: 3.12 ГБ | Добавлен: 16 мар 2014, 00:14 | Скачали: 0
Сидеров: 1  [0 байт/сек]    Личеров: 0  [0 байт/сек]
Пред. тема | След. тема 

Автор
Сообщение

СообщениеДобавлено: 16 мар 2014, 00:14 

Ответить с цитатой 


Collection 10 Albums (1970-1987) SHM-CD Remastered Reissue 2008

Год: 1970-1987 / 2008
Жанр: Rock, Progressive rock, Art rock
Продолжительность: 07:30:18
Тип рипа: image, tracks + cue
Количество альбомов: 10
Количество дисков: 11 SHM-CD, Remastered, Reissue
Кодек: FLAC
Битрейт: Lossless
Страна-производитель: Japan
Лейбл: A&M / Universal
Номер по каталогу: UICY-93607~17
Источник: sheloshim, artlovesound, ruskaval, JonLord, amowgli, Pollux, Willy, comp






Содержание:
#777Треклист:
01. Surely (0:31)
02. It's A Long Road (5:33)
03. Aubade And I Am Not Like Other Birds Of Prey (5:15)
04. Words Unspoken (4:00)
05. Maybe I'm A Beggar (6:44)
06. Home Again (1:17)
07. Nothing To Show (4:56)
08. Shadow Song (4:23)
09. Try Again (12:05)
10. Surely (3:13)

Продолжительность: 00:47:57


Код:
Код:
Exact Audio Copy V0.99 prebeta 4 from 23. January 2008

EAC extraction logfile from 23. August 2009, 21:28

Supertramp / Supertramp

Used drive  : TSSTcorpCD/DVDW SH-W162C   Adapter: 0  ID: 0

Read mode               : Secure
Utilize accurate stream : Yes
Defeat audio cache      : Yes
Make use of C2 pointers : No

Read offset correction                      : 6
Overread into Lead-In and Lead-Out          : No
Fill up missing offset samples with silence : Yes
Delete leading and trailing silent blocks   : No
Null samples used in CRC calculations       : Yes
Used interface                              : Installed external ASPI interface

Used output format : Internal WAV Routines
Sample format      : 44.100 Hz; 16 Bit; Stereo

TOC of the extracted CD

     Track |   Start  |  Length  | Start sector | End sector
    ---------------------------------------------------------
        1  |  0:00.00 |  0:31.27 |         0    |     2351
        2  |  0:31.27 |  5:33.13 |      2352    |    27339
        3  |  6:04.40 |  5:14.57 |     27340    |    50946
        4  | 11:19.22 |  3:59.58 |     50947    |    68929
        5  | 15:19.05 |  6:44.20 |     68930    |    99249
        6  | 22:03.25 |  1:16.47 |     99250    |   104996
        7  | 23:19.72 |  4:55.55 |    104997    |   127176
        8  | 28:15.52 |  4:22.73 |    127177    |   146899
        9  | 32:38.50 | 12:05.17 |    146900    |   201291
       10  | 44:43.67 |  3:11.08 |    201292    |   215624

Range status and errors

Selected range

     Filename C:\Supertramp (1970) Supertramp\Supertramp - Supertramp.wav

     Peak level 100.0 %
     Range quality 99.9 %
     Copy CRC A46602F6
     Copy OK

No errors occurred

End of status report
Код:
Код:
-----------------------

DON'T MODIFY THIS FILE

-----------------------

PERFORMER: auCDtect Task Manager, ver. 1.5.1RC4 build 1.5.1.5
Copyright (c) 2008-2010 y-soft. All rights reserved
http:/y-soft.org

ANALYZER: auCDtect: CD records authenticity detector, version 0.8.2
Copyright (c) 2004 Oleg Berngardt. All rights reserved.
Copyright (c) 2004 Alexander Djourik. All rights reserved.

FILE: Supertramp - Supertramp.ape
  Size: 285167756 Hash: D6E17BDC6FE4DF00EE95DA842C820F36 Accuracy: -m0
  Conclusion: CDDA 100%
  Signature: ED4D66EDA7D8869D1AE6CF735E13D29840B2BC94
#777Треклист:
01. Your Poppa Don't Mind (3:02)
02. Travelled (4:28)
03. Rosie Had Everything Planned (3:02)
04. Remember (4:12)
05. Forever (5:10)
06. Potter (2:25)
07. Coming Home to See You (4:46)
08. Times Have Changed (3:49)
09. Friend in Need (2:07)
10. Aries (7:36)

Продолжительность: 00:40:38


Код:
Код:
EAC extraction logfile from 5. December 2008, 17:15 for CD
Supertramp / Indelibly Stamped

Used drive  : PIONEER DVD-RW  DVR-111L   Adapter: 0  ID: 1
Read mode   : Secure with NO C2, accurate stream, disable cache
Read offset correction : 48
Overread into Lead-In and Lead-Out : No

Used output format : C:\Program Files\FLAC\flac.exe   (User Defined Encoder)
                     128 kBit/s
                     Additional command line options : -8 -V -T "ARTIST=%a" -T "TITLE=%t" -T "ALBUM=%g" -T "DATE=%y" -T "TRACKNUMBER=%n" -T "GENRE=%m" -T "COMMENT=EAC FLAC -8" %s

Other options      :
    Fill up missing offset samples with silence : Yes
    Delete leading and trailing silent blocks : No
    Installed external ASPI interface

Track  1
     Filename C:\Supertramp - Indelibly Stamped (1971) {UICY-93608}\01 - Your Poppa Don't Mind.wav

     Pre-gap length  0:00:02.00

     Peak level 100.0 %
     Track quality 99.9 %
     Test CRC C2AFB48C
     Copy CRC C2AFB48C
     Copy OK

Track  2
     Filename C:\Supertramp - Indelibly Stamped (1971) {UICY-93608}\02 - Travelled.wav

     Pre-gap length  0:00:00.74

     Peak level 100.0 %
     Track quality 100.0 %
     Test CRC 43DF002D
     Copy CRC 43DF002D
     Copy OK

Track  3
     Filename C:\Supertramp - Indelibly Stamped (1971) {UICY-93608}\03 - Rosie Had Everything Planned.wav

     Pre-gap length  0:00:01.62

     Peak level 100.0 %
     Track quality 100.0 %
     Test CRC E3FBEF5F
     Copy CRC E3FBEF5F
     Copy OK

Track  4
     Filename C:\Supertramp - Indelibly Stamped (1971) {UICY-93608}\04 - Remember.wav

     Peak level 100.0 %
     Track quality 99.9 %
     Test CRC EDAB7A74
     Copy CRC EDAB7A74
     Copy OK

Track  5
     Filename C:\Supertramp - Indelibly Stamped (1971) {UICY-93608}\05 - Forever.wav

     Peak level 100.0 %
     Track quality 100.0 %
     Test CRC 7B74DBEF
     Copy CRC 7B74DBEF
     Copy OK

Track  6
     Filename C:\Supertramp - Indelibly Stamped (1971) {UICY-93608}\06 - Potter.wav

     Pre-gap length  0:00:01.37

     Peak level 100.0 %
     Track quality 100.0 %
     Test CRC 163CB8C0
     Copy CRC 163CB8C0
     Copy OK

Track  7
     Filename C:\Supertramp - Indelibly Stamped (1971) {UICY-93608}\07 - Coming Home to See You.wav

     Peak level 100.0 %
     Track quality 100.0 %
     Test CRC 942A1AD0
     Copy CRC 942A1AD0
     Copy OK

Track  8
     Filename C:\Supertramp - Indelibly Stamped (1971) {UICY-93608}\08 - Times Have Changed.wav

     Pre-gap length  0:00:03.12

     Peak level 100.0 %
     Track quality 100.0 %
     Test CRC 80E565C5
     Copy CRC 80E565C5
     Copy OK

Track  9
     Filename C:\Supertramp - Indelibly Stamped (1971) {UICY-93608}\09 - Friend in Need.wav

     Pre-gap length  0:00:03.04

     Peak level 100.0 %
     Track quality 99.9 %
     Test CRC 12888341
     Copy CRC 12888341
     Copy OK

Track 10
     Filename C:\Supertramp - Indelibly Stamped (1971) {UICY-93608}\10 - Aries.wav

     Peak level 100.0 %
     Track quality 100.0 %
     Test CRC 1827E65C
     Copy CRC 1827E65C
     Copy OK

No errors occured

End of status report
Код:
Код:
-----------------------

DON'T MODIFY THIS FILE

-----------------------

PERFORMER: auCDtect Task Manager, ver. 1.5.1RC4 build 1.5.1.5
Copyright (c) 2008-2010 y-soft. All rights reserved
http:/y-soft.org

ANALYZER: auCDtect: CD records authenticity detector, version 0.8.2
Copyright (c) 2004 Oleg Berngardt. All rights reserved.
Copyright (c) 2004 Alexander Djourik. All rights reserved.

FILE: 10 - Aries.flac
  Size: 50172595 Hash: FEC6BDD863C9CE62F1451B4BD7B3F554 Accuracy: -m0
  Conclusion: CDDA 100%
  Signature: 983D177357F91C8F745F2F537493C8802B4978CC
FILE: 09 - Friend in Need.flac
  Size: 14362137 Hash: B3D39C3BBC8088E8822498B9E677A524 Accuracy: -m0
  Conclusion: CDDA 100%
  Signature: B323F2457F1F7747CF4602E3C914905AE8B3C23C
FILE: 08 - Times Have Changed.flac
  Size: 24016848 Hash: 3A81B0F25B621B0D5834183E3DC832CB Accuracy: -m0
  Conclusion: CDDA 100%
  Signature: 0F73F1AD036FA92102B01060C2DB65DDBC63DABC
FILE: 07 - Coming Home to See You.flac
  Size: 32985673 Hash: 3CD012B6F9EC19003EA8E1BAA0BBEFAB Accuracy: -m0
  Conclusion: CDDA 100%
  Signature: 8705C2582D09AEC7AC25C895070D142D57826E59
FILE: 06 - Potter.flac
  Size: 16934032 Hash: D9E983BBF86B0C943CDC27454F2E4B9A Accuracy: -m0
  Conclusion: CDDA 100%
  Signature: 49FF22E9F743D8F51F9ADB9D9B4E8157B7B240C8
FILE: 05 - Forever.flac
  Size: 30541466 Hash: 8B397AF5EA22F5A75D78C81D2D110359 Accuracy: -m0
  Conclusion: CDDA 100%
  Signature: 4F1DF699135FECF536E2B84D32D4FFD9597D7A59
FILE: 04 - Remember.flac
  Size: 29566096 Hash: 3C694B76FED899EDC05C1C116EFC3153 Accuracy: -m0
  Conclusion: CDDA 100%
  Signature: 19E8233F03448325D6A78650DB6F6E71FB18CB81
FILE: 03 - Rosie Had Everything Planned.flac
  Size: 18911000 Hash: 1FD0DAD5770B38AD0ACD6BFD6825629D Accuracy: -m0
  Conclusion: CDDA 100%
  Signature: A747C73EAA1FE0FD4BA854E12F57167E58CD4D4C
FILE: 02 - Travelled.flac
  Size: 30545541 Hash: 7C2B34E5E28FD451E126638905FE554E Accuracy: -m0
  Conclusion: CDDA 100%
  Signature: 802C3BC8DA3F00FDB6B78553971DA09CAFB43AB7
FILE: 01 - Your Poppa Don't Mind.flac
  Size: 20483354 Hash: E98232F9FA750F6C62B3554338CC8248 Accuracy: -m0
  Conclusion: CDDA 100%
  Signature: 6435AEE54EC1A3C9A4F336B83CB8969BAF651205
Код:
Код:
REM GENRE Rock
REM DATE 1971
REM DISCID 8C09860A
REM COMMENT "ExactAudioCopy v0.95b3"
PERFORMER "Supertramp"
TITLE "Indelibly Stamped"
FILE "01 - Your Poppa Don't Mind.wav" WAVE
  TRACK 01 AUDIO
    TITLE "Your Poppa Don't Mind"
    PERFORMER "Supertramp"
    INDEX 01 00:00:00
  TRACK 02 AUDIO
    TITLE "Travelled"
    PERFORMER "Supertramp"
    INDEX 00 03:00:50
FILE "02 - Travelled.wav" WAVE
    INDEX 01 00:00:00
  TRACK 03 AUDIO
    TITLE "Rosie Had Everything Planned"
    PERFORMER "Supertramp"
    INDEX 00 04:25:64
FILE "03 - Rosie Had Everything Planned.wav" WAVE
    INDEX 01 00:00:00
FILE "04 - Remember.wav" WAVE
  TRACK 04 AUDIO
    TITLE "Remember"
    PERFORMER "Supertramp"
    INDEX 01 00:00:00
FILE "05 - Forever.wav" WAVE
  TRACK 05 AUDIO
    TITLE "Forever"
    PERFORMER "Supertramp"
    INDEX 01 00:00:00
  TRACK 06 AUDIO
    TITLE "Potter"
    PERFORMER "Supertramp"
    INDEX 00 05:08:06
FILE "06 - Potter.wav" WAVE
    INDEX 01 00:00:00
FILE "07 - Coming Home to See You.wav" WAVE
  TRACK 07 AUDIO
    TITLE "Coming Home to See You"
    PERFORMER "Supertramp"
    INDEX 01 00:00:00
  TRACK 08 AUDIO
    TITLE "Times Have Changed"
    PERFORMER "Supertramp"
    INDEX 00 04:43:10
FILE "08 - Times Have Changed.wav" WAVE
    INDEX 01 00:00:00
  TRACK 09 AUDIO
    TITLE "Friend in Need"
    PERFORMER "Supertramp"
    INDEX 00 03:46:26
FILE "09 - Friend in Need.wav" WAVE
    INDEX 01 00:00:00
FILE "10 - Aries.wav" WAVE
  TRACK 10 AUDIO
    TITLE "Aries"
    PERFORMER "Supertramp"
    INDEX 01 00:00:00
#777Треклист:
01. School (5:34)
02. Bloody Well Right (4:31)
03. Hide In Your Shell (6:48)
04. Asylum (6:44)
05. Dreamer (3:32)
06. Rudy (7:20)
07. If Everyone Was Listening (4:05)
08. Crime Of The Century (5:38)

Продолжительность: 00:44:12


Код:
Код:
Exact Audio Copy V0.99 prebeta 4 from 23. January 2008

EAC extraction logfile from 3. December 2008, 15:55

Supertramp / Crime Of The Century

Used drive  : TSSTcorpCD/DVDW SH-W162C   Adapter: 0  ID: 0

Read mode               : Secure
Utilize accurate stream : Yes
Defeat audio cache      : Yes
Make use of C2 pointers : No

Read offset correction                      : 6
Overread into Lead-In and Lead-Out          : No
Fill up missing offset samples with silence : Yes
Delete leading and trailing silent blocks   : No
Null samples used in CRC calculations       : Yes
Used interface                              : Installed external ASPI interface

Used output format     : Internal WAV Routines
Sample format          : 44.100 Hz; 16 Bit; Stereo
Use compression offset : 0

TOC of the extracted CD

     Track |   Start  |  Length  | Start sector | End sector
    ---------------------------------------------------------
        1  |  0:00.00 |  5:34.23 |         0    |    25072
        2  |  5:34.23 |  4:31.35 |     25073    |    45432
        3  | 10:05.58 |  6:48.22 |     45433    |    76054
        4  | 16:54.05 |  6:43.60 |     76055    |   106339
        5  | 23:37.65 |  3:31.60 |    106340    |   122224
        6  | 27:09.50 |  7:19.70 |    122225    |   155219
        7  | 34:29.45 |  4:04.60 |    155220    |   173579
        8  | 38:34.30 |  5:36.60 |    173580    |   198839

Range status and errors

Selected range

     Filename C:\Supertramp (1974) Crime Of The Century\Supertramp - Crime Of The Century.wav

     Peak level 100.0 %
     Range quality 99.9 %
     Copy CRC B810B5D1
     Copy OK

No errors occurred

End of status report
Код:
Код:
-----------------------

DON'T MODIFY THIS FILE

-----------------------

PERFORMER: auCDtect Task Manager, ver. 1.5.1RC4 build 1.5.1.5
Copyright (c) 2008-2010 y-soft. All rights reserved
http:/y-soft.org

ANALYZER: auCDtect: CD records authenticity detector, version 0.8.2
Copyright (c) 2004 Oleg Berngardt. All rights reserved.
Copyright (c) 2004 Alexander Djourik. All rights reserved.

FILE: Supertramp - Crime Of The Century.ape
  Size: 265369564 Hash: FABE62F53062A50E034601D1C1A9259B Accuracy: -m0
  Conclusion: CDDA 100%
  Signature: 19E3ABD9009F20216CB98A9205A9925282E47AB7
#777Треклист:
01. Easy Does It (2:19)
02. Sister Moonshine (5:16)
03. Ain't Nobody But Me (5:14)
04. A Soapbox Opera (4:54)
05. Another Man's Woman (6:17)
06. Lady (5:25)
07. Poor Boy (5:08)
08. Just A Normal Day (4:02)
09. The Meaning (5:23)
10. Two Of Us (3:27)

Продолжительность: 00:47:25


Код:
Код:
Exact Audio Copy V0.99 prebeta 4 from 23. January 2008

Отчёт EAC об извлечении, выполненном 27. февраля 2009, 9:12

Supertramp / 1975 Crisis ? What Crisis ?

Дисковод: ASUS    DRW-1608P3S   Adapter: 1  ID: 0

Режим чтения                 : Достоверность
Использование точного потока : Да
Отключение кэша аудио        : Да
Использование указателей C2  : Нет

Коррекция смещения при чтении                     : 48
Способность читать области Lead-in и Lead-out     : Нет
Заполнение пропущенных сэмплов тишиной            : Да
Удаление блоков с тишиной в начале и конце        : Нет
При вычислениях CRC использовались нулевые сэмплы : Да
Интерфейс                                         : Установленный внешний ASPI-интерфейс

Выходной формат          : Пользовательский кодировщик
Выбранный битрейт        : 1024 kBit/s
Качество                 : Высокий
Добавление ID3-тэга      : Да
Утилита сжатия           : C:\Program Files\Exact Audio Copy\Flac\flac.exe
Дополнительные параметры : -6 -V -T "artist=%a" -T "title=%t" -T "album=%g" -T "date=%y" -T "tracknumber=%n" -T "genre=%m" -T "comment=EAC 0.95prebeta5 / FLAC 1.1.0 q6" %s

TOC извлечённого CD

     Трек |   Старт  | Длительность | Начальный сектор | Конечный сектор
    ---------------------------------------------------------------------
       1  |  0:00.00 |    2:18.60   |           0      |      10409
       2  |  2:18.60 |    5:15.58   |       10410      |      34092
       3  |  7:34.43 |    5:14.10   |       34093      |      57652
       4  | 12:48.53 |    4:54.02   |       57653      |      79704
       5  | 17:42.55 |    6:16.40   |       79705      |     107944
       6  | 23:59.20 |    5:24.65   |      107945      |     132309
       7  | 29:24.10 |    5:07.38   |      132310      |     155372
       8  | 34:31.48 |    4:02.25   |      155373      |     173547
       9  | 38:33.73 |    5:23.35   |      173548      |     197807
      10  | 43:57.33 |    3:27.17   |      197808      |     213349

Характеристики диапазона извлечения и сообщения об ошибках

Выбранный диапазон

     Имя файла C:\Documents and Settings\Filatov\Рабочий стол\Supertramp - 1975 Crisis What Crisis (SHM-CD UICY-93610)\Supertramp - 1975 Crisis   What Crisis.wav

     Пиковый уровень 99.8 %
     Качество диапазона 100.0 %
     CRC копии 02255F76
     Копирование... OK

Ошибок не произошло

AccurateRip: сводка

Трек  1  точное извлечение (доверие 8)  [518145CA]
Трек  2  точное извлечение (доверие 8)  [9012867C]
Трек  3  точное извлечение (доверие 8)  [E2B080F5]
Трек  4  точное извлечение (доверие 8)  [8995263D]
Трек  5  точное извлечение (доверие 8)  [C0EB7825]
Трек  6  точное извлечение (доверие 8)  [0DD019AF]
Трек  7  точное извлечение (доверие 8)  [3583F6EB]
Трек  8  точное извлечение (доверие 8)  [3A72F77B]
Трек  9  точное извлечение (доверие 8)  [96112053]
Трек 10  точное извлечение (доверие 8)  [2FE581DE]

Все треки извлечены точно

Конец отчёта
Код:
Код:
-----------------------

DON'T MODIFY THIS FILE

-----------------------

PERFORMER: auCDtect Task Manager, ver. 1.5.1RC4 build 1.5.1.5
Copyright (c) 2008-2010 y-soft. All rights reserved
http:/y-soft.org

ANALYZER: auCDtect: CD records authenticity detector, version 0.8.2
Copyright (c) 2004 Oleg Berngardt. All rights reserved.
Copyright (c) 2004 Alexander Djourik. All rights reserved.

FILE: Supertramp - 1975 Crisis   What Crisis.flac
  Size: 300025313 Hash: 5D3CFFDB44167590D5FD76C0A5AB86D8 Accuracy: -m0
  Conclusion: CDDA 100%
  Signature: 966DE25FA667D12EF3F4E29A49ABA9493848CBFF
#777Треклист:
01. Give A Little Bit (4:09)
02. Lover Boy (6:50)
03. Even In The Quietest Moments (6:29)
04. Downstream (4:01)
05. Babaji (4:51)
06. From Now On (6:22)
07. Fool's Overture (10:53)

Продолжительность: 00:43:35


Код:
Код:
Exact Audio Copy V0.99 prebeta 4 from 23. January 2008

EAC extraction logfile from 23. December 2008, 10:14

Supertramp / Even In The Quietest Moments ...

Used drive  : Optiarc DVD RW AD-7173A   Adapter: 0  ID: 0

Read mode               : Secure
Utilize accurate stream : Yes
Defeat audio cache      : Yes
Make use of C2 pointers : No

Read offset correction                      : 48
Overread into Lead-In and Lead-Out          : No
Fill up missing offset samples with silence : Yes
Delete leading and trailing silent blocks   : No
Null samples used in CRC calculations       : Yes
Used interface                              : Native Win32 interface for Win NT & 2000

Used output format : Internal WAV Routines
Sample format  : 44.100 Hz; 16 Bit; Stereo

TOC of the extracted CD

     Track |   Start  |  Length  | Start sector | End sector
    ---------------------------------------------------------
        1  |  0:00.00 |  4:08.72 |         0    |    18671
        2  |  4:08.72 |  6:49.73 |     18672    |    49419
        3  | 10:58.70 |  6:28.60 |     49420    |    78579
        4  | 17:27.55 |  4:01.23 |     78580    |    96677
        5  | 21:29.03 |  4:51.20 |     96678    |   118522
        6  | 26:20.23 |  6:21.55 |    118523    |   147152
        7  | 32:42.03 | 10:52.42 |    147153    |   196094

Range status and errors

Selected range

     Filename C:\Supertramp - Even In The Quietest Moments ....wav

     Peak level 99.8 %
     Range quality 100.0 %
     Test CRC 50B00132
     Copy CRC 50B00132
     Copy OK

No errors occurred

AccurateRip summary

Track  1  accurately ripped (confidence 11)  [016DC58B]
Track  2  accurately ripped (confidence 11)  [4273F344]
Track  3  accurately ripped (confidence 11)  [C9D48123]
Track  4  accurately ripped (confidence 11)  [FFDC8804]
Track  5  accurately ripped (confidence 11)  [E60251DB]
Track  6  accurately ripped (confidence 11)  [880CF571]
Track  7  accurately ripped (confidence 11)  [06F56BA8]

All tracks accurately ripped

End of status report
Код:
Код:
-----------------------

DON'T MODIFY THIS FILE

-----------------------

PERFORMER: auCDtect Task Manager, ver. 1.5.1RC4 build 1.5.1.5
Copyright (c) 2008-2010 y-soft. All rights reserved
http:/y-soft.org

ANALYZER: auCDtect: CD records authenticity detector, version 0.8.2
Copyright (c) 2004 Oleg Berngardt. All rights reserved.
Copyright (c) 2004 Alexander Djourik. All rights reserved.

FILE: Supertramp - Even In The Quietest Moments.flac
  Size: 283336504 Hash: 3B06A978B083A4D10AC763709683E321 Accuracy: -m0
  Conclusion: CDDA 99%
  Signature: 3D50CD0107448A57CDA503309F23C5BD21804EFD
#777Треклист:
01. Gone Hollywood (5:19)
02. The Logical Song (4:11)
03. Goodbye Stranger (5:50)
04. Breakfast In America (2:39)
05. Oh! Darling (4:03)
06. Take The Long Way Home (5:08)
07. Lord Is It Mine (4:10)
08. Just Another Nervous Wreck (4:25)
09. Casual Conversations (2:59)
10. Child Of Vision (7:28)

Продолжительность: 00:46:12


Код:
Код:
Exact Audio Copy V0.99 prebeta 5 from 4. May 2009

EAC extraction logfile from 30. August 2011, 10:18

Supertramp / Breakfast In America [SHM-CD]

Used drive  : HL-DT-STDVD-RAM GH22NP20   Adapter: 0  ID: 0

Read mode               : Secure
Utilize accurate stream : Yes
Defeat audio cache      : Yes
Make use of C2 pointers : No

Read offset correction                      : 102
Overread into Lead-In and Lead-Out          : No
Fill up missing offset samples with silence : Yes
Delete leading and trailing silent blocks   : No
Null samples used in CRC calculations       : Yes
Used interface                              : Native Win32 interface for Win NT & 2000

Used output format              : User Defined Encoder
Selected bitrate                : 128 kBit/s
Quality                         : High
Add ID3 tag                     : No
Command line compressor         : C:\Program Files\Exact Audio Copy\Flac\flac.exe
Additional command line options : -8 -V -T "ARTIST=%a" -T "TITLE=%t" -T "ALBUM=%g" -T "DATE=%y" -T "TRACKNUMBER=%n" -T "GENRE=%m" -T "COMMENT=EAC FLAC -8" %s

TOC of the extracted CD

     Track |   Start  |  Length  | Start sector | End sector
    ---------------------------------------------------------
        1  |  0:00.00 |  5:19.18 |         0    |    23942
        2  |  5:19.18 |  4:10.57 |     23943    |    42749
        3  |  9:30.00 |  5:50.08 |     42750    |    69007
        4  | 15:20.08 |  2:39.10 |     69008    |    80942
        5  | 17:59.18 |  4:02.52 |     80943    |    99144
        6  | 22:01.70 |  5:08.23 |     99145    |   122267
        7  | 27:10.18 |  4:09.40 |    122268    |   140982
        8  | 31:19.58 |  4:25.30 |    140983    |   160887
        9  | 35:45.13 |  2:58.47 |    160888    |   174284
       10  | 38:43.60 |  7:28.13 |    174285    |   207897

Range status and errors

Selected range

     Filename C:\Supertramp (1979) Breakfast In America [SHM-CD]\Supertramp - Breakfast In America [SHM-CD].wav

     Peak level 99.8 %
     Range quality 100.0 %
     Test CRC A68A02E0
     Copy CRC A68A02E0
     Copy OK

No errors occurred

AccurateRip summary

Track  1  accurately ripped (confidence 99)  [D287E156]
Track  2  accurately ripped (confidence 97)  [79DB01C8]
Track  3  accurately ripped (confidence 98)  [89822241]
Track  4  accurately ripped (confidence 99)  [F3D672E0]
Track  5  accurately ripped (confidence 99)  [39DCF838]
Track  6  accurately ripped (confidence 98)  [9966C402]
Track  7  accurately ripped (confidence 98)  [5783C7E9]
Track  8  accurately ripped (confidence 99)  [7282067C]
Track  9  accurately ripped (confidence 99)  [AC020908]
Track 10  accurately ripped (confidence 100)  [B24D9F7C]

All tracks accurately ripped

End of status report
Код:
Код:
-----------------------

DON'T MODIFY THIS FILE

-----------------------

PERFORMER: auCDtect Task Manager, ver. 1.5.1RC4 build 1.5.1.5
Copyright (c) 2008-2010 y-soft. All rights reserved
http:/y-soft.org

ANALYZER: auCDtect: CD records authenticity detector, version 0.8.2
Copyright (c) 2004 Oleg Berngardt. All rights reserved.
Copyright (c) 2004 Alexander Djourik. All rights reserved.

FILE: Supertramp - Breakfast In America [SHM-CD].flac
  Size: 323327471 Hash: D90CD3344379BAC35C4F9BD888E3AAD0 Accuracy: -m0
  Conclusion: CDDA 100%
  Signature: 662848D53A0F78D85564340AB6F858E428F06A9F
#777
#777Треклист:
01. School (5:42)
02. Ain't Nobody But Me (5:24)
03. The Logical song (3:57)
04. Bloody Well Right (7:23)
05. Breakfast In America (2:57)
06. You Started Laughing (4:02)
07. Hide in Your Shell (6:55)
08. From Now On (7:06)

Продолжительность: 00:43:26
Код:
Код:
EAC extraction logfile from 20. September 2008, 0:09 for CD
Supertramp / Paris - CD1 (Japanese SHM-CD)

Used drive  : HL-DT-STDVD-RW GSA-H11N   Adapter: 1  ID: 0
Read mode   : Secure with NO C2, accurate stream, disable cache
Read offset correction : 667
Overread into Lead-In and Lead-Out : No

Used output format : C:\Users\Pepe\Downloads\Flac\flac-1.1.4-win\bin\flac.exe   (User Defined Encoder)
                     320 kBit/s
                     Additional command line options : -8 -V -T "artist=%a" -T "title=%t" -T "album=%g" -T "date=%y" -T "tracknumber=%n" -T "genre=%m" %s

Other options      :
    Fill up missing offset samples with silence : Yes
    Delete leading and trailing silent blocks : No
    Native Win32 interface for Win NT & 2000

Track  1
     Filename C:\Users\Pepe\Documents\Azureus Downloads\Supertramp - 1979 - Paris (Japanese SHM-CD)\Disc1\01 - School.wav

     Pre-gap length  0:00:02.00

     Peak level 99.8 %
     Track quality 100.0 %
     Test CRC 2B63C850
     Copy CRC 2B63C850
     Copy OK

Track  2
     Filename C:\Users\Pepe\Documents\Azureus Downloads\Supertramp - 1979 - Paris (Japanese SHM-CD)\Disc1\02 - Ain't Nobody But Me.wav

     Peak level 99.8 %
     Track quality 100.0 %
     Test CRC F99A0594
     Copy CRC F99A0594
     Copy OK

Track  3
     Filename C:\Users\Pepe\Documents\Azureus Downloads\Supertramp - 1979 - Paris (Japanese SHM-CD)\Disc1\03 - The Logical song.wav

     Peak level 99.8 %
     Track quality 100.0 %
     Test CRC 10789CC5
     Copy CRC 10789CC5
     Copy OK

Track  4
     Filename C:\Users\Pepe\Documents\Azureus Downloads\Supertramp - 1979 - Paris (Japanese SHM-CD)\Disc1\04 - Bloody Well Right.wav

     Peak level 99.8 %
     Track quality 100.0 %
     Test CRC A3C6B8C0
     Copy CRC A3C6B8C0
     Copy OK

Track  5
     Filename C:\Users\Pepe\Documents\Azureus Downloads\Supertramp - 1979 - Paris (Japanese SHM-CD)\Disc1\05 - Breakfast In America.wav

     Peak level 99.8 %
     Track quality 100.0 %
     Test CRC 90DE0BF2
     Copy CRC 90DE0BF2
     Copy OK

Track  6
     Filename C:\Users\Pepe\Documents\Azureus Downloads\Supertramp - 1979 - Paris (Japanese SHM-CD)\Disc1\06 - You Started Laughing.wav

     Peak level 99.8 %
     Track quality 100.0 %
     Test CRC 452BA4FA
     Copy CRC 452BA4FA
     Copy OK

Track  7
     Filename C:\Users\Pepe\Documents\Azureus Downloads\Supertramp - 1979 - Paris (Japanese SHM-CD)\Disc1\07 - Hide in Your Shell.wav

     Peak level 99.8 %
     Track quality 100.0 %
     Test CRC 6A468B8E
     Copy CRC 6A468B8E
     Copy OK

Track  8
     Filename C:\Users\Pepe\Documents\Azureus Downloads\Supertramp - 1979 - Paris (Japanese SHM-CD)\Disc1\08 - From Now On.wav

     Peak level 99.8 %
     Track quality 100.0 %
     Test CRC D868E079
     Copy CRC D868E079
     Copy OK

No errors occured

End of status report
Код:
Код:
-----------------------

DON'T MODIFY THIS FILE

-----------------------

PERFORMER: auCDtect Task Manager, ver. 1.5.1RC4 build 1.5.1.5
Copyright (c) 2008-2010 y-soft. All rights reserved
http:/y-soft.org

ANALYZER: auCDtect: CD records authenticity detector, version 0.8.2
Copyright (c) 2004 Oleg Berngardt. All rights reserved.
Copyright (c) 2004 Alexander Djourik. All rights reserved.

FILE: 08 - From Now On.flac
  Size: 48377968 Hash: 1462748EC8A4626BD4878FFD88E32682 Accuracy: -m0
  Conclusion: CDDA 100%
  Signature: B381BD11AF4284428462AACBF242C9657DECD1CF
FILE: 07 - Hide in Your Shell.flac
  Size: 47733032 Hash: 4F88C8EDBEB731A2A5CD81C4D3F2723F Accuracy: -m0
  Conclusion: CDDA 100%
  Signature: 1821CAEA69BEAD1044FC3E6E8AE72AFAA572067F
FILE: 06 - You Started Laughing.flac
  Size: 24897465 Hash: D06D48617F4194783EC7193D08CFE6D6 Accuracy: -m0
  Conclusion: CDDA 100%
  Signature: 738FBF936FE93B497715F0212A623A139BA96B8C
FILE: 05 - Breakfast In America.flac
  Size: 20841076 Hash: 282D5CA6C29F7D1EE5C519A8C8D54E60 Accuracy: -m0
  Conclusion: CDDA 100%
  Signature: F02929BB3E9D6BCBE8DFBF6E08B5123FDD289246
FILE: 04 - Bloody Well Right.flac
  Size: 50054406 Hash: 64CE4402A1C842EDB9E86386EBDA4FEA Accuracy: -m0
  Conclusion: CDDA 100%
  Signature: 1E4EF0E733F4D87D23DEF4E9B10088269A19A40E
FILE: 03 - The Logical song.flac
  Size: 28596846 Hash: 0B6BBB816C6076E8759BE870BE5FA941 Accuracy: -m0
  Conclusion: CDDA 100%
  Signature: 4DF64721DB9C9764B4736AF4F803E85ED7835E6E
FILE: 02 - Ain't Nobody But Me.flac
  Size: 39999660 Hash: 9321095EB1B70075AE11E9FCA32DA10F Accuracy: -m0
  Conclusion: CDDA 100%
  Signature: 0C4D43AD1C88683D25344348A1FB7AA6FF4A29DC
FILE: 01 - School.flac
  Size: 40828880 Hash: 8D6AB0302DDAF089514CD25EC16CAF80 Accuracy: -m0
  Conclusion: CDDA 100%
  Signature: CAF1E602F918D6A32D7FC05AACD3CACAAA75C6D3
Код:
Код:
REM GENRE Rock
REM DATE 1979
REM DISCID 6C0A2E08
REM COMMENT "ExactAudioCopy v0.95b4"
PERFORMER "Supertramp"
TITLE "Paris - CD1 (Japanese SHM-CD)"
FILE "01 - School.wav" WAVE
  TRACK 01 AUDIO
    TITLE "School"
    PERFORMER "Supertramp"
    INDEX 01 00:00:00
FILE "02 - Ain't Nobody But Me.wav" WAVE
  TRACK 02 AUDIO
    TITLE "Ain't Nobody But Me"
    PERFORMER "Supertramp"
    INDEX 01 00:00:00
FILE "03 - The Logical song.wav" WAVE
  TRACK 03 AUDIO
    TITLE "The Logical song"
    PERFORMER "Supertramp"
    INDEX 01 00:00:00
FILE "04 - Bloody Well Right.wav" WAVE
  TRACK 04 AUDIO
    TITLE "Bloody Well Right"
    PERFORMER "Supertramp"
    INDEX 01 00:00:00
FILE "05 - Breakfast In America.wav" WAVE
  TRACK 05 AUDIO
    TITLE "Breakfast In America"
    PERFORMER "Supertramp"
    INDEX 01 00:00:00
FILE "06 - You Started Laughing.wav" WAVE
  TRACK 06 AUDIO
    TITLE "You Started Laughing"
    PERFORMER "Supertramp"
    INDEX 01 00:00:00
FILE "07 - Hide in Your Shell.wav" WAVE
  TRACK 07 AUDIO
    TITLE "Hide in Your Shell"
    PERFORMER "Supertramp"
    INDEX 01 00:00:00
FILE "08 - From Now On.wav" WAVE
  TRACK 08 AUDIO
    TITLE "From Now On"
    PERFORMER "Supertramp"
    INDEX 01 00:00:00
#777Треклист:
01. Dreamer (3:45)
02. Rudy (7:09)
03. A soap box opera (4:51)
04. Asylum (6:51)
05. Take the long way home (4:57)
06. Fool's overture (10:58)
07. Two of us (1:25)
08. Crime of the century (6:32)

Продолжительность: 00:46:28
Код:
Код:
EAC extraction logfile from 20. September 2008, 6:56 for CD
Supertramp / Paris - CD 2

Used drive  : HL-DT-STDVD-RW GSA-H11N   Adapter: 1  ID: 0
Read mode   : Secure with NO C2, accurate stream, disable cache
Read offset correction : 667
Overread into Lead-In and Lead-Out : No

Used output format : C:\Users\Pepe\Downloads\Flac\flac-1.1.4-win\bin\flac.exe   (User Defined Encoder)
                     320 kBit/s
                     Additional command line options : -8 -V -T "artist=%a" -T "title=%t" -T "album=%g" -T "date=%y" -T "tracknumber=%n" -T "genre=%m" %s

Other options      :
    Fill up missing offset samples with silence : Yes
    Delete leading and trailing silent blocks : No
    Native Win32 interface for Win NT & 2000

Track  1
     Filename C:\Users\Pepe\Documents\Azureus Downloads\Supertramp - 1979 - Paris (Japanese SHM-CD)\Disc2\01 - Dreamer.wav

     Pre-gap length  0:00:02.00

     Peak level 99.8 %
     Track quality 100.0 %
     Test CRC BD0F6989
     Copy CRC BD0F6989
     Copy OK

Track  2
     Filename C:\Users\Pepe\Documents\Azureus Downloads\Supertramp - 1979 - Paris (Japanese SHM-CD)\Disc2\02 - Rudy.wav

     Peak level 99.8 %
     Track quality 100.0 %
     Test CRC B3E8E314
     Copy CRC B3E8E314
     Copy OK

Track  3
     Filename C:\Users\Pepe\Documents\Azureus Downloads\Supertramp - 1979 - Paris (Japanese SHM-CD)\Disc2\03 - A soap box opera.wav

     Peak level 99.8 %
     Track quality 100.0 %
     Test CRC 070FAFB5
     Copy CRC 070FAFB5
     Copy OK

Track  4
     Filename C:\Users\Pepe\Documents\Azureus Downloads\Supertramp - 1979 - Paris (Japanese SHM-CD)\Disc2\04 - Asylum.wav

     Peak level 99.8 %
     Track quality 100.0 %
     Test CRC 087F3F21
     Copy CRC 087F3F21
     Copy OK

Track  5
     Filename C:\Users\Pepe\Documents\Azureus Downloads\Supertramp - 1979 - Paris (Japanese SHM-CD)\Disc2\05 - Take the long way home.wav

     Peak level 99.8 %
     Track quality 100.0 %
     Test CRC 8243D258
     Copy CRC 8243D258
     Copy OK

Track  6
     Filename C:\Users\Pepe\Documents\Azureus Downloads\Supertramp - 1979 - Paris (Japanese SHM-CD)\Disc2\06 - Fool's overture.wav

     Peak level 99.8 %
     Track quality 99.9 %
     Test CRC 62F5AA7C
     Copy CRC 62F5AA7C
     Copy OK

Track  7
     Filename C:\Users\Pepe\Documents\Azureus Downloads\Supertramp - 1979 - Paris (Japanese SHM-CD)\Disc2\07 - Two of us.wav

     Peak level 76.1 %
     Track quality 99.8 %
     Test CRC 9D5BC44F
     Copy CRC 9D5BC44F
     Copy OK

Track  8
     Filename C:\Users\Pepe\Documents\Azureus Downloads\Supertramp - 1979 - Paris (Japanese SHM-CD)\Disc2\08 - Crime of the century.wav

     Peak level 99.8 %
     Track quality 100.0 %
     Test CRC F7C6AF8E
     Copy CRC F7C6AF8E
     Copy OK

No errors occured

End of status report
Код:
Код:
-----------------------

DON'T MODIFY THIS FILE

-----------------------

PERFORMER: auCDtect Task Manager, ver. 1.5.1RC4 build 1.5.1.5
Copyright (c) 2008-2010 y-soft. All rights reserved
http:/y-soft.org

ANALYZER: auCDtect: CD records authenticity detector, version 0.8.2
Copyright (c) 2004 Oleg Berngardt. All rights reserved.
Copyright (c) 2004 Alexander Djourik. All rights reserved.

FILE: 08 - Crime of the century.flac
  Size: 47313032 Hash: DEDF4EE3E3EF5C4C9CDB58AF7E17E59E Accuracy: -m0
  Conclusion: CDDA 100%
  Signature: 10F053C8202F2D4ACBC61DE8FF5E373BFBE743B5
FILE: 07 - Two of us.flac
  Size: 9323925 Hash: 80D8736ED22389FDF8657D369E5E13C2 Accuracy: -m0
  Conclusion: CDDA 100%
  Signature: E00F459B95484DC16F8869526EBA92F6B8989981
FILE: 06 - Fool's overture.flac
  Size: 71552744 Hash: 6C569CBA0A0FB9A02A57618618EF0E2D Accuracy: -m0
  Conclusion: CDDA 100%
  Signature: DA2EA71C1E6BE0E2354F73909FA1703989843790
FILE: 05 - Take the long way home.flac
  Size: 35964103 Hash: 2565CC04598A7579CBCDA37DCB840909 Accuracy: -m0
  Conclusion: CDDA 100%
  Signature: 2D004DA12B00362277D693324E0F500AB8D6D47D
FILE: 04 - Asylum.flac
  Size: 48157965 Hash: DFCD48742C5598957FF1ED80C261FF50 Accuracy: -m0
  Conclusion: CDDA 100%
  Signature: 0F14E4E6B4A04CDB876508D49DFE96D95C3EE00F
FILE: 03 - A soap box opera.flac
  Size: 32417595 Hash: E97CAE73675224B90C67AE6AA05E2BCF Accuracy: -m0
  Conclusion: CDDA 100%
  Signature: 012D91DC21CECB438AB166316A93D67B0CF97FD8
FILE: 02 - Rudy.flac
  Size: 49741957 Hash: 638D688081DC7BF85EB7F7F12939E1E8 Accuracy: -m0
  Conclusion: CDDA 100%
  Signature: 33CF71CE1BC47250B500AF42BC0CF897EAE11D2F
FILE: 01 - Dreamer.flac
  Size: 25013208 Hash: DC01F687D11B3A22BC91988C757FBCE7 Accuracy: -m0
  Conclusion: CDDA 100%
  Signature: B8F8D85EBE04FA9DF7ED062769F4F9EED7EF09EF
Код:
Код:
REM GENRE Rock
REM DATE 1979
REM DISCID 6F0AE408
REM COMMENT "ExactAudioCopy v0.95b4"
PERFORMER "Supertramp"
TITLE "Paris - CD 2"
FILE "01 - Dreamer.wav" WAVE
  TRACK 01 AUDIO
    TITLE "Dreamer"
    PERFORMER "Supertramp"
    INDEX 01 00:00:00
FILE "02 - Rudy.wav" WAVE
  TRACK 02 AUDIO
    TITLE "Rudy"
    PERFORMER "Supertramp"
    INDEX 01 00:00:00
FILE "03 - A soap box opera.wav" WAVE
  TRACK 03 AUDIO
    TITLE "A soap box opera"
    PERFORMER "Supertramp"
    INDEX 01 00:00:00
FILE "04 - Asylum.wav" WAVE
  TRACK 04 AUDIO
    TITLE "Asylum"
    PERFORMER "Supertramp"
    INDEX 01 00:00:00
FILE "05 - Take the long way home.wav" WAVE
  TRACK 05 AUDIO
    TITLE "Take the long way home"
    PERFORMER "Supertramp"
    INDEX 01 00:00:00
FILE "06 - Fool's overture.wav" WAVE
  TRACK 06 AUDIO
    TITLE "Fool's overture"
    PERFORMER "Supertramp"
    INDEX 01 00:00:00
FILE "07 - Two of us.wav" WAVE
  TRACK 07 AUDIO
    TITLE "Two of us"
    PERFORMER "Supertramp"
    INDEX 01 00:00:00
FILE "08 - Crime of the century.wav" WAVE
  TRACK 08 AUDIO
    TITLE "Crime of the century"
    PERFORMER "Supertramp"
    INDEX 01 00:00:00
#777Треклист:
01. Crazy (4:45)
02. Put On Your Old Brown Shoes (4:23)
03. It's Raining Again (4:24)
04. Bonnie (5:38)
05. Know Who You Are (5:00)
06. My Kind Of Lady (5:16)
07. C'est Le Bon (5:32)
08. Waiting So Long (6:35)
09. Don't Leave Me Now (6:28)

Продолжительность: 00:48:00


Код:
Код:
Exact Audio Copy V0.99 prebeta 4 from 23. January 2008

Отчёт EAC об извлечении, выполненном 21. декабря 2008, 14:07

Supertramp / ....Famous Last Words... - The Supertramp Remasters

Дисковод: Optiarc DVD RW AD-7200S   Adapter: 1  ID: 1

Режим чтения                 : Достоверность
Использование точного потока : Да
Отключение кэша аудио        : Да
Использование указателей C2  : Нет

Коррекция смещения при чтении                     : 48
Способность читать области Lead-in и Lead-out     : Нет
Заполнение пропущенных сэмплов тишиной            : Да
Удаление блоков с тишиной в начале и конце        : Нет
При вычислениях CRC использовались нулевые сэмплы : Да
Интерфейс                                         : Встроенный Win32-интерфейс для Win NT/2000

Выходной формат : Внутренние WAV-операции
Формат сэмплов  : 44.100 Гц; 16 бит; стерео

TOC извлечённого CD

     Трек |   Старт  | Длительность | Начальный сектор | Конечный сектор
    ---------------------------------------------------------------------
       1  |  0:00.00 |    4:44.65   |           0      |      21364
       2  |  4:44.65 |    4:22.42   |       21365      |      41056
       3  |  9:07.32 |    4:24.31   |       41057      |      60887
       4  | 13:31.63 |    5:37.39   |       60888      |      86201
       5  | 19:09.27 |    4:59.66   |       86202      |     108692
       6  | 24:09.18 |    5:15.67   |      108693      |     132384
       7  | 29:25.10 |    5:32.05   |      132385      |     157289
       8  | 34:57.15 |    6:34.40   |      157290      |     186879
       9  | 41:31.55 |    6:25.68   |      186880      |     215822

Характеристики диапазона извлечения и сообщения об ошибках

Выбранный диапазон

     Имя файла D:\Supertramp - ....Famous Last Words... - The Supertramp Remasters.wav

     Пиковый уровень 99.8 %
     Качество диапазона 100.0 %
     CRC копии 4EC808C2
     Копирование... OK

Ошибок не произошло

AccurateRip: сводка

Трек  1  точное извлечение (доверие 14)  [26A349E3]
Трек  2  точное извлечение (доверие 15)  [F240964E]
Трек  3  точное извлечение (доверие 15)  [5A6CA922]
Трек  4  точное извлечение (доверие 14)  [9DF4443D]
Трек  5  точное извлечение (доверие 14)  [4E949C43]
Трек  6  точное извлечение (доверие 14)  [AF399FA2]
Трек  7  точное извлечение (доверие 14)  [C5C7E8B2]
Трек  8  точное извлечение (доверие 14)  [7CE6EAD8]
Трек  9  точное извлечение (доверие 14)  [163B9411]

Все треки извлечены точно

Конец отчёта
Код:
Код:
-----------------------

DON'T MODIFY THIS FILE

-----------------------

PERFORMER: auCDtect Task Manager, ver. 1.5.1RC4 build 1.5.1.5
Copyright (c) 2008-2010 y-soft. All rights reserved
http:/y-soft.org

ANALYZER: auCDtect: CD records authenticity detector, version 0.8.2
Copyright (c) 2004 Oleg Berngardt. All rights reserved.
Copyright (c) 2004 Alexander Djourik. All rights reserved.

FILE: Supertramp - Famous Last Words.ape
  Size: 306300756 Hash: A42264DBBDD362C71046051920C3EC60 Accuracy: -m0
  Conclusion: CDDA 100%
  Signature: 5DD94E2C98A98FA277DE9E4C3FB7E039A97FF81B
#777Треклист:
01. Cannonball (7:38)
02. Still In Love (4:37)
03. No Inbetween (4:37)
04. Better Days (6:17)
05. Brother Where You Bound (16:30)
06. Ever Open Door (3:06)

Продолжительность: 00:42:45


Код:
Код:
EAC extraction logfile from 20. September 2008, 9:57 for CD
Supertramp / Brother Where You Bound (Japanese SHM-CD)

Used drive  : HL-DT-STDVD-RW GSA-H11N   Adapter: 1  ID: 0
Read mode   : Secure with NO C2, accurate stream, disable cache
Read offset correction : 667
Overread into Lead-In and Lead-Out : No

Used output format : C:\Users\Pepe\Downloads\Flac\flac-1.1.4-win\bin\flac.exe   (User Defined Encoder)
                     320 kBit/s
                     Additional command line options : -8 -V -T "artist=%a" -T "title=%t" -T "album=%g" -T "date=%y" -T "tracknumber=%n" -T "genre=%m" %s

Other options      :
    Fill up missing offset samples with silence : Yes
    Delete leading and trailing silent blocks : No
    Native Win32 interface for Win NT & 2000

Track  1
     Filename C:\Users\Pepe\Documents\Azureus Downloads\Supertramp - 1985 - Brother You Were Bound (Japanese SHM-CD)\01 - Cannonball.wav

     Pre-gap length  0:00:02.00

     Peak level 99.8 %
     Track quality 100.0 %
     Test CRC ABC5272E
     Copy CRC ABC5272E
     Copy OK

Track  2
     Filename C:\Users\Pepe\Documents\Azureus Downloads\Supertramp - 1985 - Brother You Were Bound (Japanese SHM-CD)\02 - Still In Love.wav

     Peak level 99.8 %
     Track quality 100.0 %
     Test CRC 3FEE62BC
     Copy CRC 3FEE62BC
     Copy OK

Track  3
     Filename C:\Users\Pepe\Documents\Azureus Downloads\Supertramp - 1985 - Brother You Were Bound (Japanese SHM-CD)\03 - No Inbetween.wav

     Peak level 99.8 %
     Track quality 100.0 %
     Test CRC D0CAA911
     Copy CRC D0CAA911
     Copy OK

Track  4
     Filename C:\Users\Pepe\Documents\Azureus Downloads\Supertramp - 1985 - Brother You Were Bound (Japanese SHM-CD)\04 - Better Days.wav

     Peak level 99.8 %
     Track quality 100.0 %
     Test CRC 1FF918A8
     Copy CRC 1FF918A8
     Copy OK

Track  5
     Filename C:\Users\Pepe\Documents\Azureus Downloads\Supertramp - 1985 - Brother You Were Bound (Japanese SHM-CD)\05 - Brother Where You Bound.wav

     Pre-gap length  0:00:02.72

     Peak level 99.8 %
     Track quality 100.0 %
     Test CRC 209416CA
     Copy CRC 209416CA
     Copy OK

Track  6
     Filename C:\Users\Pepe\Documents\Azureus Downloads\Supertramp - 1985 - Brother You Were Bound (Japanese SHM-CD)\06 - Ever Open Door.wav

     Peak level 99.8 %
     Track quality 100.0 %
     Test CRC 12CC0E66
     Copy CRC 12CC0E66
     Copy OK

No errors occured

End of status report
Код:
Код:
-----------------------

DON'T MODIFY THIS FILE

-----------------------

PERFORMER: auCDtect Task Manager, ver. 1.5.1RC4 build 1.5.1.5
Copyright (c) 2008-2010 y-soft. All rights reserved
http:/y-soft.org

ANALYZER: auCDtect: CD records authenticity detector, version 0.8.2
Copyright (c) 2004 Oleg Berngardt. All rights reserved.
Copyright (c) 2004 Alexander Djourik. All rights reserved.

FILE: 06 - Ever Open Door.flac
  Size: 17374243 Hash: 8F123C22EC7F544369C2FBC3ED790E14 Accuracy: -m0
  Conclusion: CDDA 100%
  Signature: ABB8979D75D1E5DB122161A3C37C6184446716F3
FILE: 05 - Brother Where You Bound.flac
  Size: 107213633 Hash: 4084D0A9924DDB31E5647D295DF0AE11 Accuracy: -m0
  Conclusion: CDDA 100%
  Signature: 64A9E7857D228BFC7F688A9FD3D9781742686581
FILE: 04 - Better Days.flac
  Size: 43928212 Hash: 8DF7BF4AE9153B9068C7F53523116CC7 Accuracy: -m0
  Conclusion: CDDA 100%
  Signature: DF793265D6802C5193DDC9F94998AE4451E602E2
FILE: 03 - No Inbetween.flac
  Size: 27962665 Hash: F4882795CCCD2042B3BA67661FBECABE Accuracy: -m0
  Conclusion: CDDA 99%
  Signature: 7AB5DC31D903C60B6552EEC989B5EA8030924277
FILE: 02 - Still In Love.flac
  Size: 32498820 Hash: A39BE9BFD62034542D98474CD2D9010B Accuracy: -m0
  Conclusion: CDDA 100%
  Signature: C2E73FE2BFEE3504BE4F830CB0D0A055F68EB778
FILE: 01 - Cannonball.flac
  Size: 56288658 Hash: F569E01ACC9CCCF1469E95BC1EE94A89 Accuracy: -m0
  Conclusion: CDDA 100%
  Signature: 1C7BE70C2E256AF92932A0970118B3AF0DA03039
Код:
Код:
REM GENRE Rock
REM DATE 1985
REM DISCID 3C0A0406
REM COMMENT "ExactAudioCopy v0.95b4"
PERFORMER "Supertramp"
TITLE "Brother Where You Bound (Japanese SHM-CD)"
FILE "01 - Cannonball.wav" WAVE
  TRACK 01 AUDIO
    TITLE "Cannonball"
    PERFORMER "Supertramp"
    INDEX 01 00:00:00
FILE "02 - Still In Love.wav" WAVE
  TRACK 02 AUDIO
    TITLE "Still In Love"
    PERFORMER "Supertramp"
    INDEX 01 00:00:00
FILE "03 - No Inbetween.wav" WAVE
  TRACK 03 AUDIO
    TITLE "No Inbetween"
    PERFORMER "Supertramp"
    INDEX 01 00:00:00
FILE "04 - Better Days.wav" WAVE
  TRACK 04 AUDIO
    TITLE "Better Days"
    PERFORMER "Supertramp"
    INDEX 01 00:00:00
  TRACK 05 AUDIO
    TITLE "Brother Where You Bound"
    PERFORMER "Supertramp"
    INDEX 00 06:14:03
FILE "05 - Brother Where You Bound.wav" WAVE
    INDEX 01 00:00:00
FILE "06 - Ever Open Door.wav" WAVE
  TRACK 06 AUDIO
    TITLE "Ever Open Door"
    PERFORMER "Supertramp"
    INDEX 01 00:00:00
#777Треклист:
01. It's Alright (5:01)
02. Not The Moment (4:37)
03. It Doesn't Matter (4:53)
04. Where I Stand (3:41)
05. Free As A Bird (4:25)
06. I'm Beggin' You (5:31)
07. You Never Can Tell With Friends (4:18)
08. Thing For You (4:00)
09. An Awful Thing To Waste (7:50)

Продолжительность: 00:44:17


Код:
Код:
EAC extraction logfile from 20. September 2008, 10:53 for CD
Supertramp / Free As A Bird (Japanese SHM-CD)

Used drive  : HL-DT-STDVD-RW GSA-H11N   Adapter: 1  ID: 0
Read mode   : Secure with NO C2, accurate stream, disable cache
Read offset correction : 667
Overread into Lead-In and Lead-Out : No

Used output format : C:\Users\Pepe\Downloads\Flac\flac-1.1.4-win\bin\flac.exe   (User Defined Encoder)
                     320 kBit/s
                     Additional command line options : -8 -V -T "artist=%a" -T "title=%t" -T "album=%g" -T "date=%y" -T "tracknumber=%n" -T "genre=%m" %s

Other options      :
    Fill up missing offset samples with silence : Yes
    Delete leading and trailing silent blocks : No
    Native Win32 interface for Win NT & 2000

Track  1
     Filename C:\Users\Pepe\Documents\Azureus Downloads\Supertramp - 1987 - Free As A Bird (Japanese SHM-CD)\01 - It's Alright.wav

     Pre-gap length  0:00:02.00

     Peak level 99.8 %
     Track quality 100.0 %
     Test CRC E5A16672
     Copy CRC E5A16672
     Copy OK

Track  2
     Filename C:\Users\Pepe\Documents\Azureus Downloads\Supertramp - 1987 - Free As A Bird (Japanese SHM-CD)\02 - Not The Moment.wav

     Peak level 99.8 %
     Track quality 100.0 %
     Test CRC 12E3F25E
     Copy CRC 12E3F25E
     Copy OK

Track  3
     Filename C:\Users\Pepe\Documents\Azureus Downloads\Supertramp - 1987 - Free As A Bird (Japanese SHM-CD)\03 - It Doesn't Matter.wav

     Peak level 99.8 %
     Track quality 100.0 %
     Test CRC 61B6CA6B
     Copy CRC 61B6CA6B
     Copy OK

Track  4
     Filename C:\Users\Pepe\Documents\Azureus Downloads\Supertramp - 1987 - Free As A Bird (Japanese SHM-CD)\04 - Where I Stand.wav

     Pre-gap length  0:00:01.23

     Peak level 99.8 %
     Track quality 100.0 %
     Test CRC 27704152
     Copy CRC 27704152
     Copy OK

Track  5
     Filename C:\Users\Pepe\Documents\Azureus Downloads\Supertramp - 1987 - Free As A Bird (Japanese SHM-CD)\05 - Free As A Bird.wav

     Pre-gap length  0:00:01.17

     Peak level 99.8 %
     Track quality 100.0 %
     Test CRC 7EF13288
     Copy CRC 7EF13288
     Copy OK

Track  6
     Filename C:\Users\Pepe\Documents\Azureus Downloads\Supertramp - 1987 - Free As A Bird (Japanese SHM-CD)\06 - I'm Beggin' You.wav

     Pre-gap length  0:00:03.49

     Peak level 99.8 %
     Track quality 100.0 %
     Test CRC F753F6E1
     Copy CRC F753F6E1
     Copy OK

Track  7
     Filename C:\Users\Pepe\Documents\Azureus Downloads\Supertramp - 1987 - Free As A Bird (Japanese SHM-CD)\07 - You Never Can Tell With Friends.wav

     Pre-gap length  0:00:01.55

     Peak level 99.8 %
     Track quality 100.0 %
     Test CRC 17F5CEB5
     Copy CRC 17F5CEB5
     Copy OK

Track  8
     Filename C:\Users\Pepe\Documents\Azureus Downloads\Supertramp - 1987 - Free As A Bird (Japanese SHM-CD)\08 - Thing For You.wav

     Pre-gap length  0:00:01.17

     Peak level 99.8 %
     Track quality 100.0 %
     Test CRC 4E1353CF
     Copy CRC 4E1353CF
     Copy OK

Track  9
     Filename C:\Users\Pepe\Documents\Azureus Downloads\Supertramp - 1987 - Free As A Bird (Japanese SHM-CD)\09 - An Awful Thing To Waste.wav

     Peak level 99.8 %
     Track quality 100.0 %
     Test CRC 5D5F47D6
     Copy CRC 5D5F47D6
     Copy OK

No errors occured

End of status report
Код:
Код:
-----------------------

DON'T MODIFY THIS FILE

-----------------------

PERFORMER: auCDtect Task Manager, ver. 1.5.1RC4 build 1.5.1.5
Copyright (c) 2008-2010 y-soft. All rights reserved
http:/y-soft.org

ANALYZER: auCDtect: CD records authenticity detector, version 0.8.2
Copyright (c) 2004 Oleg Berngardt. All rights reserved.
Copyright (c) 2004 Alexander Djourik. All rights reserved.

FILE: 09 - An Awful Thing To Waste.flac
  Size: 55978099 Hash: F4B31B8167F11871BAA2F4E798BF7DAA Accuracy: -m0
  Conclusion: CDDA 99%
  Signature: 01BEEF7FB0551EBD6FDBF7C914D4E7921BD7FF66
FILE: 08 - Thing For You.flac
  Size: 27160139 Hash: 723D999C0E3BA987B8EB765B914823C8 Accuracy: -m0
  Conclusion: CDDA 100%
  Signature: A1BFBB2C4DB6673FD780158A105BC81EC87AFC5E
FILE: 07 - You Never Can Tell With Friends.flac
  Size: 29971114 Hash: C94D2230E6DE80C55CD37410C05A907D Accuracy: -m0
  Conclusion: CDDA 100%
  Signature: FF34AF462C19AFBEBD01B764DFB1104A34DD1924
FILE: 06 - I'm Beggin' You.flac
  Size: 39762582 Hash: 2CCA000D71C96069C031081E483AF48B Accuracy: -m0
  Conclusion: CDDA 99%
  Signature: 6D511A744F09A259F186C09D58445B95D4083460
FILE: 05 - Free As A Bird.flac
  Size: 30378707 Hash: A4BEF2BB7900E81BF881715C96A52C8E Accuracy: -m0
  Conclusion: CDDA 100%
  Signature: 3E0B2A7ED7451AD43DB230F80E0CE1107779F208
FILE: 04 - Where I Stand.flac
  Size: 26766175 Hash: D7B291623C5963C4D5A2E6AC3C4045A1 Accuracy: -m0
  Conclusion: CDDA 100%
  Signature: BFC1336BA0BEEDA9777FA4ABFD20ACA922A8302A
FILE: 03 - It Doesn't Matter.flac
  Size: 34601564 Hash: E93F0797DAEDDFC85D588F7AF3CF61F7 Accuracy: -m0
  Conclusion: CDDA 100%
  Signature: 3321263C746AF927FB8227FBC8D3C4FA489C67EC
FILE: 02 - Not The Moment.flac
  Size: 32316156 Hash: 0FC707291E0ED1EDED4750B30E43DE65 Accuracy: -m0
  Conclusion: CDDA 100%
  Signature: 179871CCE5C5ED27B1C80AB39203130598DD6957
FILE: 01 - It's Alright.flac
  Size: 35831537 Hash: 51136A6680F2C8A5A79E07EE77844DF6 Accuracy: -m0
  Conclusion: CDDA 100%
  Signature: 735371E609DA8DDAA12003862F13DA192E5726A2
Код:
Код:
REM GENRE Rock
REM DATE 1987
REM DISCID 790A6109
REM COMMENT "ExactAudioCopy v0.95b4"
PERFORMER "Supertramp"
TITLE "Free As A Bird (Japanese SHM-CD)"
FILE "01 - It's Alright.wav" WAVE
  TRACK 01 AUDIO
    TITLE "It's Alright"
    PERFORMER "Supertramp"
    INDEX 01 00:00:00
FILE "02 - Not The Moment.wav" WAVE
  TRACK 02 AUDIO
    TITLE "Not The Moment"
    PERFORMER "Supertramp"
    INDEX 01 00:00:00
FILE "03 - It Doesn't Matter.wav" WAVE
  TRACK 03 AUDIO
    TITLE "It Doesn't Matter"
    PERFORMER "Supertramp"
    INDEX 01 00:00:00
  TRACK 04 AUDIO
    TITLE "Where I Stand"
    PERFORMER "Supertramp"
    INDEX 00 04:52:07
FILE "04 - Where I Stand.wav" WAVE
    INDEX 01 00:00:00
  TRACK 05 AUDIO
    TITLE "Free As A Bird"
    PERFORMER "Supertramp"
    INDEX 00 03:40:00
FILE "05 - Free As A Bird.wav" WAVE
    INDEX 01 00:00:00
  TRACK 06 AUDIO
    TITLE "I'm Beggin' You"
    PERFORMER "Supertramp"
    INDEX 00 04:21:63
FILE "06 - I'm Beggin' You.wav" WAVE
    INDEX 01 00:00:00
  TRACK 07 AUDIO
    TITLE "You Never Can Tell With Friends"
    PERFORMER "Supertramp"
    INDEX 00 05:28:58
FILE "07 - You Never Can Tell With Friends.wav" WAVE
    INDEX 01 00:00:00
  TRACK 08 AUDIO
    TITLE "Thing For You"
    PERFORMER "Supertramp"
    INDEX 00 04:16:63
FILE "08 - Thing For You.wav" WAVE
    INDEX 01 00:00:00
FILE "09 - An Awful Thing To Waste.wav" WAVE
  TRACK 09 AUDIO
    TITLE "An Awful Thing To Waste"
    PERFORMER "Supertramp"
    INDEX 01 00:00:00
Правила, инструкции, FAQ!!!
Торрент  Добавлен [16 мар 2014, 00:14] Скачать торрент Магнет ссылка
Скачать торрент
[ Размер 33.89 КБ / Просмотров 73 ]

Статус  
 
Размер  3.12 ГБ
Приватный: Нет (DHT включён)
.torrent скачан  0
 


     Отправить личное сообщение
   
Страница 1 из 1
Показать сообщения за:  Поле сортировки  
Начать новую тему Ответить на тему


Сейчас этот форум просматривают: нет зарегистрированных пользователей и гости: 0


Вы не можете начинать темы
Вы не можете отвечать на сообщения
Вы не можете редактировать свои сообщения
Вы не можете удалять свои сообщения
Вы не можете добавлять вложения

Перейти:  
cron