Начать новую тему Ответить на тему
Статистика раздачи
Размер: 402.24 МБ | Добавлен: 01 апр 2019, 19:03 | Скачали: 1
Сидеров: 3  [0 байт/сек]    Личеров: 1  [0 байт/сек]
Пред. тема | След. тема 

Автор
Сообщение

СообщениеДобавлено: 01 апр 2019, 19:03 

Ответить с цитатой 

Superorganism / Superorganism
Формат записи/Источник записи: [TR24][OF]
Наличие водяных знаков: Нет
Год издания/переиздания диска: 2018
Жанр: Electronic, Pop, Indie Pop
Издатель (лейбл): Domino Recording Co
Продолжительность: 33:04
Наличие сканов в содержимом раздачи: Front
Источник (релизер): 7digital
Контейнер: FLAC (*.flac)
Тип рипа: tracks
Разрядность: 24/44,1
Формат: PCM
Количество каналов: 2.0
Треклист:
01. It’s All Good (03:23)
02. Everybody Wants to Be Famous (03:04)
03. Nobody Cares (03:49)
04. Reflections on the Screen (03:52)
05. Sprorgnsm (03:20)
06. Something for Your M.I.N.D. (02:45)
07. Nai’s March (02:39)
08. The Prawn Song (03:15)
09. Relax (02:43)
10. Night Time (04:14)
Код:
foobar2000 1.1.10 / Dynamic Range Meter 1.1.1
log date: 2018-03-04 12:58:40
--------------------------------------------------------------------------------
Analyzed: Superorganism / Superorganism
--------------------------------------------------------------------------------
DR         Peak         RMS     Duration Track
--------------------------------------------------------------------------------
DR4       -1.30 dB    -8.04 dB      3:24 ?-It’s All Good
DR5       -0.30 dB    -6.81 dB      3:05 ?-Everybody Wants To Be Famous
DR4       -0.30 dB    -6.64 dB      3:49 ?-Nobody Cares
DR4       -0.30 dB    -5.26 dB      3:52 ?-Reflections On The Screen
DR5       -0.30 dB    -7.43 dB      3:20 ?-SPRORGNSM
DR5       -0.30 dB    -7.48 dB      2:45 ?-Something For Your M.I.N.D.
DR6       -0.30 dB    -8.68 dB      2:40 ?-Nai’s March
DR4       -0.30 dB    -7.28 dB      3:16 ?-The Prawn Song
DR5       -0.30 dB    -7.45 dB      2:43 ?-Relax
DR4       -0.30 dB    -6.88 dB      4:14 ?-Night Time
--------------------------------------------------------------------------------
Number of tracks:  10
Official DR value: DR5
Samplerate:        44100 Hz
Channels:          2
Bits per sample:   24
Bitrate:           1737 kbps
Codec:             FLAC
================================================================================
Superorganism present their highly anticipated debut album. Self-produced, written and recorded in the east London house-stroke-studio-stroke band HQ they all share together (imagine a squat version of the Brill Building, or a lo-fi, DIY take on Max Martin's Cheiron studio), Superorganism is a spectacularly confident debut record that beams with a sense of wonky fun, a kaleidoscopic riot of sound and visuals. Influenced by the world-building depth of artists like Devo, Beck and The Avalanches, Superoganism soundtracks the band's rapid trajectory from shared house side project to global audiovisual powerhouse and features previous singles 'Something For Your M.I.N.D.' and 'It's All Good / Nobody Cares' as well as their brand single 'Everybody Wants To Be Famous'.
https://en.wikipedia.org/wiki/Superorganism_(band)
Правила, инструкции, FAQ!!!
Торрент  Добавлен [01 апр 2019, 19:03] Скачать торрент Магнет ссылка
Скачать торрент
[ Размер 16.78 КБ / Просмотров 12 ]

Статус
Проверен 
 
Размер  402.24 МБ
Приватный: Нет (DHT включён)
.torrent скачан  1
 


     Отправить личное сообщение
   
Страница 1 из 1
Показать сообщения за:  Поле сортировки  
Начать новую тему Ответить на тему


Сейчас этот форум просматривают: нет зарегистрированных пользователей и гости: 0


Вы не можете начинать темы
Вы не можете отвечать на сообщения
Вы не можете редактировать свои сообщения
Вы не можете удалять свои сообщения
Вы не можете добавлять вложения

Перейти:  
cron