Начать новую тему Ответить на тему
Статистика раздачи
Размер: 478.53 МБ | Добавлен: 29 фев 2020, 00:26 | Скачали: 0
Сидеров: 0  [0 байт/сек]    Личеров: 0  [0 байт/сек]
Пред. тема | След. тема 

Автор
Сообщение

СообщениеДобавлено: 29 фев 2020, 00:26 

Ответить с цитатой 


Stuart Leathem & Esther Trousdale


Experiments In Energy



• Формат записи | Источник записи: [TR24][OF]
• Наличие водяных знаков: Нет
• Год издания релиза: 2020
• Жанр: Pop
• Продолжительность: 00:45:37
• Источник: internet
• WEB релиз: ссылка
• Контейнер: FLAC (*.flac)
• Тип рипа: tracks
• Разрядность: 24/44,1
• Формат: WAV (flac.ape.wv)
• Количество каналов: 2.0
• Наличие сканов: front
Tracklist:
01 - Grand Cafe (00:04:36)
02 - Superstars (00:04:25)
03 - The Dame (00:02:47)
04 - Yellow Syrup (00:06:04)
05 - Small Vans Go Fast (00:03:43)
06 - Interlude (00:02:24)
07 - Rise Above It All (00:03:03)
08 - Zalah's Lament (00:02:14)
09 - Banana Shallot (00:02:03)
10 - Under That Bridge (00:06:06)
11 - Within The Haze (00:04:31)
12 - Try To Let It Go (00:03:38)


Код:
foobar2000 1.3.9 / Замер динамического диапазона (DR) 1.1.1
Дата отчёта:  2020-02-05 08:50:55
--------------------------------------------------------------------------------
Анализ:   Stuart Leathem & Esther Trousdale feat. Claire Leathem / Experiments In Energy (1)
          Stuart Leathem & Esther Trousdale feat. Clodagh Leathem / Experiments In Energy (2)
          Stuart Leathem & Esther Trousdale feat. Simon Harte / Experiments In Energy (3)
          Stuart Leathem & Esther Trousdale / Experiments In Energy (4-12)
--------------------------------------------------------------------------------
DR         Пики         RMS           Продолжительность трека
--------------------------------------------------------------------------------
DR9       -0.10 дБ   -13.39 дБ      2:47 03-The Dame
DR10      -0.10 дБ   -12.78 дБ      4:31 11-Within The Haze
DR8       -0.10 дБ   -11.23 дБ      4:26 02-Superstars
DR7       -0.10 дБ   -11.14 дБ      4:36 01-Grand Café
DR14      -0.10 дБ   -19.01 дБ      6:04 04-Yellow Syrup
DR4       -0.10 дБ    -6.57 дБ      3:43 05-Small Vans Go Fast
DR6       -0.10 дБ   -11.26 дБ      2:24 06-Interlude
DR5       -0.10 дБ    -7.40 дБ      3:03 07-Rise Above It All
DR8       -0.10 дБ   -12.31 дБ      2:14 08-Zalah's Lament
DR5       -0.10 дБ    -7.20 дБ      2:03 09-Banana Shallot
DR7       -0.10 дБ   -11.56 дБ      6:07 10-Under That Bridge
DR9       -0.10 дБ   -11.33 дБ      3:38 12-Try To Let It Go
--------------------------------------------------------------------------------
Количество треков: 12
Реальные значения DR: DR8
Частота:   44100 Гц
Каналов:   2
Разрядность:   24
Битрейт:   1554 кбит/с
Кодек:   FLAC
================================================================================

Правила, инструкции, FAQ!!!
Торрент  Добавлен [29 фев 2020, 00:26] Скачать торрент Магнет ссылка
Скачать торрент
[ Размер 19.87 КБ / Просмотров 8 ]

Статус
Проверен 
 
Размер  478.53 МБ
Приватный: Нет (DHT включён)
.torrent скачан  0
 


     Отправить личное сообщение
   
Страница 1 из 1
Показать сообщения за:  Поле сортировки  
Начать новую тему Ответить на тему


Сейчас этот форум просматривают: нет зарегистрированных пользователей и гости: 0


Вы не можете начинать темы
Вы не можете отвечать на сообщения
Вы не можете редактировать свои сообщения
Вы не можете удалять свои сообщения
Вы не можете добавлять вложения

Перейти:  
cron
cron