Начать новую тему Ответить на тему
Статистика раздачи
Размер: 349.94 МБ | Добавлен: 16 мар 2014, 00:45 | Скачали: 0
Сидеров: 0  [0 байт/сек]    Личеров: 1  [0 байт/сек]
Пред. тема | След. тема 

Автор
Сообщение

СообщениеДобавлено: 16 мар 2014, 00:45 

Ответить с цитатой 

Streetlight Manifesto - Somewhere in the Between (2007)

Год: 2007
Жанр: Ska, Punk
Продолжительность: 00:44:31
Издатель (лейбл): Victory Records
Номер по каталогу: VR329

Кодек: FLAC
Битрейт: Lossless

Треклист:
01. We Will Fall Together 04:49
02. Down, Down, Down to Mephisto's Cafe 05:03
03. Would You Be Impressed? 03:21
04. One Foot on the Gas, One Foot in the Grave 05:27
05. Watch It Crash 04:42
06. Somewhere in the Between 03:43
07. Forty Days 03:53
08. The Blonde Lead the Blind 04:49
09. The Receiving End of It All 05:18
10. What a Wicked Gang Are We 03:23
Код:
Код:
Exact Audio Copy V1.0 beta 3 from 29. August 2011

EAC extraction logfile from 27. November 2013, 1:41

Streetlight Manifesto / Somewhere in the Between

Used drive  : HL-DT-STDVDRAM GU71N   Adapter: 0  ID: 0

Read mode               : Secure
Utilize accurate stream : Yes
Defeat audio cache      : Yes
Make use of C2 pointers : No

Read offset correction                      : 6
Overread into Lead-In and Lead-Out          : No
Fill up missing offset samples with silence : Yes
Delete leading and trailing silent blocks   : No
Null samples used in CRC calculations       : Yes
Used interface                              : Native Win32 interface for Win NT & 2000

Used output format : Internal WAV Routines
Sample format      : 44.100 Hz; 16 Bit; Stereo

TOC of the extracted CD

     Track |   Start  |  Length  | Start sector | End sector
    ---------------------------------------------------------
        1  |  0:00.00 |  4:49.22 |         0    |    21696
        2  |  4:49.22 |  5:03.26 |     21697    |    44447
        3  |  9:52.48 |  3:21.51 |     44448    |    59573
        4  | 13:14.24 |  5:27.47 |     59574    |    84145
        5  | 18:41.71 |  4:42.51 |     84146    |   105346
        6  | 23:24.47 |  3:43.01 |    105347    |   122072
        7  | 27:07.48 |  3:53.19 |    122073    |   139566
        8  | 31:00.67 |  4:49.16 |    139567    |   161257
        9  | 35:50.08 |  5:18.31 |    161258    |   185138
       10  | 41:08.39 |  3:23.31 |    185139    |   200394

Range status and errors

Selected range

     Filename G:\Музыка\Streetlight Manifesto - Somewhere in the Between\Streetlight Manifesto - Somewhere in the Between.wav

     Peak level 99.1 %
     Extraction speed 1.1 X
     Range quality 99.9 %
     Test CRC 9E1620A3
     Copy CRC 9E1620A3
     Copy OK

No errors occurred

AccurateRip summary

Track  1  accurately ripped (confidence 11)  [60874468]  (AR v2)
Track  2  accurately ripped (confidence 11)  [1FC287A3]  (AR v2)
Track  3  accurately ripped (confidence 11)  [674240D3]  (AR v2)
Track  4  accurately ripped (confidence 11)  [E6F1ED0D]  (AR v2)
Track  5  accurately ripped (confidence 11)  [1D6F4F1B]  (AR v2)
Track  6  accurately ripped (confidence 11)  [035833AD]  (AR v2)
Track  7  accurately ripped (confidence 11)  [66174E57]  (AR v2)
Track  8  accurately ripped (confidence 11)  [9893FB1B]  (AR v2)
Track  9  accurately ripped (confidence 11)  [B7C41A33]  (AR v2)
Track 10  accurately ripped (confidence 11)  [26109A4C]  (AR v2)

All tracks accurately ripped

End of status report
Код:
Код:
-----------------------

DON'T MODIFY THIS FILE

-----------------------

PERFORMER: auCDtect Task Manager, ver. 1.6.0 RC1 build 1.6.0.1
Copyright (c) 2008-2010 y-soft. All rights reserved
http:/y-soft.org

ANALYZER: auCDtect: CD records authenticity detector, version 0.8.2
Copyright (c) 2004 Oleg Berngardt. All rights reserved.
Copyright (c) 2004 Alexander Djourik. All rights reserved.

FILE: Streetlight Manifesto - Somewhere in the Between.flac
  Size: 366932631 Hash: F4B3CECCF137C0B46E46D5F339BAE79E Accuracy: -m0
  Conclusion: CDDA 100%
  Signature: F9F8AA33874768CA6C877A59ED26E44536760308
Собственный рип
Правила, инструкции, FAQ!!!
Торрент  Добавлен [16 мар 2014, 00:45] Скачать торрент Магнет ссылка
Скачать торрент
[ Размер 14.64 КБ / Просмотров 26 ]

Статус  
 
Размер  349.94 МБ
Приватный: Нет (DHT включён)
.torrent скачан  0
 


     Отправить личное сообщение
   
Страница 1 из 1
Показать сообщения за:  Поле сортировки  
Начать новую тему Ответить на тему


Сейчас этот форум просматривают: нет зарегистрированных пользователей и гости: 0


Вы не можете начинать темы
Вы не можете отвечать на сообщения
Вы не можете редактировать свои сообщения
Вы не можете удалять свои сообщения
Вы не можете добавлять вложения

Перейти:  
cron
cron