Начать новую тему Ответить на тему
Статистика раздачи
Размер: 251.34 МБ | Добавлен: 06 янв 2020, 12:52 | Скачали: 1
Сидеров: 4  [0 байт/сек]    Личеров: 0  [0 байт/сек]
Пред. тема | След. тема 

Автор
Сообщение

СообщениеДобавлено: 06 янв 2020, 12:52 

Ответить с цитатой 

Demonauta - Tierra Del Fuego
Жанр: Stoner Rock
Носитель: CD
Страна-производитель диска (релиза): Chile
Год издания: 2017
Издатель (лейбл): Red House Records
Номер по каталогу: RHR 002
Страна исполнителя (группы): Chile
Аудиокодек: FLAC (*.flac)
Тип рипа: image+.cue
Продолжительность: 00:42:21
Источник: собственный рип
Наличие сканов в содержимом раздачи: да
Треклист:
01 Into the Darkness
02 Sahara Trip
03 Del Vendaval
04 Astro II
05 Cosmos
06 Venas de la Tierra
07 Psiconauta
Код:
Exact Audio Copy V1.3 from 2. September 2016
EAC extraction logfile from 2. January 2020, 17:14
Demonauta / Tierra Del Fuego
Used drive  : MATSHITAUJDA730 DVD/CDRW   Adapter: 1  ID: 1
Read mode               : Secure
Utilize accurate stream : Yes
Defeat audio cache      : No
Make use of C2 pointers : No
Read offset correction                      : 690
Overread into Lead-In and Lead-Out          : No
Fill up missing offset samples with silence : Yes
Delete leading and trailing silent blocks   : No
Null samples used in CRC calculations       : Yes
Used interface                              : Native Win32 interface for Win NT & 2000
Used output format              : User Defined Encoder
Selected bitrate                : 768 kBit/s
Quality                         : High
Add ID3 tag                     : No
Command line compressor         : C:\Program Files (x86)\Exact Audio Copy\FLAC\FLAC.EXE
Additional command line options : -6 -V -T "ARTIST=%artist%" -T "TITLE=%title%" -T "ALBUM=%albumtitle%" -T "DATE=%year%" -T "TRACKNUMBER=%tracknr%" -T "GENRE=%genre%" -T "COMMENT=%comment%" -T "BAND=%albuminterpret%" -T "ALBUMARTIST=%albuminterpret%" -T "COMPOSER=%composer%" %haslyrics%--tag-from-file=LYRICS="%lyricsfile%"%haslyrics% -T "DISCNUMBER=%cdnumber%" -T "TOTALDISCS=%totalcds%" -T "TOTALTRACKS=%numtracks%" %hascover%--picture="%coverfile%"%hascover% %source% -o %dest%
TOC of the extracted CD
     Track |   Start  |  Length  | Start sector | End sector
    ---------------------------------------------------------
        1  |  0:00.00 |  5:42.61 |         0    |    25710
        2  |  5:42.61 |  4:15.27 |     25711    |    44862
        3  |  9:58.13 |  6:39.28 |     44863    |    74815
        4  | 16:37.41 |  4:44.12 |     74816    |    96127
        5  | 21:21.53 |  5:31.29 |     96128    |   120981
        6  | 26:53.07 |  7:23.58 |    120982    |   154264
        7  | 34:16.65 |  8:04.62 |    154265    |   190626
Range status and errors
Selected range
     Filename C:\Users\usuario\Downloads\Demonauta - Tierra Del Fuego.wav
     Peak level 100.0 %
     Extraction speed 6.0 X
     Range quality 100.0 %
     Test CRC BBDE9C3F
     Copy CRC BBDE9C3F
     Copy OK
No errors occurred
AccurateRip summary
Track  1  accurately ripped (confidence 1)  [E12F4516]  (AR v2)
Track  2  accurately ripped (confidence 1)  [5C4C2AF2]  (AR v2)
Track  3  accurately ripped (confidence 1)  [3585540D]  (AR v2)
Track  4  accurately ripped (confidence 1)  [927CEE78]  (AR v2)
Track  5  accurately ripped (confidence 1)  [48DB5109]  (AR v2)
Track  6  accurately ripped (confidence 1)  [DCA962CD]  (AR v2)
Track  7  accurately ripped (confidence 1)  [9FCCDC80]  (AR v2)
All tracks accurately ripped
End of status report
==== Log checksum 3C13B7930562F09D2820F33CF7A60211CA56AB7595217A6E83C567A33DCE4B16 ====
Код:
REM GENRE "Stoner Rock"
REM DATE 2017
REM DISCID 5809ED07
REM COMMENT "ExactAudioCopy v1.3"
PERFORMER "Demonauta"
TITLE "Tierra Del Fuego"
REM COMPOSER "Demonauta"
FILE "Demonauta - Tierra Del Fuego.flac" WAVE
  TRACK 01 AUDIO
    TITLE "Into The Darkness"
    PERFORMER "Demonauta"
    REM COMPOSER "Demonauta"
    INDEX 01 00:00:00
  TRACK 02 AUDIO
    TITLE "Sahara Trip"
    PERFORMER "Demonauta"
    REM COMPOSER "Demonauta"
    INDEX 01 05:42:61
  TRACK 03 AUDIO
    TITLE "Del Vendaval"
    PERFORMER "Demonauta"
    REM COMPOSER "Demonauta"
    INDEX 01 09:58:13
  TRACK 04 AUDIO
    TITLE "Astro II"
    PERFORMER "Demonauta"
    REM COMPOSER "Demonauta"
    INDEX 01 16:37:41
  TRACK 05 AUDIO
    TITLE "Cosmos"
    PERFORMER "Demonauta"
    REM COMPOSER "Demonauta"
    INDEX 01 21:21:53
  TRACK 06 AUDIO
    TITLE "Venas De La Tierra"
    PERFORMER "Demonauta"
    REM COMPOSER "Demonauta"
    INDEX 01 26:53:07
  TRACK 07 AUDIO
    TITLE "Psiconauta"
    PERFORMER "Demonauta"
    REM COMPOSER "Demonauta"
    INDEX 01 34:16:65
Доп. информация: https://demonauta.bandcamp.com/
David Véliz: Guitar, vocals
Miguel Quezada: Bass
Alejandro Sanhueza: Drums
Правила, инструкции, FAQ!!!
Торрент  Добавлен [06 янв 2020, 12:52] Скачать торрент Магнет ссылка
Скачать торрент
[ Размер 20.27 КБ / Просмотров 10 ]

Статус
Проверен 
 
Размер  251.34 МБ
Приватный: Нет (DHT включён)
.torrent скачан  1
 


     Отправить личное сообщение
   
Страница 1 из 1
Показать сообщения за:  Поле сортировки  
Начать новую тему Ответить на тему


Сейчас этот форум просматривают: нет зарегистрированных пользователей и гости: 0


Вы не можете начинать темы
Вы не можете отвечать на сообщения
Вы не можете редактировать свои сообщения
Вы не можете удалять свои сообщения
Вы не можете добавлять вложения

Перейти:  
cron
cron