Начать новую тему Ответить на тему
Статистика раздачи
Размер: 298.02 МБ | Добавлен: 16 мар 2014, 00:15 | Скачали: 0
Сидеров: 1  [0 байт/сек]    Личеров: 1  [0 байт/сек]
Пред. тема | След. тема 

Автор
Сообщение

СообщениеДобавлено: 16 мар 2014, 00:15 

Ответить с цитатой 

Still Life - Still Life (1971) Released 2001

Жанр: Progressive Rock
Год: 1971
Страна: UK
Released: 2001 (Limited Edition)/Japan
Label: Vertigo (British Rock Legend Series)
Catalog#: UICY-9053
Аудио кодек: FLAC
Тип рипа: image+.cue
Битрейт аудио: lossless
Продолжительность: 00:41:39
Источник-релизер: cherginets
Scans: в раздаче
Треклист:
01. People In Black (8:22)
02. Don't Go (4:37)
03. October Witches (8:05)
04. Love Song No. 6 (I'll Never Love You Girl) (6:37)
05. Dreams (7:33)
06. Time (6:26)


Английская прогрессивная сцена конца 60х годов была просто наводнена многообещающими группами и исполнителями. Многие из них, выпустив один два альбома, в силу самых разных причин (как правило, коммерческая бесперспективность) распадались, так и не добившись массового успеха. Причем эти, так называемые, группы-неудачники нередко представляли действительно яркое явление в мире прогрессивного рока. Одни из таких легенд, команда Still Life.
Группу собрали три школьных товарища Мартин Кьюр (Martin Cure), Терри Хоуэлс (Terry Howells) и Грэм Эмос (Graham Amos) в 1967 году в городе Coventry. Имя первоначального барабанщика история до нас не донесла (хотя, наверное, сменилось их не мало), но пару лет спустя за ударные сел Алан Севидж (Alan Savage), из Northampton. С самого начала ансамблем заинтересовались на Vertigo и подписали контракт на выпуск 6 альбомов!!! Но столь грандиозные планы были прерваны распадом Still Life по выходу первой пластинки и одного сингла. Кстати, сингл What did we miss/My kingdom cannot lose вышел еще в 1968 году и остался совершенно незамеченным. По некоторым данным автором заглавной композицией выступили музыканты из другой легендарной английской группы Titus Groan.
LP "Still life" записывался весной 1970 года, и в октябре работа была готова. По звуку и настроению это была совершенно уникальная работа. Отсутствие гитариста позволило органисту раскрыться в полной мере. Кроме авторского материала (иногда в соавторстве с Cure и Amos) он продемонстрировал недюжинные исполнительские способности. Его дикие и неистовые сольные партии на хаммонде заставили звучать все шесть композиций мощно, сочно и динамично. Эмоциональный вокал Martin'а Cure звучал подстать клавишным, каждая нота, каждое слово были на пределе (особенно в People in black). Сравнить их музыку можно разве, что с ранними работами Uriah Heep. Только композиции Still Life звучали интереснее, сложнее и изысканнее. Сейчас их единственная пластинка высоко котируется в кругу любителей раннего английского прогрессива, причем, имея на то самые веские основания.
Вообще данные об этой группе очень противоречивы. В частности, по некоторой информации они частенько выступали на разогреве у Edgar Broughton Band в 1974 году. То есть когда они уже должны были распасться (данные из другого источника). Да и тот факт, что Cure и Amos были участниками групп The Peeps и Rainbows также официально не подтвержден. Судьба всех музыкантов покрыта мраком (за исключением ударника, который все еще живет в Northampton). Но, по сути, не столь важно, что из этого правда, а что домыслы. Ведь музыканты оставили после себя самое главное - бессмертное музыкальное творение, которое радует слушателей вот уже более 30 лет.
Код:
Код:
Exact Audio Copy V1.0 beta 3 from 29. August 2011

EAC extraction logfile from 8. May 2013, 19:02

Still Life / Still Life

Used drive  : PLEXTOR DVDR   PX-L890SA   Adapter: 1  ID: 0

Read mode               : Secure
Utilize accurate stream : Yes
Defeat audio cache      : Yes
Make use of C2 pointers : No

Read offset correction                      : 6
Overread into Lead-In and Lead-Out          : No
Fill up missing offset samples with silence : Yes
Delete leading and trailing silent blocks   : No
Null samples used in CRC calculations       : Yes
Used interface                              : Installed external ASPI interface

Used output format              : User Defined Encoder
Selected bitrate                : 1024 kBit/s
Quality                         : High
Add ID3 tag                     : No
Command line compressor         : C:\Program Files (x86)\Exact Audio Copy\wavpack.exe
Additional command line options : -hlm %source%

TOC of the extracted CD

     Track |   Start  |  Length  | Start sector | End sector
    ---------------------------------------------------------
        1  |  0:00.00 |  8:21.47 |         0    |    37621
        2  |  8:21.47 |  4:37.25 |     37622    |    58421
        3  | 12:58.72 |  8:05.08 |     58422    |    94804
        4  | 21:04.05 |  6:37.32 |     94805    |   124611
        5  | 27:41.37 |  7:33.05 |    124612    |   158591
        6  | 35:14.42 |  6:25.58 |    158592    |   187524

Range status and errors

Selected range

     Filename D:\wwphil\Still Life - Still Life\Still Life - Still Life.wav

     Peak level 97.9 %
     Extraction speed 2.9 X
     Range quality 100.0 %
     Test CRC 8C348D61
     Copy CRC 8C348D61
     Copy OK

No errors occurred

AccurateRip summary

Track  1  cannot be verified as accurate (confidence 3)  [087432AB], AccurateRip returned [0F16D121]  (AR v2)
Track  2  cannot be verified as accurate (confidence 3)  [EBFB3CE7], AccurateRip returned [18464048]  (AR v2)
Track  3  cannot be verified as accurate (confidence 3)  [A6D8BDEC], AccurateRip returned [AD7F913B]  (AR v2)
Track  4  cannot be verified as accurate (confidence 3)  [2BFA80F5], AccurateRip returned [B04664DC]  (AR v2)
Track  5  cannot be verified as accurate (confidence 3)  [E5CD2777], AccurateRip returned [0F514C54]  (AR v2)
Track  6  cannot be verified as accurate (confidence 3)  [A1D87D72], AccurateRip returned [4C0AF799]  (AR v2)

No tracks could be verified as accurate
You may have a different pressing from the one(s) in the database

End of status report

==== Log checksum A22C6321E8BE898CE64858CF4252867FAE9CB19E447B3A62B53B85A97E973C87 ====
Код:
Код:
-----------------------

DON'T MODIFY THIS FILE

-----------------------

PERFORMER: auCDtect Task Manager, ver. 1.5.1RC6 build 1.5.1.7
Copyright (c) 2008-2010 y-soft. All rights reserved
http:/y-soft.org

ANALYZER: auCDtect: CD records authenticity detector, version 0.8.2
Copyright (c) 2004 Oleg Berngardt. All rights reserved.
Copyright (c) 2004 Alexander Djourik. All rights reserved.

FILE: Still Life - Still Life (1971) [NL+].flac
  Size: 268486813 Hash: EA9C450761349197C4B9DC4FCB26EE16 Accuracy: -m0
  Conclusion: CDDA 100%
  Signature: 5159E368339E8D354C3329CD243BEFC309D05DE7
Код:
Код:
REM GENRE "Progressive Rock/UK"
REM DATE 1971 (2001 Japan)
REM DISCID 4209C406
REM COMMENT "ExactAudioCopy v1.0b3"
PERFORMER "Still Life"
TITLE "Still Life"
FILE "Still Life - Still Life (1971) [NL+].flac" WAVE
  TRACK 01 AUDIO
    TITLE "People In Black"
    PERFORMER "Still Life"
    INDEX 01 00:00:00
  TRACK 02 AUDIO
    TITLE "Don't Go"
    PERFORMER "Still Life"
    INDEX 00 08:17:42
    INDEX 01 08:21:47
  TRACK 03 AUDIO
    TITLE "October Witches"
    PERFORMER "Still Life"
    INDEX 00 12:55:17
    INDEX 01 12:58:72
  TRACK 04 AUDIO
    TITLE "Love Song No. 6 (I'll Never Love You Girl)"
    PERFORMER "Still Life"
    INDEX 00 20:59:45
    INDEX 01 21:04:05
  TRACK 05 AUDIO
    TITLE "Dreams"
    PERFORMER "Still Life"
    INDEX 00 27:37:45
    INDEX 01 27:41:37
  TRACK 06 AUDIO
    TITLE "Time"
    PERFORMER "Still Life"
    INDEX 00 35:11:67
    INDEX 01 35:14:42
Правила, инструкции, FAQ!!!
Торрент  Добавлен [16 мар 2014, 00:15] Скачать торрент Магнет ссылка
Скачать торрент
[ Размер 13.05 КБ / Просмотров 34 ]

Статус  
 
Размер  298.02 МБ
Приватный: Нет (DHT включён)
.torrent скачан  0
 


     Отправить личное сообщение
   
Страница 1 из 1
Показать сообщения за:  Поле сортировки  
Начать новую тему Ответить на тему


Сейчас этот форум просматривают: нет зарегистрированных пользователей и гости: 0


Вы не можете начинать темы
Вы не можете отвечать на сообщения
Вы не можете редактировать свои сообщения
Вы не можете удалять свои сообщения
Вы не можете добавлять вложения

Перейти:  
cron
cron