Начать новую тему Ответить на тему
Статистика раздачи
Размер: 655.87 МБ | Добавлен: 16 мар 2014, 00:15 | Скачали: 1
Сидеров: 1  [0 байт/сек]    Личеров: 0  [0 байт/сек]
Пред. тема | След. тема 

Автор
Сообщение

СообщениеДобавлено: 16 мар 2014, 00:15 

Ответить с цитатой 

Steven Wilson - The Raven That Refused to Sing (And Other Stories) (Deluxe Edition 2CD) (2013)

Год: 2013
Жанр:
Progressive Rock
Продолжительность: 01:54:47

Кодек: FLAC
Битрейт: Lossless

Трек лист:
CD 1
Продолжительность: 00:54:43
1. Luminol
2. Drive Home
3. The Holy Drinker
4. The Pin Drop
5. The Watchmaker
6. The Raven That Refused to Sing


CD 2
Продолжительность: 01:00:03
1. Luminol (demo)
2. Drive Home (demo)
3. The Holy Drinker (demo)
4. Clock Song (unused idea)
5. The Pin Drop (demo)
6. The Watchmaker (demo)
7. The Raven That Refused to Sing (demo)
Код:
Код:
X Lossless Decoder version 20130127 (142.3)

XLD extraction logfile from 2013-02-21 16:38:54 +0000

Steven Wilson / The Raven That Refused To Sing (And Other Stories)

Used drive : MATSHITA DVD-R UJ-898 (revision HC10)
Media type : Pressed CD

Ripper mode : XLD Secure Ripper
Disable audio cache : OK for the drive with a cache less than 1375KiB
Make use of C2 pointers : NO
Read offset correction : 102
Max retry count : 20
Gap status : Analyzed, Appended (except HTOA)

TOC of the extracted CD
 Track | Start | Length | Start sector | End sector
 ---------------------------------------------------------
 1 | 00:00:00 | 12:10:09 | 0 | 54758
 2 | 12:10:09 | 07:37:18 | 54759 | 89051
 3 | 19:47:27 | 10:13:63 | 89052 | 135089
 4 | 30:01:15 | 05:03:27 | 135090 | 157841
 5 | 35:04:42 | 11:42:01 | 157842 | 210492
 6 | 46:46:43 | 07:57:10 | 210493 | 246277

AccurateRip Summary
 Disc not found in AccurateRip DB.

All Tracks
 Album gain : -6.42 dB
 Peak : 1.000000
 Statistics
 Read error : 0
 Jitter error (maybe fixed) : 0
 Retry sector count : 0
 Damaged sector count : 0

Track 01
 Filename : /Users/ANON/Music/what.cd/Rips/Steven Wilson/2013 - Steven Wilson - The Raven That Refused To Sing (And Other Stories) [FLAC]/01 - Luminol.flac
 /Users/ANON/Music/what.cd/Rips/Steven Wilson/2013 - Steven Wilson - The Raven That Refused To Sing (And Other Stories) [V0]/01 - Luminol.mp3
 /Users/ANON/Music/what.cd/Rips/Steven Wilson/2013 - Steven Wilson - The Raven That Refused To Sing (And Other Stories) [V2]/01 - Luminol.mp3
 /Users/ANON/Music/what.cd/Rips/Steven Wilson/2013 - Steven Wilson - The Raven That Refused To Sing (And Other Stories) [320]/01 - Luminol.mp3
 Pre-gap length : 00:02:00

 Track gain : -6.61 dB
 Peak : 1.000000
 CRC32 hash (test run) : 47CEE8C6
 CRC32 hash : 47CEE8C6
 CRC32 hash (skip zero) : 9029B4DF
 AccurateRip v1 signature : A6339586
 AccurateRip v2 signature : 71B13D82
 ->Track not present in AccurateRip database.
 Statistics
 Read error : 0
 Jitter error (maybe fixed) : 0
 Retry sector count : 0
 Damaged sector count : 0

Track 02
 Filename : /Users/ANON/Music/what.cd/Rips/Steven Wilson/2013 - Steven Wilson - The Raven That Refused To Sing (And Other Stories) [FLAC]/02 - Drive Home.flac
 /Users/ANON/Music/what.cd/Rips/Steven Wilson/2013 - Steven Wilson - The Raven That Refused To Sing (And Other Stories) [V0]/02 - Drive Home.mp3
 /Users/ANON/Music/what.cd/Rips/Steven Wilson/2013 - Steven Wilson - The Raven That Refused To Sing (And Other Stories) [V2]/02 - Drive Home.mp3
 /Users/ANON/Music/what.cd/Rips/Steven Wilson/2013 - Steven Wilson - The Raven That Refused To Sing (And Other Stories) [320]/02 - Drive Home.mp3

 Track gain : -4.55 dB
 Peak : 0.999390
 CRC32 hash (test run) : AEE14302
 CRC32 hash : AEE14302
 CRC32 hash (skip zero) : BF9A6A34
 AccurateRip v1 signature : 3014974B
 AccurateRip v2 signature : F7338368
 ->Track not present in AccurateRip database.
 Statistics
 Read error : 0
 Jitter error (maybe fixed) : 0
 Retry sector count : 0
 Damaged sector count : 0

Track 03
 Filename : /Users/ANON/Music/what.cd/Rips/Steven Wilson/2013 - Steven Wilson - The Raven That Refused To Sing (And Other Stories) [FLAC]/03 - The Holy Drinker.flac
 /Users/ANON/Music/what.cd/Rips/Steven Wilson/2013 - Steven Wilson - The Raven That Refused To Sing (And Other Stories) [V0]/03 - The Holy Drinker.mp3
 /Users/ANON/Music/what.cd/Rips/Steven Wilson/2013 - Steven Wilson - The Raven That Refused To Sing (And Other Stories) [V2]/03 - The Holy Drinker.mp3
 /Users/ANON/Music/what.cd/Rips/Steven Wilson/2013 - Steven Wilson - The Raven That Refused To Sing (And Other Stories) [320]/03 - The Holy Drinker.mp3

 Track gain : -5.98 dB
 Peak : 1.000000
 CRC32 hash (test run) : 092CA1FF
 CRC32 hash : 092CA1FF
 CRC32 hash (skip zero) : 1D1CE628
 AccurateRip v1 signature : B75DF60B
 AccurateRip v2 signature : 7AB10115
 ->Track not present in AccurateRip database.
 Statistics
 Read error : 0
 Jitter error (maybe fixed) : 0
 Retry sector count : 0
 Damaged sector count : 0

Track 04
 Filename : /Users/ANON/Music/what.cd/Rips/Steven Wilson/2013 - Steven Wilson - The Raven That Refused To Sing (And Other Stories) [FLAC]/04 - The Pin Drop.flac
 /Users/ANON/Music/what.cd/Rips/Steven Wilson/2013 - Steven Wilson - The Raven That Refused To Sing (And Other Stories) [V0]/04 - The Pin Drop.mp3
 /Users/ANON/Music/what.cd/Rips/Steven Wilson/2013 - Steven Wilson - The Raven That Refused To Sing (And Other Stories) [V2]/04 - The Pin Drop.mp3
 /Users/ANON/Music/what.cd/Rips/Steven Wilson/2013 - Steven Wilson - The Raven That Refused To Sing (And Other Stories) [320]/04 - The Pin Drop.mp3

 Track gain : -7.55 dB
 Peak : 1.000000
 CRC32 hash (test run) : 625CCE3C
 CRC32 hash : 625CCE3C
 CRC32 hash (skip zero) : CB1238B3
 AccurateRip v1 signature : 52C5ED1D
 AccurateRip v2 signature : A9583785
 ->Track not present in AccurateRip database.
 Statistics
 Read error : 0
 Jitter error (maybe fixed) : 0
 Retry sector count : 0
 Damaged sector count : 0

Track 05
 Filename : /Users/ANON/Music/what.cd/Rips/Steven Wilson/2013 - Steven Wilson - The Raven That Refused To Sing (And Other Stories) [FLAC]/05 - The Watchmaker.flac
 /Users/ANON/Music/what.cd/Rips/Steven Wilson/2013 - Steven Wilson - The Raven That Refused To Sing (And Other Stories) [V0]/05 - The Watchmaker.mp3
 /Users/ANON/Music/what.cd/Rips/Steven Wilson/2013 - Steven Wilson - The Raven That Refused To Sing (And Other Stories) [V2]/05 - The Watchmaker.mp3
 /Users/ANON/Music/what.cd/Rips/Steven Wilson/2013 - Steven Wilson - The Raven That Refused To Sing (And Other Stories) [320]/05 - The Watchmaker.mp3

 Track gain : -6.44 dB
 Peak : 1.000000
 CRC32 hash (test run) : 60B423BC
 CRC32 hash : 60B423BC
 CRC32 hash (skip zero) : ED0DC9AA
 AccurateRip v1 signature : 6A868756
 AccurateRip v2 signature : EB192626
 ->Track not present in AccurateRip database.
 Statistics
 Read error : 0
 Jitter error (maybe fixed) : 0
 Retry sector count : 0
 Damaged sector count : 0

Track 06
 Filename : /Users/ANON/Music/what.cd/Rips/Steven Wilson/2013 - Steven Wilson - The Raven That Refused To Sing (And Other Stories) [FLAC]/06 - The Raven That Refused to Sing.flac
 /Users/ANON/Music/what.cd/Rips/Steven Wilson/2013 - Steven Wilson - The Raven That Refused To Sing (And Other Stories) [V0]/06 - The Raven That Refused to Sing.mp3
 /Users/ANON/Music/what.cd/Rips/Steven Wilson/2013 - Steven Wilson - The Raven That Refused To Sing (And Other Stories) [V2]/06 - The Raven That Refused to Sing.mp3
 /Users/ANON/Music/what.cd/Rips/Steven Wilson/2013 - Steven Wilson - The Raven That Refused To Sing (And Other Stories) [320]/06 - The Raven That Refused to Sing.mp3

 Track gain : -5.41 dB
 Peak : 1.000000
 CRC32 hash (test run) : DC0410F2
 CRC32 hash : DC0410F2
 CRC32 hash (skip zero) : 774A71FA
 AccurateRip v1 signature : C91349CD
 AccurateRip v2 signature : 609442B0
 ->Track not present in AccurateRip database.
 Statistics
 Read error : 0
 Jitter error (maybe fixed) : 0
 Retry sector count : 0
 Damaged sector count : 0

No errors occurred

End of status report
Код:
Код:
X Lossless Decoder version 20130127 (142.3)

XLD extraction logfile from 2013-02-21 17:04:25 +0000

Steven Wilson / The Raven That Refused To Sing

Used drive : MATSHITA DVD-R UJ-898 (revision HC10)
Media type : Pressed CD

Ripper mode : XLD Secure Ripper
Disable audio cache : OK for the drive with a cache less than 1375KiB
Make use of C2 pointers : NO
Read offset correction : 102
Max retry count : 20
Gap status : Analyzed, Appended (except HTOA)

TOC of the extracted CD
 Track | Start | Length | Start sector | End sector
 ---------------------------------------------------------
 1 | 00:00:00 | 13:05:70 | 0 | 58944
 2 | 13:05:70 | 06:57:06 | 58945 | 90225
 3 | 20:03:01 | 09:47:12 | 90226 | 134262
 4 | 29:50:13 | 04:31:25 | 134263 | 154612
 5 | 34:21:38 | 05:15:24 | 154613 | 178261
 6 | 39:36:62 | 12:25:68 | 178262 | 234204
 7 | 52:02:55 | 08:00:35 | 234205 | 270239

AccurateRip Summary
 Disc not found in AccurateRip DB.

All Tracks
 Album gain : -5.44 dB
 Peak : 1.000000
 Statistics
 Read error : 0
 Jitter error (maybe fixed) : 0
 Retry sector count : 0
 Damaged sector count : 0

Track 01
 Filename : /Users/ANON/Music/what.cd/Rips/Steven Wilson/2012 - Steven Wilson - The Raven That Refused To Sing [FLAC]/01 - Luminol (Demo).flac
 /Users/ANON/Music/what.cd/Rips/Steven Wilson/2012 - Steven Wilson - The Raven That Refused To Sing [V0]/01 - Luminol (Demo).mp3
 /Users/ANON/Music/what.cd/Rips/Steven Wilson/2012 - Steven Wilson - The Raven That Refused To Sing [V2]/01 - Luminol (Demo).mp3
 /Users/ANON/Music/what.cd/Rips/Steven Wilson/2012 - Steven Wilson - The Raven That Refused To Sing [320]/01 - Luminol (Demo).mp3
 Pre-gap length : 00:02:00

 Track gain : -6.79 dB
 Peak : 0.996338
 CRC32 hash (test run) : 4CD4F1A2
 CRC32 hash : 4CD4F1A2
 CRC32 hash (skip zero) : B9C9BDB9
 AccurateRip v1 signature : 9B11BC94
 AccurateRip v2 signature : 23FFA377
 ->Track not present in AccurateRip database.
 Statistics
 Read error : 0
 Jitter error (maybe fixed) : 0
 Retry sector count : 0
 Damaged sector count : 0

Track 02
 Filename : /Users/ANON/Music/what.cd/Rips/Steven Wilson/2012 - Steven Wilson - The Raven That Refused To Sing [FLAC]/02 - Drive Home (Demo).flac
 /Users/ANON/Music/what.cd/Rips/Steven Wilson/2012 - Steven Wilson - The Raven That Refused To Sing [V0]/02 - Drive Home (Demo).mp3
 /Users/ANON/Music/what.cd/Rips/Steven Wilson/2012 - Steven Wilson - The Raven That Refused To Sing [V2]/02 - Drive Home (Demo).mp3
 /Users/ANON/Music/what.cd/Rips/Steven Wilson/2012 - Steven Wilson - The Raven That Refused To Sing [320]/02 - Drive Home (Demo).mp3

 Track gain : -3.79 dB
 Peak : 0.990051
 CRC32 hash (test run) : 4E5FD042
 CRC32 hash : 4E5FD042
 CRC32 hash (skip zero) : 63A15F28
 AccurateRip v1 signature : 53AC1453
 AccurateRip v2 signature : 6326358E
 ->Track not present in AccurateRip database.
 Statistics
 Read error : 0
 Jitter error (maybe fixed) : 0
 Retry sector count : 0
 Damaged sector count : 0

Track 03
 Filename : /Users/ANON/Music/what.cd/Rips/Steven Wilson/2012 - Steven Wilson - The Raven That Refused To Sing [FLAC]/03 - The Holy Drinker (Demo).flac
 /Users/ANON/Music/what.cd/Rips/Steven Wilson/2012 - Steven Wilson - The Raven That Refused To Sing [V0]/03 - The Holy Drinker (Demo).mp3
 /Users/ANON/Music/what.cd/Rips/Steven Wilson/2012 - Steven Wilson - The Raven That Refused To Sing [V2]/03 - The Holy Drinker (Demo).mp3
 /Users/ANON/Music/what.cd/Rips/Steven Wilson/2012 - Steven Wilson - The Raven That Refused To Sing [320]/03 - The Holy Drinker (Demo).mp3

 Track gain : -5.48 dB
 Peak : 0.999847
 CRC32 hash (test run) : 67DDF8D7
 CRC32 hash : 67DDF8D7
 CRC32 hash (skip zero) : 5961633E
 AccurateRip v1 signature : 60DB5E34
 AccurateRip v2 signature : 6C25CA7F
 ->Track not present in AccurateRip database.
 Statistics
 Read error : 0
 Jitter error (maybe fixed) : 0
 Retry sector count : 0
 Damaged sector count : 0

Track 04
 Filename : /Users/ANON/Music/what.cd/Rips/Steven Wilson/2012 - Steven Wilson - The Raven That Refused To Sing [FLAC]/04 - Clock Song (Unused Idea).flac
 /Users/ANON/Music/what.cd/Rips/Steven Wilson/2012 - Steven Wilson - The Raven That Refused To Sing [V0]/04 - Clock Song (Unused Idea).mp3
 /Users/ANON/Music/what.cd/Rips/Steven Wilson/2012 - Steven Wilson - The Raven That Refused To Sing [V2]/04 - Clock Song (Unused Idea).mp3
 /Users/ANON/Music/what.cd/Rips/Steven Wilson/2012 - Steven Wilson - The Raven That Refused To Sing [320]/04 - Clock Song (Unused Idea).mp3

 Track gain : 2.43 dB
 Peak : 0.539642
 CRC32 hash (test run) : 7C329CB7
 CRC32 hash : 7C329CB7
 CRC32 hash (skip zero) : 96023C1A
 AccurateRip v1 signature : 01FFE834
 AccurateRip v2 signature : B12E4AE2
 ->Track not present in AccurateRip database.
 Statistics
 Read error : 0
 Jitter error (maybe fixed) : 0
 Retry sector count : 0
 Damaged sector count : 0

Track 05
 Filename : /Users/ANON/Music/what.cd/Rips/Steven Wilson/2012 - Steven Wilson - The Raven That Refused To Sing [FLAC]/05 - The Pin Drop (Demo).flac
 /Users/ANON/Music/what.cd/Rips/Steven Wilson/2012 - Steven Wilson - The Raven That Refused To Sing [V0]/05 - The Pin Drop (Demo).mp3
 /Users/ANON/Music/what.cd/Rips/Steven Wilson/2012 - Steven Wilson - The Raven That Refused To Sing [V2]/05 - The Pin Drop (Demo).mp3
 /Users/ANON/Music/what.cd/Rips/Steven Wilson/2012 - Steven Wilson - The Raven That Refused To Sing [320]/05 - The Pin Drop (Demo).mp3

 Track gain : -5.66 dB
 Peak : 1.000000
 CRC32 hash (test run) : 94DC08D1
 CRC32 hash : 94DC08D1
 CRC32 hash (skip zero) : C62907C4
 AccurateRip v1 signature : 6FE120B6
 AccurateRip v2 signature : 73ABE15A
 ->Track not present in AccurateRip database.
 Statistics
 Read error : 0
 Jitter error (maybe fixed) : 0
 Retry sector count : 0
 Damaged sector count : 0

Track 06
 Filename : /Users/ANON/Music/what.cd/Rips/Steven Wilson/2012 - Steven Wilson - The Raven That Refused To Sing [FLAC]/06 - The Watchmaker (Demo).flac
 /Users/ANON/Music/what.cd/Rips/Steven Wilson/2012 - Steven Wilson - The Raven That Refused To Sing [V0]/06 - The Watchmaker (Demo).mp3
 /Users/ANON/Music/what.cd/Rips/Steven Wilson/2012 - Steven Wilson - The Raven That Refused To Sing [V2]/06 - The Watchmaker (Demo).mp3
 /Users/ANON/Music/what.cd/Rips/Steven Wilson/2012 - Steven Wilson - The Raven That Refused To Sing [320]/06 - The Watchmaker (Demo).mp3

 Track gain : -4.74 dB
 Peak : 1.000000
 CRC32 hash (test run) : F4CB06C9
 CRC32 hash : F4CB06C9
 CRC32 hash (skip zero) : EE83882A
 AccurateRip v1 signature : A4D9EFF8
 AccurateRip v2 signature : DF63775D
 ->Track not present in AccurateRip database.
 Statistics
 Read error : 0
 Jitter error (maybe fixed) : 0
 Retry sector count : 0
 Damaged sector count : 0

Track 07
 Filename : /Users/ANON/Music/what.cd/Rips/Steven Wilson/2012 - Steven Wilson - The Raven That Refused To Sing [FLAC]/07 - The Raven That Refused To Sing (Demo).flac
 /Users/ANON/Music/what.cd/Rips/Steven Wilson/2012 - Steven Wilson - The Raven That Refused To Sing [V0]/07 - The Raven That Refused To Sing (Demo).mp3
 /Users/ANON/Music/what.cd/Rips/Steven Wilson/2012 - Steven Wilson - The Raven That Refused To Sing [V2]/07 - The Raven That Refused To Sing (Demo).mp3
 /Users/ANON/Music/what.cd/Rips/Steven Wilson/2012 - Steven Wilson - The Raven That Refused To Sing [320]/07 - The Raven That Refused To Sing (Demo).mp3

 Track gain : -4.86 dB
 Peak : 0.999969
 CRC32 hash (test run) : 7151FE27
 CRC32 hash : 7151FE27
 CRC32 hash (skip zero) : 37B0273A
 AccurateRip v1 signature : EE974B9D
 AccurateRip v2 signature : 1F35F1C4
 ->Track not present in AccurateRip database.
 Statistics
 Read error : 0
 Jitter error (maybe fixed) : 0
 Retry sector count : 0
 Damaged sector count : 0

No errors occurred

End of status report
Код:
Код:
DON'T MODIFY THIS FILE

-----------------------

PERFORMER: auCDtect Task Manager, ver. 1.6.0 RC1 build 1.6.0.1
Copyright (c) 2008-2010 y-soft. All rights reserved
http:/y-soft.org

ANALYZER: auCDtect: CD records authenticity detector, version 0.8.2
Copyright (c) 2004 Oleg Berngardt. All rights reserved.
Copyright (c) 2004 Alexander Djourik. All rights reserved.

FILE: 07 - The Raven That Refused To Sing (Demo).flac
  Size: 40737589 Hash: 94247E581FC484195D8C5CA449CF05A6 Accuracy: -m0
  Conclusion: CDDA 100%
  Signature: EE1EB3EBF4B52AFB8928CF365F23203597C4819A
FILE: 06 - The Watchmaker (Demo).flac
  Size: 69371326 Hash: 3E9A36DA161BDEB0B7FF5CE6FAB4B9E3 Accuracy: -m0
  Conclusion: CDDA 100%
  Signature: E2C8A920423A11DD31257A9F8289D5653E2B7FEC
FILE: 05 - The Pin Drop (Demo).flac
  Size: 34765738 Hash: D09F5C96F80A89CCB94A831BA4CD8854 Accuracy: -m0
  Conclusion: CDDA 100%
  Signature: FE77B973CD9EC3C6B5D95AB8BB99EA69490DCA16
FILE: 04 - Clock Song (Unused Idea).flac
  Size: 18285234 Hash: 75433C229597107A9BDC8B383F02378E Accuracy: -m0
  Conclusion: CDDA 100%
  Signature: D68BDE0B0EF728E7BB9C19F8BDB87A3EC03E6A4D
FILE: 03 - The Holy Drinker (Demo).flac
  Size: 63399413 Hash: 1B5456330B429A434E964F3082DF48E4 Accuracy: -m0
  Conclusion: CDDA 100%
  Signature: 0845CA09E3180AC7155ADAA5112358AE25EE0808
FILE: 02 - Drive Home (Demo).flac
  Size: 41801318 Hash: 9527E9E51DA7677F33A399BDCC1DADCD Accuracy: -m0
  Conclusion: CDDA 100%
  Signature: 3F6AD9884339481E384D29C561AFE8F44D5D0758
FILE: 01 - Luminol (Demo).flac
  Size: 79243861 Hash: 55B2AC07A111CF1A6338CDE139B431BD Accuracy: -m0
  Conclusion: CDDA 100%
  Signature: 61FB0F970DAC647E75E4FDBE1482C646DEB4C792
FILE: 06 - The Raven That Refused to Sing.flac
  Size: 42809935 Hash: 4C4E19F2CD889F12E6914DE5F2EDF040 Accuracy: -m0
  Conclusion: CDDA 100%
  Signature: 2136FF9D0E57826B09251BA0E2B3ADB61B1A556D
FILE: 05 - The Watchmaker.flac
  Size: 71310507 Hash: 8F35A8BAA2A73049543B8B7C4A6A4ECB Accuracy: -m0
  Conclusion: CDDA 100%
  Signature: 8CC22C30FAD29FAC3A175F9F7FF1EDC78FB9DCCD
FILE: 04 - The Pin Drop.flac
  Size: 34254865 Hash: 9B6DA9EB8416E1EC2F8652F7B6A3C8A9 Accuracy: -m0
  Conclusion: CDDA 100%
  Signature: 1128A477E5D5E028B98AB86B17EBDE2685CEAC4F
FILE: 03 - The Holy Drinker.flac
  Size: 68670009 Hash: 7A68B761E8912B071A87C901D62D5379 Accuracy: -m0
  Conclusion: CDDA 100%
  Signature: CBC2416A67DEF7E8DA3F4AC85AD9EBD069662447
FILE: 02 - Drive Home.flac
  Size: 44313982 Hash: E823D29DDC2FCBFA8F5C9FC4338ED9EC Accuracy: -m0
  Conclusion: CDDA 100%
  Signature: 6D453F09AEC37D87B3090671BD266D605ECE9214
FILE: 01 - Luminol.flac
  Size: 78374441 Hash: 03B0771DAE87DF4921E5CF0EAA4F97F4 Accuracy: -m0
  Conclusion: CDDA 100%
  Signature: F126F0C1224D6218CE966852181810AE0BE58E30
Правила, инструкции, FAQ!!!
Торрент  Добавлен [16 мар 2014, 00:15] Скачать торрент Магнет ссылка
Скачать торрент
[ Размер 14.78 КБ / Просмотров 28 ]

Статус  
 
Размер  655.87 МБ
Приватный: Нет (DHT включён)
.torrent скачан  1
 


     Отправить личное сообщение
   
Страница 1 из 1
Показать сообщения за:  Поле сортировки  
Начать новую тему Ответить на тему


Сейчас этот форум просматривают: нет зарегистрированных пользователей и гости: 0


Вы не можете начинать темы
Вы не можете отвечать на сообщения
Вы не можете редактировать свои сообщения
Вы не можете удалять свои сообщения
Вы не можете добавлять вложения

Перейти:  
cron
cron