Начать новую тему Ответить на тему
Статистика раздачи
Размер: 212.4 МБ | Добавлен: 16 мар 2014, 00:16 | Скачали: 0
Сидеров: 1  [0 байт/сек]    Личеров: 0  [0 байт/сек]
Пред. тема | След. тема 

Автор
Сообщение

СообщениеДобавлено: 16 мар 2014, 00:16 

Ответить с цитатой 

Steve Conte - The Steve Conte NYC Album (2013)

Год: 2013
Страна-производитель диска: US
Издатель (лейбл): Thunderdog Records
Номер по каталогу #: 20052
Жанр: Rock
Продолжительность: 00:31:06

Кодек: FLAC (*.flac)
Битрейт: Lossless
Тип рипа: tracks+.cue
Спасибо: -Jоlly Rоger-

Треклист:
01. Dark In The Spotlight
02. OK DJ
03. She Blinds
04. What Would I Do If I Were Me?
05. Anytime At All Times
06. Lady Luck
07. Rock And Rye Queen
08. Broken Spoke Saloon
09. Happy Hour
10. Tax Free
Код:
Код:
Exact Audio Copy V1.0 beta 3 from 29. August 2011

EAC extraction logfile from 30. December 2013, 16:05

Steve Conte / The Steve Conte NYC Album

Used drive  : PLEXTOR BDDVDR PX-B310U   Adapter: 2  ID: 0

Read mode               : Secure
Utilize accurate stream : Yes
Defeat audio cache      : Yes
Make use of C2 pointers : No

Read offset correction                      : 6
Overread into Lead-In and Lead-Out          : No
Fill up missing offset samples with silence : Yes
Delete leading and trailing silent blocks   : No
Null samples used in CRC calculations       : Yes
Used interface                              : Native Win32 interface for Win NT & 2000
Gap handling                                : Appended to previous track

Used output format              : User Defined Encoder
Selected bitrate                : 320 kBit/s
Quality                         : High
Add ID3 tag                     : No
Command line compressor         : C:\Program Files (x86)\Exact Audio Copy\Flac\flac.exe
Additional command line options : -8 -V -T "ARTIST=%artist%" -T "TITLE=%title%" -T "ALBUM=%albumtitle%" -T "DATE=%year%" -T "TRACKNUMBER=%tracknr%" -T "GENRE=%genre%" -T "PERFORMER=%albuminterpret%" -T "COMPOSER=%composer%" %haslyrics%--tag-from-file=LYRICS="%lyricsfile%"%haslyrics% -T "ALBUMARTIST=%albumartist%" -T "DISCNUMBER=%cdnumber%" -T "TOTALDISCS=%totalcds%" -T "TOTALTRACKS=%numtracks%" -T "COMMENT=%comment%" %source% -o %dest%

TOC of the extracted CD

     Track |   Start  |  Length  | Start sector | End sector
    ---------------------------------------------------------
        1  |  0:00.00 |  3:01.61 |         0    |    13635
        2  |  3:01.61 |  2:59.40 |     13636    |    27100
        3  |  6:01.26 |  4:17.20 |     27101    |    46395
        4  | 10:18.46 |  2:12.44 |     46396    |    56339
        5  | 12:31.15 |  2:45.46 |     56340    |    68760
        6  | 15:16.61 |  3:35.68 |     68761    |    84953
        7  | 18:52.54 |  3:22.40 |     84954    |   100143
        8  | 22:15.19 |  4:33.38 |    100144    |   120656
        9  | 26:48.57 |  0:46.48 |    120657    |   124154
       10  | 27:35.30 |  3:30.36 |    124155    |   139940

Track  1

     Filename O:\Uploads\Wildhearts & Ginger\2014 - Steve Conte - The Steve Conte NYC  Album\01 - Dark In The Spotlight.wav

     Pre-gap length  0:00:02.00

     Peak level 99.5 %
     Extraction speed 3.1 X
     Track quality 100.0 %
     Test CRC BA5E0CEF
     Copy CRC BA5E0CEF
     Track not present in AccurateRip database
     Copy OK

Track  2

     Filename O:\Uploads\Wildhearts & Ginger\2014 - Steve Conte - The Steve Conte NYC  Album\02 - OK DJ.wav

     Peak level 99.5 %
     Extraction speed 3.6 X
     Track quality 100.0 %
     Test CRC 171B8F7C
     Copy CRC 171B8F7C
     Track not present in AccurateRip database
     Copy OK

Track  3

     Filename O:\Uploads\Wildhearts & Ginger\2014 - Steve Conte - The Steve Conte NYC  Album\03 - She Blinds.wav

     Peak level 99.5 %
     Extraction speed 3.5 X
     Track quality 99.9 %
     Test CRC C2DC9084
     Copy CRC C2DC9084
     Track not present in AccurateRip database
     Copy OK

Track  4

     Filename O:\Uploads\Wildhearts & Ginger\2014 - Steve Conte - The Steve Conte NYC  Album\04 - What Would I Do If I Were Me.wav

     Pre-gap length  0:00:00.32

     Peak level 99.5 %
     Extraction speed 4.1 X
     Track quality 100.0 %
     Test CRC 0176F440
     Copy CRC 0176F440
     Track not present in AccurateRip database
     Copy OK

Track  5

     Filename O:\Uploads\Wildhearts & Ginger\2014 - Steve Conte - The Steve Conte NYC  Album\05 - Anytime At All Times.wav

     Pre-gap length  0:00:00.34

     Peak level 99.5 %
     Extraction speed 4.1 X
     Track quality 100.0 %
     Test CRC 57D0E5FB
     Copy CRC 57D0E5FB
     Track not present in AccurateRip database
     Copy OK

Track  6

     Filename O:\Uploads\Wildhearts & Ginger\2014 - Steve Conte - The Steve Conte NYC  Album\06 - Lady Luck.wav

     Pre-gap length  0:00:00.32

     Peak level 99.5 %
     Extraction speed 4.5 X
     Track quality 100.0 %
     Test CRC 2AB53AD7
     Copy CRC 2AB53AD7
     Track not present in AccurateRip database
     Copy OK

Track  7

     Filename O:\Uploads\Wildhearts & Ginger\2014 - Steve Conte - The Steve Conte NYC  Album\07 - Rock And Rye Queen.wav

     Pre-gap length  0:00:00.60

     Peak level 99.5 %
     Extraction speed 3.8 X
     Track quality 99.9 %
     Test CRC DCB323F8
     Copy CRC DCB323F8
     Track not present in AccurateRip database
     Copy OK

Track  8

     Filename O:\Uploads\Wildhearts & Ginger\2014 - Steve Conte - The Steve Conte NYC  Album\08 - Broken Spoke Saloon.wav

     Peak level 99.5 %
     Extraction speed 5.1 X
     Track quality 100.0 %
     Test CRC 7FD7C59E
     Copy CRC 7FD7C59E
     Track not present in AccurateRip database
     Copy OK

Track  9

     Filename O:\Uploads\Wildhearts & Ginger\2014 - Steve Conte - The Steve Conte NYC  Album\09 - Happy Hour.wav

     Pre-gap length  0:00:01.40

     Peak level 99.5 %
     Extraction speed 2.7 X
     Track quality 100.0 %
     Test CRC 90EFD025
     Copy CRC 90EFD025
     Track not present in AccurateRip database
     Copy OK

Track 10

     Filename O:\Uploads\Wildhearts & Ginger\2014 - Steve Conte - The Steve Conte NYC  Album\10 - Tax Free.wav

     Pre-gap length  0:00:01.28

     Peak level 99.5 %
     Extraction speed 4.0 X
     Track quality 99.9 %
     Test CRC 94562F1A
     Copy CRC 94562F1A
     Track not present in AccurateRip database
     Copy OK

None of the tracks are present in the AccurateRip database

No errors occurred

End of status report

---- CUETools DB Plugin V2.1.3

[CTDB TOCID: nYhky5HsVmGx6ifEBy.os3n74FA-] disk not present in database, Submit result: nYhky5HsVmGx6ifEBy.os3n74FA- has been uploaded

==== Log checksum AA4AB8E70CDB58D0E0FC90DE2A7F49388C9B07B6F749A2FE4B44A5EBBFE1DC90 ====
Код:
Код:
-----------------------

DON'T MODIFY THIS FILE

-----------------------

PERFORMER: auCDtect Task Manager, ver. 1.6.0 RC1 build 1.6.0.1
Copyright (c) 2008-2010 y-soft. All rights reserved
http:/y-soft.org

ANALYZER: auCDtect: CD records authenticity detector, version 0.8.2
Copyright (c) 2004 Oleg Berngardt. All rights reserved.
Copyright (c) 2004 Alexander Djourik. All rights reserved.

FILE: 10 - Tax Free.flac
  Size: 23928610 Hash: 3AF6DC2E8500FD2EFB0AFEC93A040F4C Accuracy: -m0
  Conclusion: CDDA 100%
  Signature: 49B9A54A102C8B390E227887DA2A90DAB12FC3B8
FILE: 09 - Happy Hour.flac
  Size: 2686428 Hash: EFA0C3C1C76C886D3FB4DE85B762BBFB Accuracy: -m0
  Conclusion: CDDA 100%
  Signature: 74F8C08993780CFC0E587812252EE1C8C04298D1
FILE: 08 - Broken Spoke Saloon.flac
  Size: 31216316 Hash: BF2E585F7F6DC793BA809CF721CE7C1B Accuracy: -m0
  Conclusion: CDDA 100%
  Signature: 64FBD71FB75608123E7DC8D24E184F93BECB5957
FILE: 07 - Rock And Rye Queen.flac
  Size: 25189826 Hash: B91CF1AB77E083C2978C72BC31CBC47F Accuracy: -m0
  Conclusion: CDDA 100%
  Signature: AC11756604486A9734061CA3042334458B95644D
FILE: 06 - Lady Luck.flac
  Size: 26783620 Hash: A8F3E90842973133881180A6C58E1943 Accuracy: -m0
  Conclusion: CDDA 100%
  Signature: CB1397D594F521181D80770EBA60084EC51CDB0A
FILE: 05 - Anytime At All Times.flac
  Size: 19629873 Hash: 1FE874F5C8F28484E2EAF20C7E5BC10B Accuracy: -m0
  Conclusion: CDDA 100%
  Signature: 4B9A7B11637B3C40694F7E15579691DFBCD6BD95
FILE: 04 - What Would I Do If I Were Me.flac
  Size: 16240449 Hash: 5210071F24988B1D6843BD6AF82D9162 Accuracy: -m0
  Conclusion: CDDA 100%
  Signature: 1CDC6FAA291C592DCE4B9CF293F4F230DAA0C43D
FILE: 03 - She Blinds.flac
  Size: 31984399 Hash: ABAE635448389184CE8A9AF5ADDD8F24 Accuracy: -m0
  Conclusion: CDDA 100%
  Signature: 402DDA8A067D46DE55FA1689E58A88BADBE69DED
FILE: 02 - OK DJ.flac
  Size: 22174188 Hash: D244FAA7DFF31FEFA4A775028583D1DD Accuracy: -m0
  Conclusion: CDDA 99%
  Signature: 58C99656FD6C52686207B48975089766566F637D
FILE: 01 - Dark In The Spotlight.flac
  Size: 22152575 Hash: 4BFBF790BD678D2473163D474CFBE085 Accuracy: -m0
  Conclusion: CDDA 100%
  Signature: A6CF1D08D6D2CA5D38CC42577295F8E58DC9E5FE
Код:
Код:
REM GENRE Rock
REM DATE 2014
REM DISCID 7507490A
REM COMMENT "ExactAudioCopy v1.0b3"
PERFORMER "Steve Conte"
TITLE "The Steve Conte NYC Album"
FILE "01 - Dark In The Spotlight.wav" WAVE
  TRACK 01 AUDIO
    TITLE "Dark In The Spotlight"
    PERFORMER "Steve Conte"
    INDEX 01 00:00:00
FILE "02 - OK DJ.wav" WAVE
  TRACK 02 AUDIO
    TITLE "OK DJ"
    PERFORMER "Steve Conte"
    INDEX 01 00:00:00
FILE "03 - She Blinds.wav" WAVE
  TRACK 03 AUDIO
    TITLE "She Blinds"
    PERFORMER "Steve Conte"
    INDEX 01 00:00:00
  TRACK 04 AUDIO
    TITLE "What Would I Do If I Were Me?"
    PERFORMER "Steve Conte"
    INDEX 00 04:16:71
FILE "04 - What Would I Do If I Were Me.wav" WAVE
    INDEX 01 00:00:00
  TRACK 05 AUDIO
    TITLE "Anytime At All Times"
    PERFORMER "Steve Conte"
    INDEX 00 02:12:18
FILE "05 - Anytime At All Times.wav" WAVE
    INDEX 01 00:00:00
  TRACK 06 AUDIO
    TITLE "Lady Luck"
    PERFORMER "Steve Conte"
    INDEX 00 02:45:22
FILE "06 - Lady Luck.wav" WAVE
    INDEX 01 00:00:00
  TRACK 07 AUDIO
    TITLE "Rock And Rye Queen"
    PERFORMER "Steve Conte"
    INDEX 00 03:35:23
FILE "07 - Rock And Rye Queen.wav" WAVE
    INDEX 01 00:00:00
FILE "08 - Broken Spoke Saloon.wav" WAVE
  TRACK 08 AUDIO
    TITLE "Broken Spoke Saloon"
    PERFORMER "Steve Conte"
    INDEX 01 00:00:00
  TRACK 09 AUDIO
    TITLE "Happy Hour"
    PERFORMER "Steve Conte"
    INDEX 00 04:32:08
FILE "09 - Happy Hour.wav" WAVE
    INDEX 01 00:00:00
  TRACK 10 AUDIO
    TITLE "Tax Free"
    PERFORMER "Steve Conte"
    INDEX 00 00:45:27
FILE "10 - Tax Free.wav" WAVE
    INDEX 01 00:00:00

Правила, инструкции, FAQ!!!
Торрент  Добавлен [16 мар 2014, 00:16] Скачать торрент Магнет ссылка
Скачать торрент
[ Размер 18.14 КБ / Просмотров 15 ]

Статус  
 
Размер  212.4 МБ
Приватный: Нет (DHT включён)
.torrent скачан  0
 


     Отправить личное сообщение
   
Страница 1 из 1
Показать сообщения за:  Поле сортировки  
Начать новую тему Ответить на тему


Сейчас этот форум просматривают: нет зарегистрированных пользователей и гости: 1


Вы не можете начинать темы
Вы не можете отвечать на сообщения
Вы не можете редактировать свои сообщения
Вы не можете удалять свои сообщения
Вы не можете добавлять вложения

Перейти:  
cron