Начать новую тему Ответить на тему
Статистика раздачи
Размер: 430.06 МБ | Добавлен: 06 мар 2013, 15:17 | Скачали: 0
Сидеров: 1  [0 байт/сек]    Личеров: 0  [0 байт/сек]
Пред. тема | След. тема 

Автор
Сообщение

СообщениеДобавлено: 06 мар 2013, 15:17 

Ответить с цитатой 

Stereophonics - Graffiti On The Train



Лейбл: Stylus Recods
Каталог: STYLUSCD3X
Год: 2013
Жанр: Indie Rock
Продолжительность: 01:11:05

Кодек: FLAC (tracks+cue)
Битрейт: Lossless

Трек лист:
CD1
Продолжительность: 00:43:05

01. We Share the Same Sun
02. Graffiti On the Train
03. Indian Summer
04. Take Me
05. Catacomb
06. Roll the Dice
07. Violins and Tambourines
08. Been Caught Cheating
09. In a Moment
10. No-one's Perfect
Продолжительность: 00:28:00

01. Overland
02. In A Moment (Alternative version)
03. We Share The Same Sun (Up Close)
04. Indian Summer (Up Close)
05. Graffiti On The Train (Stripped)
06. In A Moment (Acoustic)
Код:
Код:
Exact Audio Copy V1.0 beta 3 from 29. August 2011

EAC extraction logfile from 4. March 2013, 18:51

Stereophonics / Graffiti On The Train

Used drive  : LITE-ON DVDRW SOHW-1653S   Adapter: 0  ID: 0

Read mode               : Secure
Utilize accurate stream : Yes
Defeat audio cache      : Yes
Make use of C2 pointers : No

Read offset correction                      : 12
Overread into Lead-In and Lead-Out          : No
Fill up missing offset samples with silence : Yes
Delete leading and trailing silent blocks   : No
Null samples used in CRC calculations       : Yes
Used interface                              : Native Win32 interface for Win NT & 2000
Gap handling                                : Appended to previous track

Used output format              : User Defined Encoder
Selected bitrate                : 1024 kBit/s
Quality                         : High
Add ID3 tag                     : No
Command line compressor         : C:\Program Files\Exact Audio Copy\FLAC\FLAC.EXE
Additional command line options : -8 -V -T "ARTIST=%artist%" -T "TITLE=%title%" -T "ALBUM=%albumtitle%" -T "DATE=%year%" -T "TRACKNUMBER=%tracknr%" -T "GENRE=%genre%" -T "PERFORMER=%albuminterpret%" -T "COMPOSER=%composer%" %haslyrics%--tag-from-file=LYRICS="%lyricsfile%"%haslyrics% -T "ALBUMARTIST=%albumartist%" -T "DISCNUMBER=%cdnumber%" -T "TOTALDISCS=%totalcds%" -T "TOTALTRACKS=%numtracks%" -T "COMMENT=%comment%" %source% -o %dest%

TOC of the extracted CD

     Track |   Start  |  Length  | Start sector | End sector
    ---------------------------------------------------------
        1  |  0:00.00 |  3:44.34 |         0    |    16833
        2  |  3:44.34 |  5:03.05 |     16834    |    39563
        3  |  8:47.39 |  4:27.09 |     39564    |    59597
        4  | 13:14.48 |  3:50.48 |     59598    |    76895
        5  | 17:05.21 |  3:14.34 |     76896    |    91479
        6  | 20:19.55 |  4:04.06 |     91480    |   109785
        7  | 24:23.61 |  4:59.68 |    109786    |   132278
        8  | 29:23.54 |  4:20.59 |    132279    |   151837
        9  | 33:44.38 |  5:25.23 |    151838    |   176235
       10  | 39:09.61 |  3:59.60 |    176236    |   194220

Track  1

     Filename P:\01 - We Share The Same Sun.wav

     Pre-gap length  0:00:02.00

     Peak level 100.0 %
     Extraction speed 5.2 X
     Track quality 99.9 %
     Test CRC B46B2196
     Copy CRC B46B2196
     Track not present in AccurateRip database
     Copy OK

Track  2

     Filename P:\02 - Graffiti On The Train.wav

     Pre-gap length  0:00:00.10

     Peak level 99.6 %
     Extraction speed 6.1 X
     Track quality 100.0 %
     Test CRC 2EA8B509
     Copy CRC 2EA8B509
     Track not present in AccurateRip database
     Copy OK

Track  3

     Filename P:\03 - Indian Summer.wav

     Pre-gap length  0:00:00.61

     Peak level 98.8 %
     Extraction speed 6.2 X
     Track quality 100.0 %
     Test CRC A76E134E
     Copy CRC A76E134E
     Track not present in AccurateRip database
     Copy OK

Track  4

     Filename P:\04 - Take Me.wav

     Pre-gap length  0:00:01.31

     Peak level 100.0 %
     Extraction speed 6.2 X
     Track quality 100.0 %
     Test CRC 70B5143F
     Copy CRC 70B5143F
     Track not present in AccurateRip database
     Copy OK

Track  5

     Filename P:\05 - Catacomb.wav

     Pre-gap length  0:00:00.52

     Peak level 100.0 %
     Extraction speed 6.1 X
     Track quality 100.0 %
     Test CRC 8A1D0416
     Copy CRC 8A1D0416
     Track not present in AccurateRip database
     Copy OK

Track  6

     Filename P:\06 - Roll The Dice.wav

     Pre-gap length  0:00:00.48

     Peak level 100.0 %
     Extraction speed 6.1 X
     Track quality 100.0 %
     Test CRC 34F89540
     Copy CRC 34F89540
     Track not present in AccurateRip database
     Copy OK

Track  7

     Filename P:\07 - Violins And Tambourines.wav

     Pre-gap length  0:00:00.64

     Peak level 100.0 %
     Extraction speed 6.2 X
     Track quality 100.0 %
     Test CRC 0F584272
     Copy CRC 0F584272
     Track not present in AccurateRip database
     Copy OK

Track  8

     Filename P:\08 - Been Caught Cheating.wav

     Pre-gap length  0:00:01.44

     Peak level 100.0 %
     Extraction speed 6.1 X
     Track quality 100.0 %
     Test CRC 83C10191
     Copy CRC 83C10191
     Track not present in AccurateRip database
     Copy OK

Track  9

     Filename P:\09 - In A Moment.wav

     Pre-gap length  0:00:00.27

     Peak level 100.0 %
     Extraction speed 6.2 X
     Track quality 100.0 %
     Test CRC EA0D031B
     Copy CRC EA0D031B
     Track not present in AccurateRip database
     Copy OK

Track 10

     Filename P:\10 - No-Ones Perfect.wav

     Pre-gap length  0:00:00.64

     Peak level 99.6 %
     Extraction speed 4.5 X
     Track quality 100.0 %
     Test CRC EBDFEC17
     Copy CRC EBDFEC17
     Track not present in AccurateRip database
     Copy OK

None of the tracks are present in the AccurateRip database

No errors occurred

End of status report

==== Log checksum 4B9DF3BE3740945CA9BECB7205758809E8537D8EFA80A1D55B02EC158C953E69 ====
Код:
Код:
Exact Audio Copy V1.0 beta 3 from 29. August 2011

EAC extraction logfile from 4. March 2013, 19:03

Stereophonics / Graffiti on the train

Used drive  : LITE-ON DVDRW SOHW-1653S   Adapter: 0  ID: 0

Read mode               : Secure
Utilize accurate stream : Yes
Defeat audio cache      : Yes
Make use of C2 pointers : No

Read offset correction                      : 12
Overread into Lead-In and Lead-Out          : No
Fill up missing offset samples with silence : Yes
Delete leading and trailing silent blocks   : No
Null samples used in CRC calculations       : Yes
Used interface                              : Native Win32 interface for Win NT & 2000
Gap handling                                : Appended to previous track

Used output format              : User Defined Encoder
Selected bitrate                : 1024 kBit/s
Quality                         : High
Add ID3 tag                     : No
Command line compressor         : C:\Program Files\Exact Audio Copy\FLAC\FLAC.EXE
Additional command line options : -8 -V -T "ARTIST=%artist%" -T "TITLE=%title%" -T "ALBUM=%albumtitle%" -T "DATE=%year%" -T "TRACKNUMBER=%tracknr%" -T "GENRE=%genre%" -T "PERFORMER=%albuminterpret%" -T "COMPOSER=%composer%" %haslyrics%--tag-from-file=LYRICS="%lyricsfile%"%haslyrics% -T "ALBUMARTIST=%albumartist%" -T "DISCNUMBER=%cdnumber%" -T "TOTALDISCS=%totalcds%" -T "TOTALTRACKS=%numtracks%" -T "COMMENT=%comment%" %source% -o %dest%

TOC of the extracted CD

     Track |   Start  |  Length  | Start sector | End sector
    ---------------------------------------------------------
        1  |  0:00.00 |  3:22.74 |         0    |    15223
        2  |  3:22.74 |  4:34.41 |     15224    |    35814
        3  |  7:57.40 |  4:02.40 |     35815    |    54004
        4  | 12:00.05 |  4:50.68 |     54005    |    75822
        5  | 16:50.73 |  4:45.39 |     75823    |    97236
        6  | 21:36.37 |  6:27.14 |     97237    |   126275

Track  1

     Filename P:\01 - Overland.wav

     Pre-gap length  0:00:02.00

     Peak level 99.6 %
     Extraction speed 6.1 X
     Track quality 100.0 %
     Test CRC DF6EFB79
     Copy CRC DF6EFB79
     Track not present in AccurateRip database
     Copy OK

Track  2

     Filename P:\02 - In a moment (alternative version).wav

     Pre-gap length  0:00:01.71

     Peak level 99.6 %
     Extraction speed 5.8 X
     Track quality 99.9 %
     Test CRC 9FAA860B
     Copy CRC 9FAA860B
     Track not present in AccurateRip database
     Copy OK

Track  3

     Filename P:\03 - We share the same sun (up close).wav

     Pre-gap length  0:00:02.35

     Peak level 98.8 %
     Extraction speed 6.2 X
     Track quality 100.0 %
     Test CRC 00DAFFCB
     Copy CRC 00DAFFCB
     Track not present in AccurateRip database
     Copy OK

Track  4

     Filename P:\04 - Indian summer (up close).wav

     Pre-gap length  0:00:02.65

     Peak level 99.6 %
     Extraction speed 6.2 X
     Track quality 100.0 %
     Test CRC EDA73B19
     Copy CRC EDA73B19
     Track not present in AccurateRip database
     Copy OK

Track  5

     Filename P:\05 - Graffiti on the train (stripped).wav

     Pre-gap length  0:00:03.01

     Peak level 99.6 %
     Extraction speed 5.7 X
     Track quality 99.9 %
     Test CRC 027C6B41
     Copy CRC 027C6B41
     Track not present in AccurateRip database
     Copy OK

Track  6

     Filename P:\06 - In a moment (Toydrum remix).wav

     Pre-gap length  0:00:01.45

     Peak level 88.9 %
     Extraction speed 5.1 X
     Track quality 100.0 %
     Test CRC D0516BDA
     Copy CRC D0516BDA
     Track not present in AccurateRip database
     Copy OK

None of the tracks are present in the AccurateRip database

No errors occurred

End of status report

==== Log checksum 1381617B3E9861A1C01B668F0E9356522E3A1589F02C455994CD7B1A8E24A587 ====
Код:
Код:
-----------------------

DON'T MODIFY THIS FILE

-----------------------

PERFORMER: auCDtect Task Manager, ver. 1.5.1RC4 build 1.5.1.5
Copyright (c) 2008-2010 y-soft. All rights reserved
http:/y-soft.org

ANALYZER: auCDtect: CD records authenticity detector, version 0.8.2
Copyright (c) 2004 Oleg Berngardt. All rights reserved.
Copyright (c) 2004 Alexander Djourik. All rights reserved.

FILE: 10 - No-Ones Perfect.flac
  Size: 20519843 Hash: 3001C36F96402FA11ED6351AD807F739 Accuracy: -m0
  Conclusion: CDDA 100%
  Signature: 6B4E66940837D9383B0B0851F5CC0BBFB7F24FC6
FILE: 09 - In A Moment.flac
  Size: 37930550 Hash: C33448AD81C53ADBDD242AF445904013 Accuracy: -m0
  Conclusion: CDDA 99%
  Signature: 294C2961B8C70168B9470942A4AB5800A73DD3E7
FILE: 08 - Been Caught Cheating.flac
  Size: 26653602 Hash: 81E4321D38D0E6ED4DB55E4D5C825FCC Accuracy: -m0
  Conclusion: CDDA 100%
  Signature: 56AF3F8242742D87784D05592F3F8B6F86AC6E24
FILE: 07 - Violins And Tambourines.flac
  Size: 30122951 Hash: 089DB0E9D534BA76A6ABCDB9B553BD44 Accuracy: -m0
  Conclusion: CDDA 100%
  Signature: 73AA4A44FEF9C84CC0F8C345EEAF6ECBCBA326C3
FILE: 06 - Roll The Dice.flac
  Size: 26657931 Hash: DE63CEB4F680D64F32B60F93D85ED58C Accuracy: -m0
  Conclusion: CDDA 99%
  Signature: 2483358EF087F1EF0EEEFCB9A0B722F5CE336C0D
FILE: 05 - Catacomb.flac
  Size: 21907580 Hash: 324B276D17EC648084A018AAEDEF8A83 Accuracy: -m0
  Conclusion: CDDA 100%
  Signature: 0840FE1DCA75EF13961C040D5E14A33E277CD370
FILE: 04 - Take Me.flac
  Size: 24750789 Hash: 6FDECD12F8B2C1C3D9DB3200FA8BAC9F Accuracy: -m0
  Conclusion: CDDA 100%
  Signature: 0C431D66A7259DF3C27813153254E5E934181C01
FILE: 03 - Indian Summer.flac
  Size: 31894225 Hash: 37C0F37DE6277BC359BC450E5E5FF4DA Accuracy: -m0
  Conclusion: CDDA 100%
  Signature: 11A29675ACB561483B6EB5C8827F523A9E4AE5B0
FILE: 02 - Graffiti On The Train.flac
  Size: 32744919 Hash: 576643B152378D4DD05965FF3823BCED Accuracy: -m0
  Conclusion: CDDA 100%
  Signature: E046EC8F94BD0CA348A0B94A36EE72091092472B
FILE: 01 - We Share The Same Sun.flac
  Size: 26068574 Hash: 33BDB11277771F3219EC0364703BDFBA Accuracy: -m0
  Conclusion: CDDA 99%
  Signature: 1B56EC53397AF6FA204284C43C00425470BFBD46
Код:
Код:
-----------------------

DON'T MODIFY THIS FILE

-----------------------

PERFORMER: auCDtect Task Manager, ver. 1.5.1RC4 build 1.5.1.5
Copyright (c) 2008-2010 y-soft. All rights reserved
http:/y-soft.org

ANALYZER: auCDtect: CD records authenticity detector, version 0.8.2
Copyright (c) 2004 Oleg Berngardt. All rights reserved.
Copyright (c) 2004 Alexander Djourik. All rights reserved.

FILE: 06 - In a moment (Toydrum remix).flac
  Size: 47466385 Hash: D428D2DE3587A5AAB0707DE50F6248E6 Accuracy: -m0
  Conclusion: CDDA 100%
  Signature: 86CA24AEAFF1E60FB5F93EB4C8EC632111D45E85
FILE: 05 - Graffiti on the train (stripped).flac
  Size: 29738013 Hash: D3E836679A775295716A2F2A2306338F Accuracy: -m0
  Conclusion: CDDA 100%
  Signature: 1A788ADD398802404DA4AA133F37E3DE083AADE1
FILE: 04 - Indian summer (up close).flac
  Size: 28822188 Hash: 063A06705C4A7ACAA21F039C32FFC15B Accuracy: -m0
  Conclusion: CDDA 100%
  Signature: E57408ECCE4F5D514C70959F40FB2E2CAD3612C7
FILE: 03 - We share the same sun (up close).flac
  Size: 21154622 Hash: E437BFF976E4A8400F540CEAD73332AA Accuracy: -m0
  Conclusion: CDDA 100%
  Signature: 04A89999C9E87DBFF360C21E940011B69FAA7B89
FILE: 02 - In a moment (alternative version).flac
  Size: 25603891 Hash: E2D6FAC8F43AA159F31C3C2C093B5100 Accuracy: -m0
  Conclusion: CDDA 100%
  Signature: 763DD4A570B59D6BF7AD6308D652FE51AC593A83
FILE: 01 - Overland.flac
  Size: 17342759 Hash: D8687373B4A7EEB2B1030F39C9AB35B8 Accuracy: -m0
  Conclusion: CDDA 100%
  Signature: 578FF5055F7F84C2EC269B49CCCFBE1C6376BE8D
Правила, инструкции, FAQ!!!
Торрент  Добавлен [06 мар 2013, 15:17] Скачать торрент Магнет ссылка
Скачать торрент
[ Размер 19.09 КБ / Просмотров 54 ]

Статус  
 
Размер  430.06 МБ
Приватный: Нет (DHT включён)
.torrent скачан  0
 


     Отправить личное сообщение
   
Страница 1 из 1
Показать сообщения за:  Поле сортировки  
Начать новую тему Ответить на тему


Сейчас этот форум просматривают: нет зарегистрированных пользователей и гости: 0


Вы не можете начинать темы
Вы не можете отвечать на сообщения
Вы не можете редактировать свои сообщения
Вы не можете удалять свои сообщения
Вы не можете добавлять вложения

Перейти:  
cron
cron