Начать новую тему Ответить на тему
Статистика раздачи
Размер: 243.56 МБ | Добавлен: 16 мар 2014, 00:38 | Скачали: 0
Сидеров: 1  [0 байт/сек]    Личеров: 0  [0 байт/сек]
Пред. тема | След. тема 

Автор
Сообщение

СообщениеДобавлено: 16 мар 2014, 00:38 

Ответить с цитатой 

Stephen Malkmus & The Jicks - Wig Out at Jagbags (2014)

Год: 2014
Жанр: Indie-Rock
Лейбл: Domino
Каталог #: WIGCD327
Продолжительность: 00:41:25
Кодек: FLAC
Тип рипа: tracks + .cue
Битрейт: Lossless
Треклист:
01. Planetary Motion (3:04)
02. The Janitor Revealed (3:35)
03. Lariat (3:06)
04. Houston Hades (4:46)
05. Shibboleth (2:44)
06. J Smoov (5:06)
07. Rumble and the Rainbo (1:41)
08. Chartjunk (3:49)
09. Independence Street (3:01)
10. Scattegories (1:53)
11. Cinnamon and Lesbian (3:01)
12. Surreal Teenagers (5:39)
Код:
Код:
Exact Audio Copy V1.0 beta 3 from 29. August 2011

EAC extraction logfile from 26. January 2014, 15:35

Stephen Malkmus and the Jicks / Wig Out at Jagbags

Used drive  : hp      DVDRAM GT31L   Adapter: 0  ID: 1

Read mode               : Secure
Utilize accurate stream : Yes
Defeat audio cache      : Yes
Make use of C2 pointers : No

Read offset correction                      : 103
Overread into Lead-In and Lead-Out          : No
Fill up missing offset samples with silence : Yes
Delete leading and trailing silent blocks   : No
Null samples used in CRC calculations       : Yes
Used interface                              : Native Win32 interface for Win NT & 2000
Gap handling                                : Appended to previous track

Used output format              : User Defined Encoder
Selected bitrate                : 1024 kBit/s
Quality                         : High
Add ID3 tag                     : No
Command line compressor         : C:\Program Files (x86)\Exact Audio Copy\FLAC\FLAC.EXE
Additional command line options : -8 -V -T "ARTIST=%artist%" -T "TITLE=%title%" -T "ALBUM=%albumtitle%" -T "DATE=%year%" -T "TRACKNUMBER=%tracknr%" -T "GENRE=%genre%" -T "PERFORMER=%albuminterpret%" -T "COMPOSER=%composer%" %haslyrics%--tag-from-file=LYRICS="%lyricsfile%"%haslyrics% -T "ALBUMARTIST=%albumartist%" -T "DISCNUMBER=%cdnumber%" -T "TOTALDISCS=%totalcds%" -T "TOTALTRACKS=%numtracks%" -T "COMMENT=%comment%" %source% -o %dest%

TOC of the extracted CD

     Track |   Start  |  Length  | Start sector | End sector
    ---------------------------------------------------------
        1  |  0:00.00 |  3:04.27 |         0    |    13826
        2  |  3:04.27 |  3:34.70 |     13827    |    29946
        3  |  6:39.22 |  3:05.44 |     29947    |    43865
        4  |  9:44.66 |  4:45.72 |     43866    |    65312
        5  | 14:30.63 |  2:43.66 |     65313    |    77603
        6  | 17:14.54 |  5:06.13 |     77604    |   100566
        7  | 22:20.67 |  1:41.29 |    100567    |   108170
        8  | 24:02.21 |  3:48.52 |    108171    |   125322
        9  | 27:50.73 |  3:00.72 |    125323    |   138894
       10  | 30:51.70 |  1:53.00 |    138895    |   147369
       11  | 32:44.70 |  3:00.59 |    147370    |   160928
       12  | 35:45.54 |  5:38.72 |    160929    |   186350

Track  1

     Filename G:\EAC\Stephen Malkmus and the Jicks\01 - Planetary Motion.wav

     Pre-gap length  0:00:02.00

     Peak level 96.9 %
     Extraction speed 1.1 X
     Track quality 100.0 %
     Test CRC A205581F
     Copy CRC A205581F
     Track not present in AccurateRip database
     Copy OK

Track  2

     Filename G:\EAC\Stephen Malkmus and the Jicks\02 - The Janitor Revealed.wav

     Pre-gap length  0:00:00.35

     Peak level 96.8 %
     Extraction speed 1.3 X
     Track quality 100.0 %
     Test CRC 6FF08704
     Copy CRC 6FF08704
     Track not present in AccurateRip database
     Copy OK

Track  3

     Filename G:\EAC\Stephen Malkmus and the Jicks\03 - Lariat.wav

     Pre-gap length  0:00:01.69

     Peak level 98.8 %
     Extraction speed 1.1 X
     Track quality 99.9 %
     Test CRC 7599B47A
     Copy CRC 7599B47A
     Track not present in AccurateRip database
     Copy OK

Track  4

     Filename G:\EAC\Stephen Malkmus and the Jicks\04 - Houston Hades.wav

     Pre-gap length  0:00:00.57

     Peak level 98.8 %
     Extraction speed 1.5 X
     Track quality 100.0 %
     Test CRC DB0833E8
     Copy CRC DB0833E8
     Track not present in AccurateRip database
     Copy OK

Track  5

     Filename G:\EAC\Stephen Malkmus and the Jicks\05 - Shibboleth.wav

     Pre-gap length  0:00:01.05

     Peak level 98.8 %
     Extraction speed 1.5 X
     Track quality 100.0 %
     Test CRC C58C47DF
     Copy CRC C58C47DF
     Track not present in AccurateRip database
     Copy OK

Track  6

     Filename G:\EAC\Stephen Malkmus and the Jicks\06 - J Smoov.wav

     Pre-gap length  0:00:01.48

     Peak level 97.0 %
     Extraction speed 1.7 X
     Track quality 100.0 %
     Test CRC D026D312
     Copy CRC D026D312
     Track not present in AccurateRip database
     Copy OK

Track  7

     Filename G:\EAC\Stephen Malkmus and the Jicks\07 - Rumble and the Rainbo.wav

     Pre-gap length  0:00:00.58

     Peak level 96.6 %
     Extraction speed 1.5 X
     Track quality 100.0 %
     Test CRC ADCC2DC1
     Copy CRC ADCC2DC1
     Track not present in AccurateRip database
     Copy OK

Track  8

     Filename G:\EAC\Stephen Malkmus and the Jicks\08 - Chartjunk.wav

     Pre-gap length  0:00:01.24

     Peak level 98.8 %
     Extraction speed 1.8 X
     Track quality 100.0 %
     Test CRC 8A3F47A9
     Copy CRC 8A3F47A9
     Track not present in AccurateRip database
     Copy OK

Track  9

     Filename G:\EAC\Stephen Malkmus and the Jicks\09 - Independence Street.wav

     Pre-gap length  0:00:01.23

     Peak level 98.0 %
     Extraction speed 1.8 X
     Track quality 100.0 %
     Test CRC 42047BF6
     Copy CRC 42047BF6
     Track not present in AccurateRip database
     Copy OK

Track 10

     Filename G:\EAC\Stephen Malkmus and the Jicks\10 - Scattegories.wav

     Pre-gap length  0:00:00.58

     Peak level 98.0 %
     Extraction speed 1.7 X
     Track quality 100.0 %
     Test CRC BBFF9FC7
     Copy CRC BBFF9FC7
     Track not present in AccurateRip database
     Copy OK

Track 11

     Filename G:\EAC\Stephen Malkmus and the Jicks\11 - Cinnamon and Lesbian.wav

     Pre-gap length  0:00:00.47

     Peak level 98.8 %
     Extraction speed 1.9 X
     Track quality 100.0 %
     Test CRC DBF1AF6B
     Copy CRC DBF1AF6B
     Track not present in AccurateRip database
     Copy OK

Track 12

     Filename G:\EAC\Stephen Malkmus and the Jicks\12 - Surreal Teenagers.wav

     Pre-gap length  0:00:01.46

     Peak level 98.8 %
     Extraction speed 2.0 X
     Track quality 99.9 %
     Test CRC 2F744D2E
     Copy CRC 2F744D2E
     Track not present in AccurateRip database
     Copy OK

None of the tracks are present in the AccurateRip database

No errors occurred

End of status report

==== Log checksum 0793077900FC421F5564801B0FBCB31CA68844A5C3D05C6AB6E14D801D0CE3AA ====

Код:
Код:
-----------------------

DON'T MODIFY THIS FILE

-----------------------

PERFORMER: auCDtect Task Manager, ver. 1.6.0 RC1 build 1.6.0.1
Copyright (c) 2008-2010 y-soft. All rights reserved
http:/y-soft.org

ANALYZER: auCDtect: CD records authenticity detector, version 0.8.2
Copyright (c) 2004 Oleg Berngardt. All rights reserved.
Copyright (c) 2004 Alexander Djourik. All rights reserved.

FILE: 09 - Independence Street.flac
  Size: 16710874 Hash: E91828C2E97F7780C95B7BBBE821EA0B Accuracy: -m0
  Conclusion: CDDA 100%
  Signature: E8324DC812F49565A38620F7128D801C60F11CA1
FILE: 08 - Chartjunk.flac
  Size: 26123643 Hash: 365A44CEA0B84D53BF7F2C54FB38D0AC Accuracy: -m0
  Conclusion: CDDA 100%
  Signature: 1130853217DB95A7E31F855E062DFEDBDDF6EA33
FILE: 07 - Rumble and the Rainbo.flac
  Size: 11297222 Hash: 15B2BE4EE7D981B74532772D402BD665 Accuracy: -m0
  Conclusion: CDDA 100%
  Signature: 845B71F974D9EFA31D91E99A76D0DA7248E5FA3D
FILE: 06 - J Smoov.flac
  Size: 26711006 Hash: 81106A4332AD36E136C5B6EC0ED7CDCC Accuracy: -m0
  Conclusion: CDDA 99%
  Signature: 76A9076B9DB6CA66A650FB11942095EF4A76D7FA
FILE: 05 - Shibboleth.flac
  Size: 16295797 Hash: 9E9AA66D7D875C73D580C57298C89DAA Accuracy: -m0
  Conclusion: CDDA 100%
  Signature: 78072DA27E4BC682A7CD1DB70900EE937B8CC7BD
FILE: 04 - Houston Hades.flac
  Size: 29424413 Hash: 42CF15BE67FC1CA5FF11D534B2904623 Accuracy: -m0
  Conclusion: CDDA 100%
  Signature: 8F9F1044D63F821F42B008AA0B597FD5FC0B0DBA
FILE: 03 - Lariat.flac
  Size: 19930642 Hash: 18AB5B188A28650EFCABFD28BDEE9E4D Accuracy: -m0
  Conclusion: CDDA 100%
  Signature: C767F47AF7497DD001A0E71668DD6EBD722EF081
FILE: 02 - The Janitor Revealed.flac
  Size: 23423131 Hash: 7AF5E1C5E3A209DB141104428AA0F87C Accuracy: -m0
  Conclusion: CDDA 100%
  Signature: 2BB39BFF3B392B0A1DB9A93A1A070AB6F27555F3
FILE: 01 - Planetary Motion.flac
  Size: 19571386 Hash: 5559131262DA8F0C7F7CE923465A1F89 Accuracy: -m0
  Conclusion: CDDA 100%
  Signature: 5C58A8A4541EADD83942A5AEDDF8B57F791EC528
FILE: 12 - Surreal Teenagers.flac
  Size: 34296417 Hash: 7435070EDEFCB4B13E74F96C6DF78208 Accuracy: -m0
  Conclusion: CDDA 100%
  Signature: EDA81C0788E2C516A62B0AFBC678B46257B94AEF
FILE: 11 - Cinnamon and Lesbian.flac
  Size: 19148511 Hash: ACF39496E9874F7ADC30AAE4BF640BDF Accuracy: -m0
  Conclusion: CDDA 100%
  Signature: CCCD91D23795D4B1FBE20352CB3A6930BA716FE7
FILE: 10 - Scattegories.flac
  Size: 12316351 Hash: 06C94DA5FE3876E453B70C5F85723E9C Accuracy: -m0
  Conclusion: CDDA 100%
  Signature: 74D45CED91DC71399D40A71B569EED8C68931CDC

Код:
Код:
REM GENRE Rock
REM DATE 2014
REM DISCID A009B40C
REM COMMENT "ExactAudioCopy v1.0b3"
PERFORMER "Stephen Malkmus and the Jicks"
TITLE "Wig Out at Jagbags"
FILE "01 - Planetary Motion.wav" WAVE
  TRACK 01 AUDIO
    TITLE "Planetary Motion"
    PERFORMER "Stephen Malkmus and the Jicks"
    INDEX 01 00:00:00
  TRACK 02 AUDIO
    TITLE "The Janitor Revealed"
    PERFORMER "Stephen Malkmus and the Jicks"
    INDEX 00 03:03:67
FILE "02 - The Janitor Revealed.wav" WAVE
    INDEX 01 00:00:00
  TRACK 03 AUDIO
    TITLE "Lariat"
    PERFORMER "Stephen Malkmus and the Jicks"
    INDEX 00 03:33:01
FILE "03 - Lariat.wav" WAVE
    INDEX 01 00:00:00
  TRACK 04 AUDIO
    TITLE "Houston Hades"
    PERFORMER "Stephen Malkmus and the Jicks"
    INDEX 00 03:04:62
FILE "04 - Houston Hades.wav" WAVE
    INDEX 01 00:00:00
  TRACK 05 AUDIO
    TITLE "Shibboleth"
    PERFORMER "Stephen Malkmus and the Jicks"
    INDEX 00 04:44:67
FILE "05 - Shibboleth.wav" WAVE
    INDEX 01 00:00:00
  TRACK 06 AUDIO
    TITLE "J Smoov"
    PERFORMER "Stephen Malkmus and the Jicks"
    INDEX 00 02:42:18
FILE "06 - J Smoov.wav" WAVE
    INDEX 01 00:00:00
  TRACK 07 AUDIO
    TITLE "Rumble and the Rainbo"
    PERFORMER "Stephen Malkmus and the Jicks"
    INDEX 00 05:05:30
FILE "07 - Rumble and the Rainbo.wav" WAVE
    INDEX 01 00:00:00
  TRACK 08 AUDIO
    TITLE "Chartjunk"
    PERFORMER "Stephen Malkmus and the Jicks"
    INDEX 00 01:40:05
FILE "08 - Chartjunk.wav" WAVE
    INDEX 01 00:00:00
  TRACK 09 AUDIO
    TITLE "Independence Street"
    PERFORMER "Stephen Malkmus and the Jicks"
    INDEX 00 03:47:29
FILE "09 - Independence Street.wav" WAVE
    INDEX 01 00:00:00
  TRACK 10 AUDIO
    TITLE "Scattegories"
    PERFORMER "Stephen Malkmus and the Jicks"
    INDEX 00 03:00:14
FILE "10 - Scattegories.wav" WAVE
    INDEX 01 00:00:00
  TRACK 11 AUDIO
    TITLE "Cinnamon and Lesbian"
    PERFORMER "Stephen Malkmus and the Jicks"
    INDEX 00 01:52:28
FILE "11 - Cinnamon and Lesbian.wav" WAVE
    INDEX 01 00:00:00
  TRACK 12 AUDIO
    TITLE "Surreal Teenagers"
    PERFORMER "Stephen Malkmus and the Jicks"
    INDEX 00 02:59:13
FILE "12 - Surreal Teenagers.wav" WAVE
    INDEX 01 00:00:00

Код:
Код:
[CUETools log; Date: 05.02.2014 6:24:09; Version: 2.1.4]
[CTDB TOCID: 83NTz11PpWRWSszGSlM_4PNUDuA-] found.
Track | CTDB Status
  1   | (5/5) Accurately ripped
  2   | (5/5) Accurately ripped
  3   | (5/5) Accurately ripped
  4   | (5/5) Accurately ripped
  5   | (5/5) Accurately ripped
  6   | (5/5) Accurately ripped
  7   | (5/5) Accurately ripped
  8   | (5/5) Accurately ripped
  9   | (5/5) Accurately ripped
 10   | (5/5) Accurately ripped
 11   | (5/5) Accurately ripped
 12   | (5/5) Accurately ripped
[AccurateRip ID: 00124853-00aa138c-a009b40c] found.
Track   [  CRC   |   V2   ] Status
 01     [245a8ccb|ec87fdbe] (0+3/3) Accurately ripped
 02     [b82e1cde|5b93cffa] (0+3/3) Accurately ripped
 03     [4a783f90|b28bcee0] (0+3/3) Accurately ripped
 04     [1169b257|aaf42c2b] (0+3/3) Accurately ripped
 05     [ca427f7f|fb9a2193] (0+3/3) Accurately ripped
 06     [181cae27|496dedb8] (0+3/3) Accurately ripped
 07     [0005858c|3128625a] (0+3/3) Accurately ripped
 08     [cba5b05f|60177b27] (0+3/3) Accurately ripped
 09     [4b54c580|0aa5d9f7] (0+3/3) Accurately ripped
 10     [db8408cd|74fa2fb7] (0+3/3) Accurately ripped
 11     [8347654e|d593c074] (0+3/3) Accurately ripped
 12     [e0698854|f2902810] (0+3/3) Accurately ripped

Track Peak [ CRC32  ] [W/O NULL] [  LOG   ]
 --   98,8 [3CA13A7B] [CCBA6083]
 01   96,9 [A205581F] [C2AF3A4E]   CRC32
 02   96,8 [6FF08704] [C157C086]   CRC32
 03   98,8 [7599B47A] [AF3A505E]   CRC32
 04   98,8 [DB0833E8] [F79C0171]   CRC32
 05   98,8 [C58C47DF] [DA5E5AD6]   CRC32
 06   97,0 [D026D312] [09307380]   CRC32
 07   96,6 [ADCC2DC1] [33143ABC]   CRC32
 08   98,8 [8A3F47A9] [E4DA5F3F]   CRC32
 09   98,0 [42047BF6] [CEE3B409]   CRC32
 10   98,0 [BBFF9FC7] [70E08262]   CRC32
 11   98,8 [DBF1AF6B] [DCA729B1]   CRC32
 12   98,8 [2F744D2E] [4DE7699B]   CRC32

Правила, инструкции, FAQ!!!
Торрент  Добавлен [16 мар 2014, 00:38] Скачать торрент Магнет ссылка
Скачать торрент
[ Размер 20.69 КБ / Просмотров 28 ]

Статус  
 
Размер  243.56 МБ
Приватный: Нет (DHT включён)
.torrent скачан  0
 


     Отправить личное сообщение
   
Страница 1 из 1
Показать сообщения за:  Поле сортировки  
Начать новую тему Ответить на тему


Сейчас этот форум просматривают: нет зарегистрированных пользователей и гости: 0


Вы не можете начинать темы
Вы не можете отвечать на сообщения
Вы не можете редактировать свои сообщения
Вы не можете удалять свои сообщения
Вы не можете добавлять вложения

Перейти:  
cron
cron