Начать новую тему Ответить на тему
Статистика раздачи
Размер: 679.61 МБ | Добавлен: 26 май 2019, 17:42 | Скачали: 6
Сидеров: 3  [0 байт/сек]    Личеров: 1  [0 байт/сек]
Пред. тема | След. тема 

Автор
Сообщение

СообщениеДобавлено: 26 май 2019, 17:42 

Ответить с цитатой 

Stephen Duffy - I Love My Friends


Формат записи/Источник записи: [TR24][OF]
Наличие водяных знаков: Нет
Год издания: 2019
Жанр: Pop-Rock, Pop
Издатель (лейбл): Needle Mythology
Продолжительность: 00:57:57
Наличие сканов в содержимом раздачи: Только обложка альбома
Контейнер: FLAC (*.flac)
Тип рипа: tracks
Разрядность: 24/44.1
Формат: PCM
Количество каналов: 2.0
Источник (релизер): qobuz.com
Треклист
1 Tune In (00:35)
2 The Deal (04:30)
3 Eucharist (03:32)
4 Mao Badge (04:27)
5 Lovers' Beware (03:52)
6 In the Evening of Her Day (05:36)
7 Holding Hands with Grace (01:14)
8 The Postcard (03:17)
9 Seventeen (04:33)
10 Twenty Three (04:07)
11 Autopsy (03:40)
12 She Belongs to All (03:18)
13 One Day One of These Fucks Will Change Your Life (05:32)
14 You Are (04:49)
15 What If I Fell in Love with You? (04:55)
Код:
foobar2000 1.4 / Dynamic Range Meter 1.1.1
log date: 2019-05-25 09:59:10
--------------------------------------------------------------------------------
Analyzed: Stephen Duffy / I Love My Friends
--------------------------------------------------------------------------------
DR         Peak         RMS     Duration Track
--------------------------------------------------------------------------------
DR13      -1.85 dB   -20.20 dB      0:36 01-Tune In
DR7       -0.20 dB    -8.11 dB      4:31 02-The Deal
DR5       -0.20 dB    -7.19 dB      3:32 03-Eucharist
DR7       -0.20 dB    -7.94 dB      4:28 04-Mao Badge
DR5       -0.20 dB    -6.43 dB      3:52 05-Lovers' Beware
DR7       -0.20 dB    -9.90 dB      5:37 06-In the Evening of Her Day
DR9       -0.31 dB   -11.43 dB      1:14 07-Holding Hands with Grace
DR8       -0.20 dB    -9.30 dB      3:17 08-The Postcard
DR7       -0.20 dB    -8.35 dB      4:34 09-Seventeen
DR7       -0.20 dB    -8.42 dB      4:08 10-Twenty Three
DR6       -0.20 dB    -7.20 dB      3:40 11-Autopsy
DR7       -0.20 dB    -7.44 dB      3:18 12-She Belongs to All
DR5       -0.20 dB    -7.23 dB      5:33 13-One Day One of These Fucks Will Change Your Life
DR5       -0.20 dB    -6.46 dB      4:50 14-You Are
DR6       -0.20 dB    -7.52 dB      4:56 15-What If I Fell in Love with You?
--------------------------------------------------------------------------------
Number of tracks:  15
Official DR value: DR7
Samplerate:        44100 Hz
Channels:          2
Bits per sample:   24
Bitrate:           1703 kbps
Codec:             FLAC
================================================================================
Правила, инструкции, FAQ!!!
Торрент  Добавлен [26 май 2019, 17:42] Скачать торрент Магнет ссылка
Скачать торрент
[ Размер 14.63 КБ / Просмотров 43 ]

Статус
Проверен 
 
Размер  679.61 МБ
Приватный: Нет (DHT включён)
.torrent скачан  6
 


     Отправить личное сообщение
   
Страница 1 из 1
Показать сообщения за:  Поле сортировки  
Начать новую тему Ответить на тему


Сейчас этот форум просматривают: нет зарегистрированных пользователей и гости: 0


Вы не можете начинать темы
Вы не можете отвечать на сообщения
Вы не можете редактировать свои сообщения
Вы не можете удалять свои сообщения
Вы не можете добавлять вложения

Перейти:  
cron