Начать новую тему Ответить на тему
Статистика раздачи
Размер: 689.1 МБ | Добавлен: 16 мар 2014, 00:14 | Скачали: 0
Сидеров: 0  [0 байт/сек]    Личеров: 1  [0 байт/сек]
Пред. тема | След. тема 

Автор
Сообщение

СообщениеДобавлено: 16 мар 2014, 00:14 

Ответить с цитатой 

Status Quo - On The Level (1975)

Год: 1975
Жанр: Rock
Лейбл: Universal Music. Made in Japan
Каталог #: UICY-75695
Продолжительность: 01:07:40
Кодек: FLAC
Тип рипа: image + .cue
Битрейт: Lossless
Треклист:
01. Little Lady (3:02)
02. Most Of The Time (3:25)
03. I Saw The Light (3:43)
04. Over And Done (3:58)
05. Nightride (3:56)
06. Down Down (5:28)
07. Broken Man (4:16)
08. What To Do (3:11)
09. Where I Am (2:46)
10. Bye Bye Johnny (5:28)
11. Down Down (Single Version) / Bonus Track (3:50)
12. Roll Over Lay Down (Live) / Bonus Track (5:41)
13. Gerdundula (Live) / Bonus Track (2:35)
14. Junior's Wailing (Live) / Bonus Track (3:57)
15. Roadhouse Blues (Live) / Bonus Track (12:23)
Код:
Код:
Exact Audio Copy V1.0 beta 3 from 29. August 2011

EAC extraction logfile from 29. August 2013, 13:21

Status Quo / On The Level

Used drive  : PLEXTOR BD-R  PX-B950SA   Adapter: 6  ID: 0

Read mode               : Secure
Utilize accurate stream : Yes
Defeat audio cache      : Yes
Make use of C2 pointers : No

Read offset correction                      : 6
Overread into Lead-In and Lead-Out          : No
Fill up missing offset samples with silence : Yes
Delete leading and trailing silent blocks   : No
Null samples used in CRC calculations       : Yes
Used interface                              : Native Win32 interface for Win NT & 2000

Used output format : Internal WAV Routines
Sample format      : 44.100 Hz; 16 Bit; Stereo

TOC of the extracted CD

     Track |   Start  |  Length  | Start sector | End sector
    ---------------------------------------------------------
        1  |  0:00.00 |  3:02.23 |         0    |    13672
        2  |  3:02.23 |  3:25.04 |     13673    |    29051
        3  |  6:27.27 |  3:42.53 |     29052    |    45754
        4  | 10:10.05 |  3:57.53 |     45755    |    63582
        5  | 14:07.58 |  3:56.14 |     63583    |    81296
        6  | 18:03.72 |  5:27.60 |     81297    |   105881
        7  | 23:31.57 |  4:16.32 |    105882    |   125113
        8  | 27:48.14 |  3:11.21 |    125114    |   139459
        9  | 30:59.35 |  2:46.21 |    139460    |   151930
       10  | 33:45.56 |  5:27.43 |    151931    |   176498
       11  | 39:13.24 |  3:50.13 |    176499    |   193761
       12  | 43:03.37 |  5:40.74 |    193762    |   219335
       13  | 48:44.36 |  2:34.55 |    219336    |   230940
       14  | 51:19.16 |  3:57.19 |    230941    |   248734
       15  | 55:16.35 | 12:23.11 |    248735    |   304470

Range status and errors

Selected range

     Filename C:\Users\Meijin\Desktop\Lossless Galaxy ALLexxess\Status Quo\1975 On The Level (Mini LP SHM-CD Universal Japan 2013)\Status Quo - On The Level.wav

     Peak level 100.0 %
     Extraction speed 6.8 X
     Range quality 100.0 %
     Test CRC 8B97FF13
     Copy CRC 8B97FF13
     Copy OK

No errors occurred

AccurateRip summary

Track  1  not present in database
Track  2  not present in database
Track  3  not present in database
Track  4  not present in database
Track  5  not present in database
Track  6  not present in database
Track  7  not present in database
Track  8  not present in database
Track  9  not present in database
Track 10  not present in database
Track 11  not present in database
Track 12  not present in database
Track 13  not present in database
Track 14  not present in database
Track 15  not present in database

None of the tracks are present in the AccurateRip database

End of status report

==== Log checksum D59F60FA7233BB9D4336BAE0B16775EC219402D535790FAA69D4A1F775240490 ====

Код:
Код:
-----------------------

DON'T MODIFY THIS FILE

-----------------------

PERFORMER: auCDtect Task Manager, ver. 1.6.0 RC1 build 1.6.0.1
Copyright (c) 2008-2010 y-soft. All rights reserved
http:/y-soft.org

ANALYZER: auCDtect: CD records authenticity detector, version 0.8.2
Copyright (c) 2004 Oleg Berngardt. All rights reserved.
Copyright (c) 2004 Alexander Djourik. All rights reserved.

FILE: Status Quo - On The Level.flac
  Size: 475587511 Hash: D4C8C17C0E2A97199CCE6105BFD0917C Accuracy: -m0
  Conclusion: CDDA 100%
  Signature: 958D710885AD314BC910EABDABCF2B44DE4AA1A1

Код:
Код:
REM GENRE "Rock / Pop Rock"
REM DATE 1975
REM DISCID D20FDB0F
REM COMMENT "ExactAudioCopy v1.0b3"
PERFORMER "Status Quo"
TITLE "On The Level"
FILE "Status Quo - On The Level.flac" WAVE
  TRACK 01 AUDIO
    TITLE "Little Lady"
    PERFORMER "Status Quo"
    INDEX 01 00:00:00
  TRACK 02 AUDIO
    TITLE "Most Of The Time"
    PERFORMER "Status Quo"
    INDEX 01 03:02:23
  TRACK 03 AUDIO
    TITLE "I Saw The Light"
    PERFORMER "Status Quo"
    INDEX 00 06:23:53
    INDEX 01 06:27:27
  TRACK 04 AUDIO
    TITLE "Over And Done"
    PERFORMER "Status Quo"
    INDEX 00 10:06:32
    INDEX 01 10:10:05
  TRACK 05 AUDIO
    TITLE "Nightride"
    PERFORMER "Status Quo"
    INDEX 00 14:04:07
    INDEX 01 14:07:58
  TRACK 06 AUDIO
    TITLE "Down Down"
    PERFORMER "Status Quo"
    INDEX 00 18:00:21
    INDEX 01 18:03:72
  TRACK 07 AUDIO
    TITLE "Broken Man"
    PERFORMER "Status Quo"
    INDEX 00 23:28:11
    INDEX 01 23:31:57
  TRACK 08 AUDIO
    TITLE "What To Do"
    PERFORMER "Status Quo"
    INDEX 00 27:44:58
    INDEX 01 27:48:14
  TRACK 09 AUDIO
    TITLE "Where I Am"
    PERFORMER "Status Quo"
    INDEX 00 30:55:60
    INDEX 01 30:59:35
  TRACK 10 AUDIO
    TITLE "Bye Bye Johnny"
    PERFORMER "Status Quo"
    INDEX 00 33:42:19
    INDEX 01 33:45:56
  TRACK 11 AUDIO
    TITLE "Down Down (Single Version) / Bonus Track"
    PERFORMER "Status Quo"
    INDEX 00 39:08:54
    INDEX 01 39:13:24
  TRACK 12 AUDIO
    TITLE "Roll Over Lay Down (Live) / Bonus Track"
    PERFORMER "Status Quo"
    INDEX 00 43:01:50
    INDEX 01 43:03:37
  TRACK 13 AUDIO
    TITLE "Gerdundula (Live) / Bonus Track"
    PERFORMER "Status Quo"
    INDEX 00 48:43:25
    INDEX 01 48:44:36
  TRACK 14 AUDIO
    TITLE "Junior's Wailing (Live) / Bonus Track"
    PERFORMER "Status Quo"
    INDEX 00 51:17:25
    INDEX 01 51:19:16
  TRACK 15 AUDIO
    TITLE "Roadhouse Blues (Live) / Bonus Track"
    PERFORMER "Status Quo"
    INDEX 00 55:14:49
    INDEX 01 55:16:35

Код:
Код:
[CUETools log; Date: 06.09.2013 11:25:38; Version: 2.1.4]
[CTDB TOCID: bMix7IjJfRQR4i8m3r3RsXQJ1jk-] disk not present in database.
[AccurateRip ID: 00207e53-0176f634-d20fdb0f] found.
Track   [  CRC   |   V2   ] Status
 01     [0255b166|a6752e81] (0+1/1) Accurately ripped
 02     [03c29db6|4e3a9d80] (0+1/1) Accurately ripped
 03     [09087fa2|857e293b] (0+1/1) Accurately ripped
 04     [6f6590e9|37730f62] (0+1/1) Accurately ripped
 05     [cb47f7a2|201e2bb9] (0+1/1) Accurately ripped
 06     [59acf4db|3f430f27] (0+1/1) Accurately ripped
 07     [a39b0c0d|4272b313] (0+1/1) Accurately ripped
 08     [60798701|3b0de810] (0+1/1) Accurately ripped
 09     [1300efc5|03e39989] (0+1/1) Accurately ripped
 10     [86e61df3|d6c69d88] (0+1/1) Accurately ripped
 11     [f5101422|cd150e70] (0+1/1) Accurately ripped
 12     [0ede3c5b|27014341] (0+1/1) Accurately ripped
 13     [7bf0bf68|d3086f7a] (0+1/1) Accurately ripped
 14     [8f1e5c68|d094d407] (0+1/1) Accurately ripped
 15     [bdddad5d|1f69f495] (0+1/1) Accurately ripped

Track Peak [ CRC32  ] [W/O NULL] [  LOG   ]
 --  100,0 [8B97FF13] [6BDA4019]   CRC32
 01  100,0 [3B4B82E3] [96DF1648]
 02  100,0 [DE331672] [FB4FC80B]
 03  100,0 [DDB6A516] [7E274141]
 04  100,0 [53BC9434] [44D23BD6]
 05  100,0 [A910A143] [FF5E0E5B]
 06  100,0 [8E0B8F68] [90E4E88E]
 07  100,0 [DCE69634] [A22D7920]
 08  100,0 [8311389C] [C0E18A01]
 09   88,0 [85DE38EA] [60FFBDAA]
 10  100,0 [7AC4A46B] [97C50F4E]
 11   79,4 [6AD8D02E] [21CD2B9A]
 12   79,4 [2EF6626D] [82D2DD5F]
 13   79,5 [38E9DA91] [266C6947]
 14   79,5 [CD2658E1] [CDA541F9]
 15   79,5 [89F1C723] [FABBF574]

Правила, инструкции, FAQ!!!
Торрент  Добавлен [16 мар 2014, 00:14] Скачать торрент Магнет ссылка
Скачать торрент
[ Размер 15.72 КБ / Просмотров 47 ]

Статус  
 
Размер  689.1 МБ
Приватный: Нет (DHT включён)
.torrent скачан  0
 


     Отправить личное сообщение
   
Страница 1 из 1
Показать сообщения за:  Поле сортировки  
Начать новую тему Ответить на тему


Сейчас этот форум просматривают: нет зарегистрированных пользователей и гости: 0


Вы не можете начинать темы
Вы не можете отвечать на сообщения
Вы не можете редактировать свои сообщения
Вы не можете удалять свои сообщения
Вы не можете добавлять вложения

Перейти:  
cron