Начать новую тему Ответить на тему
Статистика раздачи
Размер: 303.9 МБ | Добавлен: 16 мар 2014, 00:21 | Скачали: 0
Сидеров: 1  [0 байт/сек]    Личеров: 0  [0 байт/сек]
Пред. тема | След. тема 

Автор
Сообщение

СообщениеДобавлено: 16 мар 2014, 00:21 

Ответить с цитатой 

State Urge - White Rock Experience (2013)

Год: 2013
Жанр: Progressive Rock
Страна: Польша
Издатель (лейбл): LYNX music
Номер по каталогу #: LM 79 CD
Наличие сканов в содержимом раздачи: да
Продолжительность: 00:48:32

Кодек: FLAC
Битрейт: Lossless
Тип рипа: image+.cue

Треклист:
01. Third Wave of Decadence (5:30)
02. Preface (4:01)
03. Time Rush (6:21)
04. Long For You (4:59)
05. Illusion (7:59)
06. Tumbling Down (5:50)
07. :Gaze (5:47)
08. All I Need (8:07)

Код:
Код:
Exact Audio Copy V1.0 beta 2 from 29. April 2011

EAC extraction logfile from 31. March 2013, 22:15

State Urge / White Rock Experience

Used drive  : ASUS    DRW-24B3ST   Adapter: 0  ID: 0

Read mode               : Secure
Utilize accurate stream : Yes
Defeat audio cache      : Yes
Make use of C2 pointers : No

Read offset correction                      : 6
Overread into Lead-In and Lead-Out          : No
Fill up missing offset samples with silence : Yes
Delete leading and trailing silent blocks   : No
Null samples used in CRC calculations       : Yes
Used interface                              : Native Win32 interface for Win NT & 2000

Used output format              : User Defined Encoder
Selected bitrate                : 1024 kBit/s
Quality                         : High
Add ID3 tag                     : No
Command line compressor         : C:\Program Files (x86)\Exact Audio Copy\Flac\flac.exe
Additional command line options : -8 -V -T "ARTIST=%artist%" -T "TITLE=%title%" -T "ALBUM=%albumtitle%" -T "DATE=%year%" -T "TRACKNUMBER=%tracknr%" -T "TOTALTRACKS=%numtracks%" -T "GENRE=%genre%" -T "ALBUMARTIST=%albumartist%" -T "ALBUM ARTIST=%albumartist%

TOC of the extracted CD

     Track |   Start  |  Length  | Start sector | End sector
    ---------------------------------------------------------
        1  |  0:00.00 |  5:29.38 |         0    |    24712
        2  |  5:29.38 |  4:00.61 |     24713    |    42773
        3  |  9:30.24 |  6:20.49 |     42774    |    71322
        4  | 15:50.73 |  4:58.74 |     71323    |    93746
        5  | 20:49.72 |  7:59.14 |     93747    |   129685
        6  | 28:49.11 |  5:49.65 |    129686    |   155925
        7  | 34:39.01 |  5:46.53 |    155926    |   181928
        8  | 40:25.54 |  8:06.72 |    181929    |   218450

Range status and errors

Selected range

     Filename D:\Yurek Private\New\STATE URGE\State Urge - White Rock Experience.wav

     Peak level 96.6 %
     Extraction speed 8.8 X
     Range quality 100.0 %
     Test CRC 3CDECC24
     Copy CRC 3CDECC24
     Copy OK

No errors occurred

AccurateRip summary

Track  1  not present in database
Track  2  not present in database
Track  3  not present in database
Track  4  not present in database
Track  5  not present in database
Track  6  not present in database
Track  7  not present in database
Track  8  not present in database

None of the tracks are present in the AccurateRip database

End of status report
Код:
Код:
-----------------------

DON'T MODIFY THIS FILE

-----------------------

PERFORMER: auCDtect Task Manager, ver. 1.6.0 RC1 build 1.6.0.1
Copyright (c) 2008-2010 y-soft. All rights reserved
http:/y-soft.org

ANALYZER: auCDtect: CD records authenticity detector, version 0.8.2
Copyright (c) 2004 Oleg Berngardt. All rights reserved.
Copyright (c) 2004 Alexander Djourik. All rights reserved.

FILE: State Urge - White Rock Experience.flac
  Size: 313486404 Hash: DDDAC271A19AFE3711E897F2BF6B470F Accuracy: -m0
  Conclusion: CDDA 100%
  Signature: 0ED04B695E9BDF4840FCF6C64407F45CFC002C07
Правила, инструкции, FAQ!!!
Торрент  Добавлен [16 мар 2014, 00:21] Скачать торрент Магнет ссылка
Скачать торрент
[ Размер 13.17 КБ / Просмотров 14 ]

Статус  
 
Размер  303.9 МБ
Приватный: Нет (DHT включён)
.torrent скачан  0
 


     Отправить личное сообщение
   
Страница 1 из 1
Показать сообщения за:  Поле сортировки  
Начать новую тему Ответить на тему


Сейчас этот форум просматривают: нет зарегистрированных пользователей и гости: 0


Вы не можете начинать темы
Вы не можете отвечать на сообщения
Вы не можете редактировать свои сообщения
Вы не можете удалять свои сообщения
Вы не можете добавлять вложения

Перейти:  
cron