Начать новую тему Ответить на тему
Статистика раздачи
Размер: 253.66 МБ | Добавлен: 16 мар 2014, 00:47 | Скачали: 2
Сидеров: 0  [0 байт/сек]    Личеров: 0  [0 байт/сек]
Пред. тема | След. тема 

Автор
Сообщение

СообщениеДобавлено: 16 мар 2014, 00:47 

Ответить с цитатой 

Stars In Stereo
- Stars In Stereo


Год выпуска: 2013
Жанр: Alternative Rock | Female Vocal
Продолжительность: 00:34:44
Тип издания: Альбом
Страна: США



Треклист:

01. The Broken
02. Violence
03. All Together
04. Dealing Secrets
05. Lie Down
06. Red Eyed Romance
07. Open Your Eyes
08. At The Stroke Of Midnight
09. Every Last Thing
10. Queen Of Catastrophe


Код:
Код:
Exact Audio Copy V1.0 beta 3 from 29. August 2011

EAC extraction logfile from 10. August 2013, 3:36

Stars In Stereo / Stars In Stereo

Used drive  : HL-DT-STDVDRAM GH22NS90   Adapter: 2  ID: 0

Read mode               : Secure
Utilize accurate stream : Yes
Defeat audio cache      : Yes
Make use of C2 pointers : No

Read offset correction                      : 6
Overread into Lead-In and Lead-Out          : No
Fill up missing offset samples with silence : Yes
Delete leading and trailing silent blocks   : No
Null samples used in CRC calculations       : Yes
Used interface                              : Native Win32 interface for Win NT & 2000
Gap handling                                : Appended to previous track

Used output format              : User Defined Encoder
Selected bitrate                : 1024 kBit/s
Quality                         : High
Add ID3 tag                     : No
Command line compressor         : C:\Program Files (x86)\Exact Audio Copy\Flac\flac.exe
Additional command line options : -8 -V -T "ARTIST=%artist%" -T "TITLE=%title%" -T "ALBUM=%albumtitle%" -T "DATE=%year%" -T "TRACKNUMBER=%tracknr%" -T "GENRE=%genre%" -T "PERFORMER=%albuminterpret%" -T "COMPOSER=%composer%" %haslyrics%--tag-from-file=LYRICS="%lyricsfile%"%haslyrics% -T "ALBUMARTIST=%albumartist%" -T "DISCNUMBER=%cdnumber%" -T "TOTALDISCS=%totalcds%" -T "TOTALTRACKS=%numtracks%" -T "COMMENT=%comment%" %source% -o %dest%

TOC of the extracted CD

     Track |   Start  |  Length  | Start sector | End sector
    ---------------------------------------------------------
        1  |  0:00.00 |  3:39.13 |         0    |    16437
        2  |  3:39.13 |  2:56.73 |     16438    |    29710
        3  |  6:36.11 |  3:22.03 |     29711    |    44863
        4  |  9:58.14 |  3:21.37 |     44864    |    59975
        5  | 13:19.51 |  4:08.03 |     59976    |    78578
        6  | 17:27.54 |  3:02.39 |     78579    |    92267
        7  | 20:30.18 |  3:19.15 |     92268    |   107207
        8  | 23:49.33 |  3:27.59 |    107208    |   122791
        9  | 27:17.17 |  3:49.55 |    122792    |   140021
       10  | 31:06.72 |  3:38.03 |    140022    |   156374

Track  1

     Filename D:\Torrents\Stars In Stereo - Stars In Stereo (2012) [FLAC]\01 - The Broken.wav

     Pre-gap length  0:00:02.00

     Peak level 100.0 %
     Extraction speed 1.1 X
     Track quality 100.0 %
     Test CRC D3B5BE73
     Copy CRC D3B5BE73
     Accurately ripped (confidence 1)  [3BED07DB]  (AR v1)
     Copy OK

Track  2

     Filename D:\Torrents\Stars In Stereo - Stars In Stereo (2012) [FLAC]\02 - Violence.wav

     Peak level 100.0 %
     Extraction speed 0.9 X
     Track quality 99.9 %
     Test CRC 53A29FB5
     Copy CRC 53A29FB5
     Accurately ripped (confidence 1)  [5AA50B57]  (AR v1)
     Copy OK

Track  3

     Filename D:\Torrents\Stars In Stereo - Stars In Stereo (2012) [FLAC]\03 - All Together.wav

     Peak level 100.0 %
     Extraction speed 1.2 X
     Track quality 100.0 %
     Test CRC 6583F633
     Copy CRC 6583F633
     Accurately ripped (confidence 1)  [BCD68A0E]  (AR v1)
     Copy OK

Track  4

     Filename D:\Torrents\Stars In Stereo - Stars In Stereo (2012) [FLAC]\04 - Dealing Secrets.wav

     Peak level 100.0 %
     Extraction speed 1.1 X
     Track quality 99.9 %
     Test CRC FB9352A6
     Copy CRC FB9352A6
     Accurately ripped (confidence 1)  [8EBA0B3D]  (AR v1)
     Copy OK

Track  5

     Filename D:\Torrents\Stars In Stereo - Stars In Stereo (2012) [FLAC]\05 - Lie Down.wav

     Peak level 94.4 %
     Extraction speed 1.4 X
     Track quality 100.0 %
     Test CRC 965A2D66
     Copy CRC 965A2D66
     Accurately ripped (confidence 1)  [D525A8B0]  (AR v1)
     Copy OK

Track  6

     Filename D:\Torrents\Stars In Stereo - Stars In Stereo (2012) [FLAC]\06 - Red Eyed Romance.wav

     Peak level 100.0 %
     Extraction speed 1.4 X
     Track quality 100.0 %
     Test CRC 3721FF0C
     Copy CRC 3721FF0C
     Accurately ripped (confidence 1)  [53531444]  (AR v1)
     Copy OK

Track  7

     Filename D:\Torrents\Stars In Stereo - Stars In Stereo (2012) [FLAC]\07 - Open Your Eyes.wav

     Peak level 89.1 %
     Extraction speed 1.3 X
     Track quality 99.9 %
     Test CRC 9FC44435
     Copy CRC 9FC44435
     Accurately ripped (confidence 1)  [D2146F06]  (AR v1)
     Copy OK

Track  8

     Filename D:\Torrents\Stars In Stereo - Stars In Stereo (2012) [FLAC]\08 - At The Stroke Of Midnight.wav

     Peak level 100.0 %
     Extraction speed 1.4 X
     Track quality 99.9 %
     Test CRC DDA2A0D7
     Copy CRC DDA2A0D7
     Accurately ripped (confidence 1)  [98E72369]  (AR v1)
     Copy OK

Track  9

     Filename D:\Torrents\Stars In Stereo - Stars In Stereo (2012) [FLAC]\09 - Every Last Thing.wav

     Peak level 100.0 %
     Extraction speed 1.5 X
     Track quality 99.9 %
     Test CRC 84A0F521
     Copy CRC 84A0F521
     Accurately ripped (confidence 1)  [BB3518D9]  (AR v1)
     Copy OK

Track 10

     Filename D:\Torrents\Stars In Stereo - Stars In Stereo (2012) [FLAC]\10 - Queen Of Catastrophe.wav

     Peak level 100.0 %
     Extraction speed 1.8 X
     Track quality 100.0 %
     Test CRC 68B3B5B0
     Copy CRC 68B3B5B0
     Accurately ripped (confidence 1)  [658E3174]  (AR v1)
     Copy OK

All tracks accurately ripped

No errors occurred

End of status report

---- CUETools DB Plugin V2.1.3

[CTDB TOCID: YEVfhgIcBdNwcSCKnEbS_0T3sNg-] found, Submit result: already submitted
[ec788f37] (1/1) Accurately ripped

==== Log checksum 78CC648CE61BFA425B941DEBB76BA97AB86C3EEF7264FE9EEACA2C0208494851 ====

Код:
Код:
-----------------------

DON'T MODIFY THIS FILE

-----------------------

PERFORMER: auCDtect Task Manager, ver. 1.6.0 RC1 build 1.6.0.1
Copyright (c) 2008-2010 y-soft. All rights reserved
http:/y-soft.org

ANALYZER: auCDtect: CD records authenticity detector, version 0.8.2
Copyright (c) 2004 Oleg Berngardt. All rights reserved.
Copyright (c) 2004 Alexander Djourik. All rights reserved.

FILE: 10. Stars In Stereo - Queen Of Catastrophe.flac
  Size: 27782609 Hash: 07471DB4D051FE24906010B11E907458 Accuracy: -m0
  Conclusion: CDDA 100%
  Signature: 276262D287E0812BBEDEDBFEFB98E5AD4F9CF015
FILE: 09. Stars In Stereo - Every Last Thing.flac
  Size: 28748582 Hash: 7F9B49A9257938AF2CE673322C473511 Accuracy: -m0
  Conclusion: CDDA 100%
  Signature: F4539126004EA49FD97E2081122064D2777B834D
FILE: 08. Stars In Stereo - At The Stroke Of Midnight.flac
  Size: 27053302 Hash: 7B9A1E5692AE0636DC49E117143CDCC3 Accuracy: -m0
  Conclusion: CDDA 100%
  Signature: 4848E5B26E6D4990DC46B02B272525DCCE8D97FA
FILE: 07. Stars In Stereo - Open Your Eyes.flac
  Size: 24167471 Hash: 1238C7FC8AA073EDF220E029921572C7 Accuracy: -m0
  Conclusion: CDDA 100%
  Signature: 217241CC5F78512911DD7BFD44EA822E7B6562F7
FILE: 06. Stars In Stereo - Red Eyed Romance.flac
  Size: 23069287 Hash: B867B65833C6542EF3D64511BD680275 Accuracy: -m0
  Conclusion: CDDA 100%
  Signature: 68E23E0F9680F4E50A1E6141D168E9E6F7E0ADF6
FILE: 05. Stars In Stereo - Lie Down.flac
  Size: 30591422 Hash: A231751939A2BC5FABE527D9AE2AA582 Accuracy: -m0
  Conclusion: CDDA 100%
  Signature: 9B7CB2743C9B0C2C8E681FB0DFE6B282A1ED2BBA
FILE: 04. Stars In Stereo - Dealing Secrets.flac
  Size: 26299707 Hash: 4F1676CB3B167E70D4374F8B1AF598D7 Accuracy: -m0
  Conclusion: CDDA 100%
  Signature: B131B4704A0B9F6F8C5C366320F38D66CD6BF4C8
FILE: 03. Stars In Stereo - All Together.flac
  Size: 26193970 Hash: D96AFCAA7F722FE30A5C550A3388AA21 Accuracy: -m0
  Conclusion: CDDA 100%
  Signature: E50EDC867299DF24233F2F89F28CA80077BFD24E
FILE: 02. Stars In Stereo - Violence.flac
  Size: 22602610 Hash: 84B7A2D447131517FF779492DCD09C4B Accuracy: -m0
  Conclusion: CDDA 100%
  Signature: 124C345DC388E771370ED1E243E82E0EC92417A7
FILE: 01. Stars In Stereo - The Broken.flac
  Size: 28568034 Hash: D2955FC5114B1BBDABC1DF1BBAAB1CCD Accuracy: -m0
  Conclusion: CDDA 100%
  Signature: C1DAAE9C22ECB867DC2851C4588C30253AE16551

Тип рипа: Tracks+.cue
Аудиокодек: FLAC
Битрейт аудио: lossless
Правила, инструкции, FAQ!!!
Торрент  Добавлен [16 мар 2014, 00:47] Скачать торрент Магнет ссылка
Скачать торрент
[ Размер 21.44 КБ / Просмотров 34 ]

Статус  
 
Размер  253.66 МБ
Приватный: Нет (DHT включён)
.torrent скачан  2
 


     Отправить личное сообщение
   
Страница 1 из 1
Показать сообщения за:  Поле сортировки  
Начать новую тему Ответить на тему


Сейчас этот форум просматривают: нет зарегистрированных пользователей и гости: 0


Вы не можете начинать темы
Вы не можете отвечать на сообщения
Вы не можете редактировать свои сообщения
Вы не можете удалять свои сообщения
Вы не можете добавлять вложения

Перейти:  
cron
cron