Начать новую тему Ответить на тему
Статистика раздачи
Размер: 908.06 МБ | Добавлен: 24 авг 2016, 12:09 | Скачали: 1
Сидеров: 3  [0 байт/сек]    Личеров: 1  [0 байт/сек]
Пред. тема | След. тема 

Автор
Сообщение

СообщениеДобавлено: 24 авг 2016, 12:09 

Ответить с цитатой 

Duke Williams & The Extremes - Fantastic Fedora

Жанр: Southern Rock ,funk, soul
Носитель: LP
Год выпуска: 1974
Лейбл: Capricorn Records,Inc.,Macon,Georgia.Mfd.Exclusivelly by Warner Bros.Records, Inc. USA / CP 0133
Страна-производитель: US
Аудио кодек: FLAC
Тип рипа: image+.cue
Формат записи: 24/96
Формат раздачи: 24/96
Продолжительность: 00:44:01
Треклист:
SIDE A:

A1.Function At The Junction
A2.My Baby Left Me
A3.God Bless All The Girls In The World
A4.I Don"t Wanna Smile
A5.Theme From The Planet Eros

SIDE B:

B1.Sometimes
B2.Woman Whipped Man
B3.Winding Road
B4.(Listen To The) Crazy Man
B5.One Night Affair

Источник оцифровки: Valiko(aka Валентин)
Код класса состояния винила: Неизвестно
Устройство воспроизведения: Victor JL-B37
Головка звукоснимателя: ORTOFON VMS20ED MkII
Предварительный усилитель: VICTOR P-3030
АЦП: ONKYO WAVIO SE-300PCI-E
Программа-оцифровщик: Adobe Audition CS6
Обработка: IZOTOPE RX (убраны крупные щелчки)
foobar2000 1.3.5 / Dynamic Range Meter 1.1.1
log date: 2015-02-17 19:34:32

--------------------------------------------------------------------------------
Analyzed: Duke Williams & The Extremes / Fantastic Fedora
--------------------------------------------------------------------------------

DR Peak RMS Duration Track
--------------------------------------------------------------------------------
DR13 -0.62 dB -15.32 dB 3:19 01-Function At The Junction
DR13 -0.28 dB -15.14 dB 4:26 02-My Baby Left Me
DR14 -0.56 dB -16.63 dB 2:58 03-God Bless All The Girls In The World
DR12 -1.27 dB -18.34 dB 4:23 04-I Don`t Wanna Smile
DR15 0.00 dB -18.50 dB 5:34 05-Theme From The Planet Eros
DR12 -0.16 dB -14.76 dB 7:34 06-Sometimes
DR12 0.00 dB -15.43 dB 3:56 07-Woman Whipped Man
DR13 -0.38 dB -17.15 dB 3:44 08-Winding Road
DR12 -0.07 dB -15.83 dB 3:44 09-(Listen To The) Crazy Man
DR13 -0.55 dB -16.68 dB 4:23 10-One Night Affair
--------------------------------------------------------------------------------

Number of tracks: 10
Official DR value: DR13

Samplerate: 96000 Hz
Channels: 2
Bits per sample: 24
Bitrate: 2900 kbps
Codec: FLAC
================================================================================
Duke Williams-Organ,Vocals
Bobby Hartnagle-Guitar
Cotton Kent-Piano,Clavinet,Moog Synthesizer,Vocals
Earl Scooter-Percussion Vocal
Charles Collins-Drums,Vocals
Tommy Hough-Bass,Vocals
T.J.Tindall-Guitar,Vocals

Producer by T.J.Tindall
Assistant Producer Carl Paruolo
Arrangements Duke Williams and Extremes
Percussion Arrangements Senator Charles Collins
Recorded & Mixed at Joe Tarsia`s
Recording Engineers Carl Poruolo,Dirk Devlin,Arthur Stoppe
Remix Engineers Joe Tarsia,Carl Pruolo
"Fantastic Fedora" is the second and last (?) album by Capricorn recordings artists Duke Williams & The Extremes. Like the first album, it's another steamroller. Though this time around the band assumed more of an identity of their own. Less of a Soul cover band, more rocking out this time. And man, they're on fire here.
This is not the rip that's already circulating, though it's pretty close in quality. The other rip had some clicks/scratches that I could not repair, so I redid it myself. I listen to my music with in-ear plugs, so you'll notice any click and pop.
Back to the music, well, what can I say. This is classic stuff. I love the songs, I love the playing, I love the production and I love the vocals. Does anybody have any additional information on Duke Williams? Did they/he really only release two albums? I find that hard to believe, but I couldn't find any information about any follow-ups. I promise, if you don't know this, you won't be disappointed. So just grab it. Quick!
#777#777#777
Доп. информация: Recorded & Mixed Sigma Sound Studios,Philadelphia. April 1974
Правила, инструкции, FAQ!!!
Торрент  Добавлен [24 авг 2016, 12:09] Скачать торрент Магнет ссылка
Скачать торрент
[ Размер 19.08 КБ / Просмотров 90 ]

Статус
Проверен 
 
Размер  908.06 МБ
Приватный: Нет (DHT включён)
.torrent скачан  1
 


     Отправить личное сообщение
   
Страница 1 из 1
Показать сообщения за:  Поле сортировки  
Начать новую тему Ответить на тему


Сейчас этот форум просматривают: нет зарегистрированных пользователей и гости: 0


Вы не можете начинать темы
Вы не можете отвечать на сообщения
Вы не можете редактировать свои сообщения
Вы не можете удалять свои сообщения
Вы не можете добавлять вложения

Перейти:  
cron