Начать новую тему Ответить на тему
Статистика раздачи
Размер: 444.83 МБ | Добавлен: 16 апр 2020, 21:12 | Скачали: 0
Сидеров: 0  [0 байт/сек]    Личеров: 0  [0 байт/сек]
Пред. тема | След. тема 

Автор
Сообщение

СообщениеДобавлено: 16 апр 2020, 21:12 

Ответить с цитатой 


Soleá Morente


Lo Que Te Falta



• Формат записи | Источник записи: [TR24][OF]
• Наличие водяных знаков: Нет
• Год издания релиза: 2020
• Жанр: Latin Pop
• Лейбл: Elefant Records
• Продолжительность: 00:37:44
• Источник: internet
• WEB релиз: ссылка
• Контейнер: FLAC (*.flac)
• Тип рипа: tracks
• Разрядность: 24/44,1
• Формат: WAV (flac.ape.wv)
• Количество каналов: 2.0
• Наличие сканов: front
Tracklist:
01 - Cariño (00:02:33)
02 - No Puedo Dormir (00:03:39)
03 - Viniste A Por Mí (00:03:18)
04 - Lo Que Te Falta (00:02:53)
05 - Ducati (00:02:47)
06 - Pero Es De Noche (00:02:23)
07 - Cosas Buenas (00:03:40)
08 - Mundo Nuevo (00:02:54)
09 - Coca-Cola (00:02:51)
10 - Tutti Frutti (00:03:17)
11 - Olvidarme De Ti (00:02:44)
12 - Condiciones De Luna (00:04:40)



Код:
foobar2000 1.4.2 / Замер динамического диапазона (DR) 1.1.1
Дата отчёта:  2020-03-19 13:17:52
--------------------------------------------------------------------------------
Анализ:   Soleá Morente / Lo Que Te Falta
--------------------------------------------------------------------------------
DR         Пики         RMS           Продолжительность трека
--------------------------------------------------------------------------------
DR5       -0.31 дБ    -6.46 дБ      2:34 01-Cariño
DR6       -0.31 дБ    -7.88 дБ      3:39 02-No Puedo Dormir
DR5       -0.31 дБ    -7.03 дБ      3:19 03-Viniste A Por Mí
DR5       -0.31 дБ    -8.05 дБ      2:53 04-Lo Que Te Falta
DR6       -0.31 дБ    -7.36 дБ      2:48 05-Ducati
DR4       -0.31 дБ    -7.20 дБ      2:24 06-Pero Es De Noche
DR6       -0.31 дБ    -8.53 дБ      3:40 07-Cosas Buenas
DR6       -0.31 дБ    -7.16 дБ      2:54 08-Mundo Nuevo
DR7       -0.31 дБ    -8.83 дБ      2:51 09-Coca-Cola
DR6       -0.31 дБ    -7.93 дБ      3:17 10-Tutti Frutti
DR5       -0.31 дБ    -7.39 дБ      2:44 11-Olvidarme De Ti
DR6       -0.31 дБ   -10.24 дБ      4:41 12-Condiciones De Luna
--------------------------------------------------------------------------------
Количество треков: 12
Реальные значения DR: DR6
Частота:   44100 Гц
Каналов:   2
Разрядность:   24
Битрейт:   1520 кбит/с
Кодек:   FLAC
================================================================================

Правила, инструкции, FAQ!!!
Торрент  Добавлен [16 апр 2020, 21:12] Скачать торрент Магнет ссылка
Скачать торрент
[ Размер 18.51 КБ / Просмотров 5 ]

Статус
Проверен 
 
Размер  444.83 МБ
Приватный: Нет (DHT включён)
.torrent скачан  0
 


     Отправить личное сообщение
   
Страница 1 из 1
Показать сообщения за:  Поле сортировки  
Начать новую тему Ответить на тему


Сейчас этот форум просматривают: нет зарегистрированных пользователей и гости: 0


Вы не можете начинать темы
Вы не можете отвечать на сообщения
Вы не можете редактировать свои сообщения
Вы не можете удалять свои сообщения
Вы не можете добавлять вложения

Перейти:  
cron
cron