Начать новую тему Ответить на тему
Статистика раздачи
Размер: 3.8 ГБ | Добавлен: 24 авг 2016, 11:39 | Скачали: 2
Сидеров: 3  [0 байт/сек]    Личеров: 4  [0 байт/сек]
Пред. тема | След. тема 

Автор
Сообщение

СообщениеДобавлено: 24 авг 2016, 11:39 

Ответить с цитатой 

Karat / Karat Live (DDR)

Жанр: Soft Rock,Prog Rock
Носитель:2 LP [Gatefold]
Год выпуска: 1985
Лейбл: Pool/TELDEC – 6.28658
Страна-производитель: DDR
Аудио кодек: FLAC
Тип рипа: image+.cue
Формат записи: 32/192
Формат раздачи: 24/192
Продолжительность: 01:32:00
Karat - немецкая рок-группа. Образована в 1975 году в Восточном Берлине и существует до сих пор. Karat - один из основоположников немецкоязычной рок-музыки, представитель движения, называемого краутрок. Широко известная в бывшей Восточной Германии группа Karat также получила широкую известность и за пределами ГДР. Их альбом 1982 года Der blaue Planet был одним из самых продаваемых как в Восточной, так и в Западной Германии. Несмотря на то, что с годами состав группы неоднократно менялся, Karat по-прежнему сохраняет международное признание.
Karat ведет родословную от восточно-берлинской jazz-rock fusion группы Panta Rhei, которая потеряла свое фирменное звучание в 1973 году после ухода вокалистки Вероники Фишер, начавшей сольную карьеру, и в 1975 году прекратила существование, когда еще трое музыкантов оставили её, чтобы сформировать новую группу Karat.
Состав: Ульрих «Эд» Свильмс - клавишные; Херберт Дрейлих -вокал; Бернд Рёмер - гитара; Хеннинг Протцманн - бас; Михаэль Швандт - ударные
"Karat" 1977 / "Uber Sieben Bruecken (Der Albatros)" 1979/ "Schwanenkonig" 1980 / "Der Blau Planet" 1982/ "Die Sieben Wunder Der Welt" 1983 / "Live" 1984/ "Funfie Jahreszeit" / "Im Nachsten Frieden" / "Karat" 1991 / "Die Geschenkte Stunde" 1995

Karat вышли на сцену достаточно поздно (1975 г.), их одноименный дебют выпущен в 1977, тем не менее, группа сразу показала себя профессионалами в области тяжелого прогрессива: мелодичные вещи, текстурные клавишно-синтезные отрезки, сменяемые каскадами жестких гитар. Почти хардроко-вые номера соседствовали с утонченным прогрессивом. Результатом было не только приобретение популярности в ГДР, но и контракт на выпуск следующего диска одновременно и в Западной Германии. Кстати, в СССР "Karat" имел бешеную популярность, во всяком случае, среди моих знакомых. "Uber Sieben Bruecken (Der Albatros)" шел по стопам первого альбома, но был еще более разнообразным по материалу, сочетал многие жанры рок-музыки, еще больше склонялся в сторону прогрессива. Диск стал классикой восточногерманского рока. "Schwanenkonig" (1980) был так же успешен, более того, группе разрешили выступать за рубежом. Следующий альбом вообще был сделан в духе симфо-прогрессива, и получил признание по обе стороны границ, разделявших враждующие части Германии. Его тираж в ФРГ достиг нескольких сот тысяч, чего не добивалась в то время (1982 г.) ни одна восточная команда. Время диктовало свои условия: в 80-х в арсенале Karat появились электронные ударные, а сама музыка стала гораздо синтезированнее. Тем не менее, класс ее не только оставался на высоком уровне, группа продолжала развиваться. Разрушение берлинской стены и объединение обеих Германий не слишком положительно отразились на популярности восточных команд: изголодавшиеся по «настоящему» року фанаты рванулись к западным рокерам. Потому-то последние альбомы Karat прошли почти незамеченными. Хотя сейчас группа малоактивна, время от времени она дает концерты, обычно в связке с другими бывшими «восточниками».
Дискография

* 1978 Karat
* 1979 Uber sieben Brucken ("Across Seven Bridges")
* 1979 Albatros ("Albatross") — West German debut album, compiling first two East German albums.
* 1980 Schwanenkonig ("Swan King")
* 1982 Der blaue Planet ("The Blue Planet")
* 1983 Die sieben Wunder der Welt ("The Seven Wonders Of The World")
* 1985 10 Jahre Karat – Auf dem Weg zu Euch – Live ("10 Years Of Karat – Coming At You – Live") — Live album.
* 1987 Funfte Jahreszeit ("Fifth Season")
* 1990 ... im nachsten Frieden ("... In The Next Peace")
* 1991 Karat (second self-titled album)
* 1995 Die geschenkte Stunde ("The Given Hour")
* 1997 Balance ("Balance")
* 2000 Ich liebe jede Stunde ("I Love Every Hour") — Compilation album.
* 2001 25 Jahre Karat – Das Konzert ("25 Years Of Karat – The Concert") — Live album.
* 2003 Licht und Schatten ("Light and Shadow")
* 2005 30 Jahre Karat ("30 Years Of Karat") — Compilation album.
* 2010 Weitergeh'n ("Move On")
Литература

All titles are in German:

* Pop Nonstop – Caroline Gerlach, VEB Lied der Zeit, 1985.
* Uber sieben Brucken – Wolfgang Schumann, Henschel Verlag, 1995.
* Meine Jahre mit Karat ("My Years with Karat") – Jens Fritzsche, 2005.
* Karat (1) (Songbook) – Gert Friedrich, HMV, 1980.
* Karat (2) (Songbook) – Gert Friedrich, HMV, 1981.
* Uber sieben Brucken (Songbook) – Gert Friedrich, HMV, 1985.

Источник:х.з.
Karat

A1 - Intro: 45-01 0:23
A2 - Tanz Mit Der Sphinx 4:10
A3 - Falscher Glanz 2:20
A4 - Gewitterregen 2:45
A5 - Kalter Rauch 2:23
A6 - Jede Stunde 3:40
A7 - Schwanenkonig 5:54

B1 - ...Und Der Mond Schien Rot 5:07
B2 - Tanz Mit Mir 4:38
B3 - Albatros 7:59
B4 - Uber Sieben Brucken Must Du Gehn 3:35

C1 - Blumen Aus Eis 3:32
C2 - Don Alfredo 7:03
C3 - Der Blaue Planet 6:53
C4 - Das Narrenschiff 5:18

D1 - He, Mama 3:15
D2 - Blues 2:58
D3 - Und Ich Liebe Dich 2:40
D4 - Konig Der Welt 3:00
D5 - Abendstimmung 3:46
D6 - Wie Weit Fliegt Die Taube 6:47
Источник оцифровки: автором раздачи
Код класса состояния винила: EX+
Устройство воспроизведения: Pioneer PL30L
Головка звукоснимателя: Denon 103
Предварительный усилитель:NAD PP2iM
АЦП: Xonar Essence STX
Программа-оцифровщик: Adobe 6
Обработка SF10: заход + помелочи мальца



NO
Credits:
Producer – Jurgen Lahrtz
Notes:
Live Recorded 22., 23. und 24. November 1984, Steintor-Variete, Halle (Saale)

(P) & (C) 1985 VEB Deutsche Schallplatten, Berlin/DDR

Labels call the record "Auf Dem Weg Zu Euch - 10 Jahre Karat Live".

Track A1 is misspelled "Intro: 45-OI" on the label.
Barcode and Other Identifiers
Label Code: LC 3706
Rights Society: GEMA
REM GENRE Soft Rock,Prog Rock
REM DATE 1985
REM atamay_VINYLRIP
REM TELDEC – 6.28658, DDR
REM Producer – Jurgen Lahrtz
PERFORMER "Karat"
TITLE "Karat Live"
FILE "S1_Karat Live.flac" WAVE
TRACK 01 AUDIO
TITLE "Intro: 45-01"
PERFORMER "Karat"
INDEX 01 00:00:00
TRACK 02 AUDIO
TITLE "Tanz Mit Der Sphinx"
PERFORMER "Karat"
INDEX 01 00:28:00
TRACK 03 AUDIO
TITLE "Falscher Glanz"
PERFORMER "Karat"
INDEX 01 04:36:43
TRACK 04 AUDIO
TITLE "Gewitterregen"
PERFORMER "Karat"
INDEX 01 06:58:42
TRACK 05 AUDIO
TITLE "Kalter Rauch"
PERFORMER "Karat"
INDEX 01 09:41:56
TRACK 06 AUDIO
TITLE "Jede Stunde"
PERFORMER "Karat"
INDEX 01 12:09:01
TRACK 07 AUDIO
TITLE "Schwanenkonig"
PERFORMER "Karat"
INDEX 01 15:56:68
FILE "S2_Karat Live.flac" WAVE
TRACK 08 AUDIO
TITLE "...Und Der Mond Schien Rot"
PERFORMER "Karat"
INDEX 01 00:00:00
TRACK 09 AUDIO
TITLE "Tanz Mit Mir"
PERFORMER "Karat"
INDEX 01 05:21:31
TRACK 010 AUDIO
TITLE "Albatros"
PERFORMER "Karat"
INDEX 01 10:02:55
TRACK 011 AUDIO
TITLE "Uber Sieben Brucken Must Du Gehn"
PERFORMER "Karat"
INDEX 01 18:11:29
FILE "S3_Karat Live.flac" WAVE
TRACK 012 AUDIO
TITLE "Blumen Aus Eis"
PERFORMER "Karat"
INDEX 01 00:00:00
TRACK 013 AUDIO
TITLE "Don Alfredo"
PERFORMER "Karat"
INDEX 01 04:01:10
TRACK 014 AUDIO
TITLE "Der Blaue Planet"
PERFORMER "Karat"
INDEX 01 11:16:62
TRACK 015 AUDIO
TITLE "Das Narrenschiff"
PERFORMER "Karat"
INDEX 01 18:03:36
FILE "S4_Karat Live.flac" WAVE
TRACK 016 AUDIO
TITLE "He, Mama"
PERFORMER "Karat"
INDEX 01 00:00:00
TRACK 017 AUDIO
TITLE "Blues"
PERFORMER "Karat"
INDEX 01 03:34:02
TRACK 018 AUDIO
TITLE "Und Ich Liebe Dich"
PERFORMER "Karat"
INDEX 01 06:35:58
TRACK 019 AUDIO
TITLE "Konig Der Welt"
PERFORMER "Karat"
INDEX 01 09:26:24
TRACK 020 AUDIO
TITLE "Abendstimmung"
PERFORMER "Karat"
INDEX 01 12:30:03
TRACK 021 AUDIO
TITLE "Wie Weit Fliegt Die Taube"
PERFORMER "Karat"
INDEX 01 16:19:04
Правила, инструкции, FAQ!!!
Торрент  Добавлен [24 авг 2016, 11:39] Скачать торрент Магнет ссылка
Скачать торрент
[ Размер 20.11 КБ / Просмотров 82 ]

Статус
Проверен 
 
Размер  3.8 ГБ
Приватный: Нет (DHT включён)
.torrent скачан  2
 


     Отправить личное сообщение
   
Страница 1 из 1
Показать сообщения за:  Поле сортировки  
Начать новую тему Ответить на тему


Сейчас этот форум просматривают: нет зарегистрированных пользователей и гости: 0


Вы не можете начинать темы
Вы не можете отвечать на сообщения
Вы не можете редактировать свои сообщения
Вы не можете удалять свои сообщения
Вы не можете добавлять вложения

Перейти:  
cron