Начать новую тему Ответить на тему
Статистика раздачи
Размер: 1.92 ГБ | Добавлен: 24 авг 2016, 12:35 | Скачали: 1
Сидеров: 3  [0 байт/сек]    Личеров: 7  [0 байт/сек]
Пред. тема | След. тема 

Автор
Сообщение

СообщениеДобавлено: 24 авг 2016, 12:35 

Ответить с цитатой 

Blue ‎/ Blue

Жанр: Soft Rock, Classic Rock
Год выпуска: 1973
Лейбл: RSO ‎– SO 873
Страна-производитель: USA
Аудио кодек: FLAC
Тип рипа: image+.cue
Формат записи: 24/192
Формат раздачи: 24/192
Продолжительность: 46:06
Треклист:
A1 Red Light Song 4:38
A2 Look Around Written-By – McMillan 4:20
A3 Someone 3:21
A4 Sunset Regret 5:09
A5 Timi's Black Arrow Written-By – Donald 4:04
A6 Sitton On A Fence 3:15
B1 Little Jody 3:08
B2 Let Me Know Written-By – McMillan 3:52
B3 I Wish I Could Fly 3:29
B4 Skye Banana Boat Song 3:31
B5 The Way Things Are Written-By – McMillan 3:25
B6 Sunshine Or Falling Rain 1:54

Источник оцифровки: автором раздачи
Код класса состояния винила: VG+
Устройство воспроизведения: DENON DP-70L
Головка звукоснимателя: Pickering XV-15/D2000Q
Предварительный усилитель: NAD PP2 M / Arcam Delta
АЦП: M-Audio Audiophile 192
Программа-оцифровщик: Sound Forge Pro 10
Обработка: Sound Forge Pro 10
REM GENRE Soft Rock, Classic Rock
REM DATE 1973
REM MViktor_VINYLRIP
REM RSO – SO 873, USA
REM Producer - Ian McMillan
PERFORMER "Blue"
TITLE "Blue"
FILE "Blue (Side 1) SO 873.flac" WAVE
TRACK 01 AUDIO
TITLE "Red Light Song"
PERFORMER "Nicholson"
INDEX 01 00:00:00
TRACK 02 AUDIO
TITLE "Look Around"
PERFORMER "McMillan"
INDEX 01 04:38:10
TRACK 03 AUDIO
TITLE "Vol.1"
PERFORMER "Blue"
INDEX 01 08:57:50
TRACK 04 AUDIO
TITLE "Someone"
PERFORMER "Nicholson"
INDEX 01 09:43:16
TRACK 05 AUDIO
TITLE "Sunset Regret"
PERFORMER "Nicholson"
INDEX 01 13:04:30
TRACK 06 AUDIO
TITLE "Timi's Black Arrow"
PERFORMER "Donald"
INDEX 01 18:13:50
TRACK 07 AUDIO
TITLE "Sitton On A Fence"
PERFORMER "Nicholson"
INDEX 01 22:18:00
FILE "Blue (Side 2) SO 873.flac" WAVE
TRACK 08 AUDIO
TITLE "Little Jody"
PERFORMER "Nicholson"
INDEX 01 00:00:00
TRACK 09 AUDIO
TITLE "Let Me Know"
PERFORMER "McMillan"
INDEX 01 03:07:40
TRACK 10 AUDIO
TITLE "I Wish I Could Fly"
PERFORMER "Nicholson"
INDEX 01 07:00:00
TRACK 11 AUDIO
TITLE "Vol.2"
PERFORMER "Blue"
INDEX 01 10:29:30
TRACK 12 AUDIO
TITLE "Skye Banana Boat Song"
PERFORMER "Nicholson"
INDEX 01 11:42:50
TRACK 13 AUDIO
TITLE "The Way Things Are"
PERFORMER "McMillan"
INDEX 01 15:13:40
TRACK 14 AUDIO
TITLE "Sunshine Or Falling Rain"
PERFORMER "Nicholson"
INDEX 01 18:38:50

Две минуты начала каждой стороны

Bass, Harmonica, Vocals, Producer – Ian McMillan
Engineer – Jerry Boys
Keyboards, Guitar, Vocals, Producer – Hugh Nicholson
Percussion, Vocals, Producer – Timmy Donald
Photography By – Mike Putland
Written-By – Nicholson (tracks: A1, A3, A4, A6, B1, B3, B4, B6)
Осмелился внести изменения в Cue файле. На диске есть дополнительные треки, а ни где не отмечено.
Правила, инструкции, FAQ!!!
Торрент  Добавлен [24 авг 2016, 12:35] Скачать торрент Магнет ссылка
Скачать торрент
[ Размер 20.08 КБ / Просмотров 22 ]

Статус
Проверен 
 
Размер  1.92 ГБ
Приватный: Нет (DHT включён)
.torrent скачан  1
 


     Отправить личное сообщение
   
Страница 1 из 1
Показать сообщения за:  Поле сортировки  
Начать новую тему Ответить на тему


Сейчас этот форум просматривают: нет зарегистрированных пользователей и гости: 0


Вы не можете начинать темы
Вы не можете отвечать на сообщения
Вы не можете редактировать свои сообщения
Вы не можете удалять свои сообщения
Вы не можете добавлять вложения

Перейти:  
cron
cron