Начать новую тему Ответить на тему
Статистика раздачи
Размер: 421.31 МБ | Добавлен: 16 мар 2014, 00:03 | Скачали: 0
Сидеров: 1  [0 байт/сек]    Личеров: 1  [0 байт/сек]
Пред. тема | След. тема 

Автор
Сообщение

СообщениеДобавлено: 16 мар 2014, 00:03 

Ответить с цитатой 

Snakes In Paradise - Snakes In Paradise (1994)

Год: 1994
Жанр: Melodic Hard Rock
Label & Catalog#: Zero Corp - XRCN 1108
Продолжительность: 00:54:19

Кодек: APE
Битрейт: Lossless

Треклист:
01. Fly Away [04:08]
02. The Night Goes On [03:41]
03. Take Me To The River [03:48]
04. Somebody To Blame [04:17]
05. Rather Stand The Rain [03:57]
06. Deep In Your Heart [03:52]
07. Book Of My Life [03:44]
08. When The Dream Is Gone [04:11]
09. Can't Come Home [04:15]
10. No Easy Way Out [04:17]
11. Sweet Sixteen [01:56]
12. Rewrite The Story [04:19]
13. Love Got Wings (Bonus Tracks) [03:31]
14. How Can You Say (Bonus Tracks) [04:16]
Код:
Код:
REM GENRE "Melodic Hard Rock"
REM DATE 1994
REM DISCID B60CBB0E
REM COMMENT "ExactAudioCopy v1.0b3"
PERFORMER "Snakes In Paradise"
TITLE "Snakes In Paradise"
FILE "Snakes In Paradise - Snakes In Paradise.wav" WAVE
  TRACK 01 AUDIO
    TITLE "Fly Away"
    PERFORMER "Snakes In Paradise"
    INDEX 01 00:00:00
  TRACK 02 AUDIO
    TITLE "The Night Goes On"
    PERFORMER "Snakes In Paradise"
    INDEX 01 04:08:52
  TRACK 03 AUDIO
    TITLE "Take Me To The River"
    PERFORMER "Snakes In Paradise"
    INDEX 01 07:50:40
  TRACK 04 AUDIO
    TITLE "Somebody To Blame"
    PERFORMER "Snakes In Paradise"
    INDEX 01 11:38:70
  TRACK 05 AUDIO
    TITLE "Rather Stand The Rain"
    PERFORMER "Snakes In Paradise"
    INDEX 01 15:56:47
  TRACK 06 AUDIO
    TITLE "Deep In Your Heart"
    PERFORMER "Snakes In Paradise"
    INDEX 01 19:54:17
  TRACK 07 AUDIO
    TITLE "Book Of My Life"
    PERFORMER "Snakes In Paradise"
    INDEX 01 23:47:15
  TRACK 08 AUDIO
    TITLE "When The Dream Is Gone"
    PERFORMER "Snakes In Paradise"
    INDEX 01 27:31:17
  TRACK 09 AUDIO
    TITLE "Can't Come Home"
    PERFORMER "Snakes In Paradise"
    INDEX 01 31:43:05
  TRACK 10 AUDIO
    TITLE "No Easy Way Out"
    PERFORMER "Snakes In Paradise"
    INDEX 01 35:58:72
  TRACK 11 AUDIO
    TITLE "Sweet Sixteen"
    PERFORMER "Snakes In Paradise"
    INDEX 01 40:16:55
  TRACK 12 AUDIO
    TITLE "Rewrite The Story"
    PERFORMER "Snakes In Paradise"
    INDEX 01 42:12:60
  TRACK 13 AUDIO
    TITLE "Love Got Wings (Bonus Tracks)"
    PERFORMER "Snakes In Paradise"
    INDEX 00 46:29:20
    INDEX 01 46:32:00
  TRACK 14 AUDIO
    TITLE "How Can You Say (Bonus Tracks)"
    PERFORMER "Snakes In Paradise"
    INDEX 01 50:03:65
Код:
Код:
Exact Audio Copy V1.0 beta 3 from 29. August 2011

Отчёт EAC об извлечении, выполненном 22. ноября 2013, 12:41

Snakes In Paradise / Snakes In Paradise

Дисковод: Optiarc DVD RW AD-7280S   Adapter: 3  ID: 0

Режим чтения                 : Достоверность
Использование точного потока : Да
Отключение кэша аудио        : Да
Использование указателей C2  : Нет

Коррекция смещения при чтении                     : 48
Способность читать области Lead-in и Lead-out     : Нет
Заполнение пропущенных сэмплов тишиной            : Да
Удаление блоков с тишиной в начале и конце        : Нет
При вычислениях CRC использовались нулевые сэмплы : Да
Интерфейс                                         : Встроенный Win32-интерфейс для Win NT/2000

Выходной формат : Внутренние WAV-операции
Формат сэмплов  : 44.100 Гц; 16 бит; стерео

TOC извлечённого CD

     Трек |   Старт  | Длительность | Начальный сектор | Конечный сектор
    ---------------------------------------------------------------------
       1  |  0:00.00 |    4:08.52   |           0      |      18651
       2  |  4:08.52 |    3:41.63   |       18652      |      35289
       3  |  7:50.40 |    3:48.30   |       35290      |      52419
       4  | 11:38.70 |    4:17.52   |       52420      |      71746
       5  | 15:56.47 |    3:57.45   |       71747      |      89566
       6  | 19:54.17 |    3:52.73   |       89567      |     107039
       7  | 23:47.15 |    3:44.02   |      107040      |     123841
       8  | 27:31.17 |    4:11.63   |      123842      |     142729
       9  | 31:43.05 |    4:15.67   |      142730      |     161921
      10  | 35:58.72 |    4:17.58   |      161922      |     181254
      11  | 40:16.55 |    1:56.05   |      181255      |     189959
      12  | 42:12.60 |    4:19.15   |      189960      |     209399
      13  | 46:32.00 |    3:31.65   |      209400      |     225289
      14  | 50:03.65 |    4:16.05   |      225290      |     244494

Характеристики диапазона извлечения и сообщения об ошибках

Выбранный диапазон

     Имя файла E:\1\Snakes In Paradise - 1994 Snakes In Paradise {Zero Corp. XRCN 1108}\ape\Snakes In Paradise - Snakes In Paradise.wav

     Пиковый уровень 97.7 %
     Скорость извлечения 4.0 X
     Качество диапазона 99.9 %
     CRC теста A7ECC44A
     CRC копии A7ECC44A
     Копирование... OK

Ошибок не произошло

AccurateRip: сводка

Трек  1  точность не определена (достоверность 3)  [7296691F], AccurateRip вернул [29A710E5]  (AR v2)
Трек  2  точность не определена (достоверность 3)  [0890744A], AccurateRip вернул [A4B79C8F]  (AR v2)
Трек  3  точность не определена (достоверность 3)  [6E5CED90], AccurateRip вернул [04561EAF]  (AR v2)
Трек  4  точность не определена (достоверность 3)  [C5DAAB70], AccurateRip вернул [96774322]  (AR v2)
Трек  5  точность не определена (достоверность 3)  [BEBF86C0], AccurateRip вернул [4B427E5D]  (AR v2)
Трек  6  точность не определена (достоверность 3)  [655FDCC8], AccurateRip вернул [4CA33B01]  (AR v2)
Трек  7  точность не определена (достоверность 3)  [AD441B67], AccurateRip вернул [9FD9486E]  (AR v2)
Трек  8  точность не определена (достоверность 3)  [6E976307], AccurateRip вернул [12501FDC]  (AR v2)
Трек  9  точность не определена (достоверность 3)  [33931C13], AccurateRip вернул [3E4761B6]  (AR v2)
Трек 10  точность не определена (достоверность 3)  [BAEED3AB], AccurateRip вернул [5A311D22]  (AR v2)
Трек 11  точность не определена (достоверность 3)  [B71BADBF], AccurateRip вернул [D32AE692]  (AR v2)
Трек 12  точность не определена (достоверность 3)  [EEAE54EA], AccurateRip вернул [6B294CFF]  (AR v2)
Трек 13  точность не определена (достоверность 3)  [687EF425], AccurateRip вернул [F9E427D0]  (AR v2)
Трек 14  точность не определена (достоверность 3)  [D2716B7F], AccurateRip вернул [C1456FEF]  (AR v2)

Ни один трек не прошёл проверки на точность
В вашей базе может быть иной вариант штамповки диска

Конец отчёта

==== Контрольная сумма отчёта 3728EF151B9F6BC3A8878536A6EA18718B8D42306412070ECDA2B25E09B5B8AF ====
Код:
Код:
DON'T MODIFY THIS FILE

-----------------------

PERFORMER: auCDtect Task Manager, ver. 1.6.0 RC1 build 1.6.0.1
Copyright (c) 2008-2010 y-soft. All rights reserved
http:/y-soft.org

ANALYZER: auCDtect: CD records authenticity detector, version 0.8.2
Copyright (c) 2004 Oleg Berngardt. All rights reserved.
Copyright (c) 2004 Alexander Djourik. All rights reserved.

FILE: Snakes In Paradise - Snakes In Paradise.ape
  Size: 398407344 Hash: CCB4CAA9E365C52775BB6C6881E6435C Accuracy: -m0
  Conclusion: CDDA 100%
  Signature: 729175691A53B3397CA6B843314BE3E0B3D622E1
Правила, инструкции, FAQ!!!
Торрент  Добавлен [16 мар 2014, 00:03] Скачать торрент Магнет ссылка
Скачать торрент
[ Размер 34.46 КБ / Просмотров 24 ]

Статус  
 
Размер  421.31 МБ
Приватный: Нет (DHT включён)
.torrent скачан  0
 


     Отправить личное сообщение
   
Страница 1 из 1
Показать сообщения за:  Поле сортировки  
Начать новую тему Ответить на тему


Сейчас этот форум просматривают: нет зарегистрированных пользователей и гости: 0


Вы не можете начинать темы
Вы не можете отвечать на сообщения
Вы не можете редактировать свои сообщения
Вы не можете удалять свои сообщения
Вы не можете добавлять вложения

Перейти:  
cron