Начать новую тему Ответить на тему
Статистика раздачи
Размер: 483.71 МБ | Добавлен: 16 мар 2014, 00:21 | Скачали: 12
Сидеров: 9  [0 байт/сек]    Личеров: 2  [0 байт/сек]
Пред. тема | След. тема 

Автор
Сообщение

СообщениеДобавлено: 16 мар 2014, 00:21 

Ответить с цитатой 

Smokie - What Can I Do 20 Hits (1996)

Год: 1996
Жанр: Pop-Rock, Soft-Rock
Продолжительность: 01:13:51
Издатель (лейбл): DOG Ent./BMG
Номер по каталогу: DOG 10002
Страна: Англия
Кодек: FLAC
Битрейт: Lossless

Треклист:
01. What Can I Do
02. Needles & Pins
03. Living Next Door To Alice
04. Baby It's You
05. Something's Been Making Me Blue
06. If You Think You Know How To Love Me
07. Changing All The Time
08. Stumblin' In
09. I'll Meet You At Midnight
10. It's Your Life
11. Mexican Girl
12. Don't Play Your Rock'n'Roll To Me
13. Lay Back In The Arms Of Someone
14. For A Few Dollars More
15. In The Heat Of The Night
16. Stranger
17. Back To Bradford
18. I Can't Stay Here Tonight
19. We're Flyin' High
20. The Girl Can't Help It
Код:
Код:
Exact Audio Copy V1.0 beta 3 from 29. August 2011

Отчёт EAC об извлечении, выполненном 26. марта 2013, 19:01

Smokie / What Can I Do

Дисковод: HL-DT-STDVDRAM GT32N   Adapter: 0  ID: 1

Режим чтения                 : Достоверность
Использование точного потока : Да
Отключение кэша аудио        : Да
Использование указателей C2  : Нет

Коррекция смещения при чтении                     : 103
Способность читать области Lead-in и Lead-out     : Нет
Заполнение пропущенных сэмплов тишиной            : Да
Удаление блоков с тишиной в начале и конце        : Нет
При вычислениях CRC использовались нулевые сэмплы : Да
Интерфейс                                         : Встроенный Win32-интерфейс для Win NT/2000

Выходной формат          : Пользовательский кодировщик
Выбранный битрейт        : 896 kBit/s
Качество                 : Высокий
Добавление ID3-тега      : Да
Утилита сжатия           : C:\Program Files\FLAC\flac.exe

TOC извлечённого CD

     Трек |   Старт  | Длительность | Начальный сектор | Конечный сектор
    ---------------------------------------------------------------------
       1  |  0:00.30 |    3:38.39   |          30      |      16418
       2  |  3:38.69 |    2:45.73   |       16419      |      28866
       3  |  6:24.67 |    3:30.06   |       28867      |      44622
       4  |  9:54.73 |    3:52.48   |       44623      |      62070
       5  | 13:47.46 |    3:02.45   |       62071      |      75765
       6  | 16:50.16 |    3:27.41   |       75766      |      91331
       7  | 20:17.57 |    3:23.70   |       91332      |     106626
       8  | 23:41.52 |    4:01.09   |      106627      |     124710
       9  | 27:42.61 |    3:18.07   |      124711      |     139567
      10  | 31:00.68 |    3:35.54   |      139568      |     155746
      11  | 34:36.47 |    4:00.21   |      155747      |     173767
      12  | 38:36.68 |    3:19.54   |      173768      |     188746
      13  | 41:56.47 |    4:07.22   |      188747      |     207293
      14  | 46:03.69 |    3:36.48   |      207294      |     223541
      15  | 49:40.42 |    4:49.42   |      223542      |     245258
      16  | 54:30.09 |    4:40.68   |      245259      |     266326
      17  | 59:11.02 |    2:45.59   |      266327      |     278760
      18  | 61:56.61 |    4:10.00   |      278761      |     297510
      19  | 66:06.61 |    3:55.46   |      297511      |     315181
      20  | 70:02.32 |    3:48.74   |      315182      |     332355

Характеристики диапазона извлечения и сообщения об ошибках

Выбранный диапазон

     Имя файла C:\Smokie - What Can I Do.wav

     Пиковый уровень 96.7 %
     Скорость извлечения 2.3 X
     Качество диапазона 100.0 %
     CRC теста 2CF1BDFE
     CRC копии 2CF1BDFE
     Копирование... OK

Ошибок не произошло

AccurateRip: сводка

Трек  1  отсутствует в базе данных
Трек  2  отсутствует в базе данных
Трек  3  отсутствует в базе данных
Трек  4  отсутствует в базе данных
Трек  5  отсутствует в базе данных
Трек  6  отсутствует в базе данных
Трек  7  отсутствует в базе данных
Трек  8  отсутствует в базе данных
Трек  9  отсутствует в базе данных
Трек 10  отсутствует в базе данных
Трек 11  отсутствует в базе данных
Трек 12  отсутствует в базе данных
Трек 13  отсутствует в базе данных
Трек 14  отсутствует в базе данных
Трек 15  отсутствует в базе данных
Трек 16  отсутствует в базе данных
Трек 17  отсутствует в базе данных
Трек 18  отсутствует в базе данных
Трек 19  отсутствует в базе данных
Трек 20  отсутствует в базе данных

Ни одного трека нет в базе AccurateRip

Конец отчёта
Код:
Код:
-----------------------

DON'T MODIFY THIS FILE

-----------------------

PERFORMER: auCDtect Task Manager, ver. 1.6.0 RC1 build 1.6.0.1
Copyright (c) 2008-2010 y-soft. All rights reserved
http:/y-soft.org

ANALYZER: auCDtect: CD records authenticity detector, version 0.8.2
Copyright (c) 2004 Oleg Berngardt. All rights reserved.
Copyright (c) 2004 Alexander Djourik. All rights reserved.

FILE: Smokie - What Can I Do.flac
  Size: 489161092 Hash: F389877BB05F8ABC2AEC4189B0F57D92 Accuracy: -m0
  Conclusion: CDDA 99%
  Signature: 572151AB13A1AEA69E4D9576AEE358190F8DBAA7
Правила, инструкции, FAQ!!!
Торрент  Добавлен [16 мар 2014, 00:21] Скачать торрент Магнет ссылка
Скачать торрент
[ Размер 20.05 КБ / Просмотров 238 ]

Статус  
 
Размер  483.71 МБ
Приватный: Нет (DHT включён)
.torrent скачан  12
 


     Отправить личное сообщение
   
Страница 1 из 1
Показать сообщения за:  Поле сортировки  
Начать новую тему Ответить на тему


Сейчас этот форум просматривают: нет зарегистрированных пользователей и гости: 0


Вы не можете начинать темы
Вы не можете отвечать на сообщения
Вы не можете редактировать свои сообщения
Вы не можете удалять свои сообщения
Вы не можете добавлять вложения

Перейти:  
cron
cron