Начать новую тему Ответить на тему
Статистика раздачи
Размер: 351.45 МБ | Добавлен: 16 мар 2014, 00:01 | Скачали: 0
Сидеров: 1  [0 байт/сек]    Личеров: 55  [0 байт/сек]
Пред. тема | След. тема 

Автор
Сообщение

СообщениеДобавлено: 16 мар 2014, 00:01 

Ответить с цитатой 

Smokestack Lightnin' - Off The Wall (1969) Reissue 2008

Жанр: Psychedelic Rock/Blues-Rock
Год: 1969
Страна: US
Released: 2008/US
Label: First Of May
Catalog#: 29112
Аудио кодек: FLAC
Тип рипа: tracks+.cue
Битрейт аудио: lossless
Продолжительность: 00:44:47
Источник-релизер: mcbreg
Scans: в раздаче
Треклист:
01. Watch Your Step (2:57)
02. Long Stemmed Eyes (6:16)
03. Three Hundred Pounds Of Heavenly Joy (3:30)
04. Somethings Got A Hold On Me (4:31)
05. Light In My Window (3:33)
06. I Idolize You (4:42)
07. Who's Been Talkin' (2:29)
08. Well Tuesday (3:51)
09. Smokestack Lightnin' (12:57)
#777
Одна из реально забытых групп эпохи бурных 60-х с западного побережья США, Smokestack Lightnin' была "домашней" бандой знаменитого ночного клуба Лос-Анжелеса Whisky A-Go-Go (8901 W Sunset Boulevard), где делила площадку с такими знаменитостями, как The Doors, Seeds, Love и Byrds. Свое название коллектив позаимствовал у известного блюзмэна Howlin' Wolf 'а, чей одноименный блюз кем только не перепет. Поначалу, первое слово писалось раздельно, как Smoke Stack; позже стали писать слитно. Под руководством продюсера Bones Howe, группа записала несколько довольно успешных синглов, выпустила один лонгплей и написала песню для кинофильма. После чего багополучно исчезла из вида. Единственный LP производит довольно приятное впечатление и состоит из добротно сделанных ритм-н-блюзовых номеров. К сожалению, в диск не вошли четыре из шести синглов, которые обычно отмечаются рецензентами, как "весьма сильные". Тем более, что именно на сингле записана не типичная для группы мощная гаражная баллада Look What You've Done. Для записи альбома банду усилили приглашенными калифорнийскими музыкантами, среди которых стоит выделить Уоррена Зевона и Майка Дизи. Пластинку завершает 12-ти минутный кавер "фирменного" блюза Smokestack Lightnin'.
На альбоме из 9 треков только 2 принадлежат перу членов группы, остальное - каверы, сделанные очень сочно и с отличным вкусом.

Musicians:
- Bass – Kelly Green
- Drums – Art Guy
- Guitar – Ric Eiserling
- Percussion, Vocals – Ronnie Darling
+
- Hal Blaine - percussion, drums
- Mike Deasey - guitar
- Larry Knechtel - keyboards
- Warren Zevon - guitar, keyboards
- The Blossoms - backing vocals

Producer - Bones Howe
Код:
Код:
Exact Audio Copy V0.99 prebeta 4 from 23. January 2008

EAC extraction logfile from 19. May 2012, 2:43

Smokestack Lightnin' / Off The Wall

Used drive  : HL-DT-STDVD-RAM GSA-H58N   Adapter: 0  ID: 0

Read mode               : Secure
Utilize accurate stream : Yes
Defeat audio cache      : Yes
Make use of C2 pointers : No

Read offset correction                      : 102
Overread into Lead-In and Lead-Out          : No
Fill up missing offset samples with silence : Yes
Delete leading and trailing silent blocks   : No
Null samples used in CRC calculations       : Yes
Used interface                              : Installed external ASPI interface
Gap handling                                : Appended to previous track

Used output format              : User Defined Encoder
Selected bitrate                : 1024 kBit/s
Quality                         : High
Add ID3 tag                     : No
Command line compressor         : C:\Arquivos de programas\Exact Audio Copy\Flac\flac.exe
Additional command line options : -8 -A tukey(0.25) -A gauss(0.1875) -b 4096 -V -T "artist=%a" -T "title=%t" -T "album=%g" -T "date=%y" -T "tracknumber=%n" -T "genre=%m" %s --sector-align

TOC of the extracted CD

     Track |   Start  |  Length  | Start sector | End sector
    ---------------------------------------------------------
        1  |  0:00.00 |  2:57.35 |         0    |    13309
        2  |  2:57.35 |  6:15.72 |     13310    |    41506
        3  |  9:13.32 |  3:30.16 |     41507    |    57272
        4  | 12:43.48 |  4:30.47 |     57273    |    77569
        5  | 17:14.20 |  3:33.36 |     77570    |    93580
        6  | 20:47.56 |  4:42.11 |     93581    |   114741
        7  | 25:29.67 |  2:28.53 |    114742    |   125894
        8  | 27:58.45 |  3:51.27 |    125895    |   143246
        9  | 31:49.72 | 12:56.51 |    143247    |   201497

Track  1

     Filename C:\Documents and Settings\Nelson\Meus documentos\My EAC\01 - Smokestack Lightnin' - Watch Your Step.wav

     Pre-gap length  0:00:02.00

     Peak level 98.2 %
     Track quality 99.9 %
     Test CRC 3C99F0DD
     Copy CRC 3C99F0DD
     Copy OK

Track  2

     Filename C:\Documents and Settings\Nelson\Meus documentos\My EAC\02 - Smokestack Lightnin' - Long Stemmed Eyes.wav

     Peak level 98.2 %
     Track quality 100.0 %
     Test CRC DD419647
     Copy CRC DD419647
     Copy OK

Track  3

     Filename C:\Documents and Settings\Nelson\Meus documentos\My EAC\03 - Smokestack Lightnin' - Three Hundred Pounds Of Heavenly Joy.wav

     Peak level 98.2 %
     Track quality 100.0 %
     Test CRC FDBB6339
     Copy CRC FDBB6339
     Copy OK

Track  4

     Filename C:\Documents and Settings\Nelson\Meus documentos\My EAC\04 - Smokestack Lightnin' - Somethings Got A Hold On Me.wav

     Peak level 98.2 %
     Track quality 99.9 %
     Test CRC CF1F835D
     Copy CRC CF1F835D
     Copy OK

Track  5

     Filename C:\Documents and Settings\Nelson\Meus documentos\My EAC\05 - Smokestack Lightnin' - Light In My Window.wav

     Peak level 98.2 %
     Track quality 100.0 %
     Test CRC D8D21258
     Copy CRC D8D21258
     Copy OK

Track  6

     Filename C:\Documents and Settings\Nelson\Meus documentos\My EAC\06 - Smokestack Lightnin' - I Idolize You.wav

     Peak level 98.2 %
     Track quality 100.0 %
     Test CRC 8968DA7D
     Copy CRC 8968DA7D
     Copy OK

Track  7

     Filename C:\Documents and Settings\Nelson\Meus documentos\My EAC\07 - Smokestack Lightnin' - Who's Been Talkin'.wav

     Peak level 97.8 %
     Track quality 100.0 %
     Test CRC 21FF8BDB
     Copy CRC 21FF8BDB
     Copy OK

Track  8

     Filename C:\Documents and Settings\Nelson\Meus documentos\My EAC\08 - Smokestack Lightnin' - Well Tuesday.wav

     Peak level 98.2 %
     Track quality 100.0 %
     Test CRC 5B213D2F
     Copy CRC 5B213D2F
     Copy OK

Track  9

     Filename C:\Documents and Settings\Nelson\Meus documentos\My EAC\09 - Smokestack Lightnin' - Smokestack Lightnin'.wav

     Peak level 98.2 %
     Track quality 99.9 %
     Test CRC F9D1B61D
     Copy CRC F9D1B61D
     Copy OK

No errors occurred

End of status report
Код:
Код:
-----------------------

DON'T MODIFY THIS FILE

-----------------------

PERFORMER: auCDtect Task Manager, ver. 1.6.0 RC1 build 1.6.0.1
Copyright (c) 2008-2010 y-soft. All rights reserved
http:/y-soft.org

ANALYZER: auCDtect: CD records authenticity detector, version 0.8.2
Copyright (c) 2004 Oleg Berngardt. All rights reserved.
Copyright (c) 2004 Alexander Djourik. All rights reserved.

FILE: 09 - Smokestack Lightnin' - Smokestack Lightnin'.flac
  Size: 86777117 Hash: 7B8D1E3505B57E72879D65EBF51EEB6A Accuracy: -m0
  Conclusion: CDDA 100%
  Signature: 335264EC75A738340C58D643D5D1E1C383F60C86
FILE: 08 - Smokestack Lightnin' - Well Tuesday.flac
  Size: 30883118 Hash: 862AB63BB8A848CFA2BAB75ECD61F935 Accuracy: -m0
  Conclusion: CDDA 100%
  Signature: 47D559DCE0F9D21527C5ABF9F5F990A30807CD38
FILE: 07 - Smokestack Lightnin' - Who's Been Talkin'.flac
  Size: 17729483 Hash: 5741968CC61BC84A04B510DFFA5E620D Accuracy: -m0
  Conclusion: CDDA 100%
  Signature: 4528E449F629768AE1F57A5CCE80B12CEBBAA976
FILE: 06 - Smokestack Lightnin' - I Idolize You.flac
  Size: 33153006 Hash: 906DEF21A2C06A565B2E9E5830A85684 Accuracy: -m0
  Conclusion: CDDA 100%
  Signature: CFC1A890948F1B029167DF17D3301EF507440A3B
FILE: 05 - Smokestack Lightnin' - Light In My Window.flac
  Size: 27349429 Hash: BA8A01C92F67B45352272E7A6419DC74 Accuracy: -m0
  Conclusion: CDDA 100%
  Signature: BCDF613F0F72872F7C275E3736E61C675718F878
FILE: 04 - Smokestack Lightnin' - Somethings Got A Hold On Me.flac
  Size: 34645933 Hash: 55D55FAB17BCCCA4C34282CFCDB86EDD Accuracy: -m0
  Conclusion: CDDA 100%
  Signature: 204063A52E7B0D8A3B04C96327ADAA265C60F9A5
FILE: 03 - Smokestack Lightnin' - Three Hundred Pounds Of Heavenly Joy.flac
  Size: 25748778 Hash: ADE42EBD0A982AD50BDA92D755DB1513 Accuracy: -m0
  Conclusion: CDDA 100%
  Signature: 76F9B4E77B04145C5A087AF1A6DEC5C02312DCAA
FILE: 02 - Smokestack Lightnin' - Long Stemmed Eyes.flac
  Size: 43751416 Hash: D069DC00295B2F5D55EDCF65F715F969 Accuracy: -m0
  Conclusion: CDDA 100%
  Signature: 85EAE6F9C11EEBC184914049DDD6465DA267EA49
FILE: 01 - Smokestack Lightnin' - Watch Your Step.flac
  Size: 22785754 Hash: D0306ABA17A568EAA42669103C8D9D46 Accuracy: -m0
  Conclusion: CDDA 100%
  Signature: 3DC5A42BD02E33CFE6B39C6F6D28DBC0E00F6199
Код:
Код:
REM GENRE "Psychedelic Rock"
REM DATE 1968
REM DISCID 730A7E09
REM COMMENT "ExactAudioCopy v0.99pb4"
PERFORMER "Smokestack Lightnin'"
TITLE "Off The Wall"
FILE "01 - Smokestack Lightnin' - Watch Your Step.wav" WAVE
  TRACK 01 AUDIO
    TITLE "Watch Your Step"
    PERFORMER "Smokestack Lightnin'"
    INDEX 01 00:00:00
FILE "02 - Smokestack Lightnin' - Long Stemmed Eyes.wav" WAVE
  TRACK 02 AUDIO
    TITLE "Long Stemmed Eyes"
    PERFORMER "Smokestack Lightnin'"
    INDEX 01 00:00:00
FILE "03 - Smokestack Lightnin' - Three Hundred Pounds Of Heavenly Joy.wav" WAVE
  TRACK 03 AUDIO
    TITLE "Three Hundred Pounds Of Heavenly Joy"
    PERFORMER "Smokestack Lightnin'"
    INDEX 01 00:00:00
FILE "04 - Smokestack Lightnin' - Somethings Got A Hold On Me.wav" WAVE
  TRACK 04 AUDIO
    TITLE "Somethings Got A Hold On Me"
    PERFORMER "Smokestack Lightnin'"
    INDEX 01 00:00:00
FILE "05 - Smokestack Lightnin' - Light In My Window.wav" WAVE
  TRACK 05 AUDIO
    TITLE "Light In My Window"
    PERFORMER "Smokestack Lightnin'"
    INDEX 01 00:00:00
FILE "06 - Smokestack Lightnin' - I Idolize You.wav" WAVE
  TRACK 06 AUDIO
    TITLE "I Idolize You"
    PERFORMER "Smokestack Lightnin'"
    INDEX 01 00:00:00
FILE "07 - Smokestack Lightnin' - Who's Been Talkin'.wav" WAVE
  TRACK 07 AUDIO
    TITLE "Who's Been Talkin'"
    PERFORMER "Smokestack Lightnin'"
    INDEX 01 00:00:00
FILE "08 - Smokestack Lightnin' - Well Tuesday.wav" WAVE
  TRACK 08 AUDIO
    TITLE "Well Tuesday"
    PERFORMER "Smokestack Lightnin'"
    INDEX 01 00:00:00
FILE "09 - Smokestack Lightnin' - Smokestack Lightnin'.wav" WAVE
  TRACK 09 AUDIO
    TITLE "Smokestack Lightnin'"
    PERFORMER "Smokestack Lightnin'"
    INDEX 01 00:00:00
Правила, инструкции, FAQ!!!
Торрент  Добавлен [16 мар 2014, 00:01] Скачать торрент Магнет ссылка
Скачать торрент
[ Размер 15.73 КБ / Просмотров 57 ]

Статус  
 
Размер  351.45 МБ
Приватный: Нет (DHT включён)
.torrent скачан  0
 


     Отправить личное сообщение
   
Страница 1 из 1
Показать сообщения за:  Поле сортировки  
Начать новую тему Ответить на тему


Сейчас этот форум просматривают: нет зарегистрированных пользователей и гости: 0


Вы не можете начинать темы
Вы не можете отвечать на сообщения
Вы не можете редактировать свои сообщения
Вы не можете удалять свои сообщения
Вы не можете добавлять вложения

Перейти:  
cron