Начать новую тему Ответить на тему
Статистика раздачи
Размер: 703.14 МБ | Добавлен: 01 апр 2019, 19:20 | Скачали: 1
Сидеров: 3  [0 байт/сек]    Личеров: 1  [0 байт/сек]
Пред. тема | След. тема 

Автор
Сообщение

СообщениеДобавлено: 01 апр 2019, 19:20 

Ответить с цитатой 

Sly & The Family Stone / Heard Ya Missed Me, Well I'm Back
Формат записи/Источник записи: [TR24][OF]
Наличие водяных знаков: Нет
Год издания/переиздания диска: 1976/2017
Жанр: Funk, Soul
Издатель (лейбл): Epic, Legacy
Продолжительность: 00:34:04
Наличие сканов в содержимом раздачи: Front
Источник (релизер): qobuz
Контейнер: FLAC (*.flac)
Тип рипа: tracks
Разрядность: 24/96
Формат: PCM
Количество каналов: 2.0
Треклист:
01. Heard Ya Missed Me, Well I'm Back
02. What Was I Thinkin' In My head
03. Nothing Less Than Happiness
04. Sexy Situation
05. Blessing In Disguise
06. Everything In You
07. Mother Is a Hippie
08. Let's Be Together
09. The Thing
10. Family Again
Код:
foobar2000 1.1.10 / Dynamic Range Meter 1.1.1
log date: 2017-12-31 20:02:42
--------------------------------------------------------------------------------
Analyzed: Sly & The Family Stone / Heard Ya Missed Me, Well I'm Back
--------------------------------------------------------------------------------
DR         Peak         RMS     Duration Track
--------------------------------------------------------------------------------
DR13      -0.15 dB   -14.83 dB      4:01 ?-Heard Ya Missed Me, Well I'm Back
DR13       0.00 dB   -14.53 dB      4:02 ?-What Was I Thinkin' In My head
DR11      -1.47 dB   -14.91 dB      3:01 ?-Nothing Less Than Happiness
DR12      -1.45 dB   -14.84 dB      2:59 ?-Sexy Situation
DR11      -0.79 dB   -14.12 dB      3:53 ?-Blessing In Disguise
DR12      -1.10 dB   -15.72 dB      3:17 ?-Everything In You
DR14       0.00 dB   -15.64 dB      3:03 ?-Mother Is a Hippie
DR12      -1.50 dB   -15.68 dB      3:38 ?-Let's Be Together
DR13      -1.27 dB   -16.17 dB      3:23 ?-The Thing
DR12      -0.73 dB   -14.92 dB      2:47 ?-Family Again
--------------------------------------------------------------------------------
Number of tracks:  10
Official DR value: DR12
Samplerate:        96000 Hz
Channels:          2
Bits per sample:   24
Bitrate:           2909 kbps
Codec:             FLAC
================================================================================
Arranged By [Strings] – Ed Bogas
Backing Vocals – Tiny Melton, Vet Stewart
Bass, Vocals – Dwight Hogan
Drums – Anthony Warren
Guitar, Vocals – Joseph Baker
Keyboards, Trombone – John Farey
Percussion – Armando Peraza
Percussion, Vocals – Dawn Weber, Virginia Ayers
Arranged By [Strings], Vocals, Keyboards – Sly Stone
Saxophone [Alto, Soprano], Vocals – John Colla
Saxophone [Tenor], Flute – Steve Schuster
Trumpet – Cynthia Robinson
Violin – Vicki Blackwell
Правила, инструкции, FAQ!!!
Торрент  Добавлен [01 апр 2019, 19:20] Скачать торрент Магнет ссылка
Скачать торрент
[ Размер 14.88 КБ / Просмотров 12 ]

Статус
Проверен 
 
Размер  703.14 МБ
Приватный: Нет (DHT включён)
.torrent скачан  1
 


     Отправить личное сообщение
   
Страница 1 из 1
Показать сообщения за:  Поле сортировки  
Начать новую тему Ответить на тему


Сейчас этот форум просматривают: нет зарегистрированных пользователей и гости: 0


Вы не можете начинать темы
Вы не можете отвечать на сообщения
Вы не можете редактировать свои сообщения
Вы не можете удалять свои сообщения
Вы не можете добавлять вложения

Перейти:  
cron
cron