Начать новую тему Ответить на тему
Статистика раздачи
Размер: 1.02 ГБ | Добавлен: 16 мар 2014, 00:52 | Скачали: 0
Сидеров: 2  [0 байт/сек]    Личеров: 0  [0 байт/сек]
Пред. тема | След. тема 

Автор
Сообщение

СообщениеДобавлено: 16 мар 2014, 00:52 

Ответить с цитатой 


Sleeping With Sirens
- Дискография





Год выпуска: 2010-2013
Жанр: Alt.Rock | Post-Hardcore
Продолжительность: 00:50:17
Тип издания: Дискография
Страна: Orlando, Florida, USA



Треклист:

01.If I'm James Dean, You're Audrey Hepburn
02.The Bomb Dot Com V2.0
03.You Kill Me (In a Good Way)
04.Let Love Bleed Red
05.Captain Tyin Knots Vs Mr Walkway (No Way)
06.Don't Fall Asleep At the Helm
07.With Ears To See, And Eyes To Hear
08.In Case of Emergency, Dial 411
09.The Left Side of Everywhere
10.Outro

Продолжительность: 00:31:12

Код:
Код:
Exact Audio Copy V0.99 prebeta 5 from 4. May 2009

EAC extraction logfile from 22. March 2010, 22:03

Sleeping With Sirens / With Ears To See, And Eyes To Hear

Used drive  : ATAPI   iHAS120   6   Adapter: 3  ID: 0

Read mode               : Secure
Utilize accurate stream : Yes
Defeat audio cache      : Yes
Make use of C2 pointers : No

Read offset correction                      : 6
Overread into Lead-In and Lead-Out          : No
Fill up missing offset samples with silence : Yes
Delete leading and trailing silent blocks   : No
Null samples used in CRC calculations       : Yes
Used interface                              : Native Win32 interface for Win NT & 2000
Gap handling                                : Appended to previous track

Used output format              : User Defined Encoder
Selected bitrate                : 256 kBit/s
Quality                         : High
Add ID3 tag                     : No
Command line compressor         : C:\Program Files\FLAC\flac.exe
Additional command line options : -V -8 -T "artist=%a" -T "title=%t" -T "album=%g" -T "date=%y" -T "tracknumber=%n" -T "genre=%m" %s

TOC of the extracted CD

     Track |   Start  |  Length  | Start sector | End sector
    ---------------------------------------------------------
        1  |  0:00.00 |  3:39.08 |         0    |    16432
        2  |  3:39.08 |  3:31.54 |     16433    |    32311
        3  |  7:10.62 |  3:42.09 |     32312    |    48970
        4  | 10:52.71 |  3:42.37 |     48971    |    65657
        5  | 14:35.33 |  3:22.72 |     65658    |    80879
        6  | 17:58.30 |  2:14.08 |     80880    |    90937
        7  | 20:12.38 |  3:43.03 |     90938    |   107665
        8  | 23:55.41 |  2:44.34 |    107666    |   119999
        9  | 26:40.00 |  2:59.10 |    120000    |   133434
       10  | 29:39.10 |  1:32.73 |    133435    |   140407

Track  1

     Filename C:\Users\Bryan\Desktop\SWS FLAC\Sleeping With Sirens\With Ears To See, And Eyes To Hear\01 - If I'm James Dean, You're Audrey Hepburn.wav

     Pre-gap length  0:00:02.00

     Peak level 100.0 %
     Track quality 100.0 %
     Test CRC 4F076D8B
     Copy CRC 4F076D8B
     Track not present in AccurateRip database
     Copy OK

Track  2

     Filename C:\Users\Bryan\Desktop\SWS FLAC\Sleeping With Sirens\With Ears To See, And Eyes To Hear\02 - The Bomb Dot Com V2.0.wav

     Peak level 100.0 %
     Track quality 100.0 %
     Test CRC 304D5C15
     Copy CRC 304D5C15
     Track not present in AccurateRip database
     Copy OK

Track  3

     Filename C:\Users\Bryan\Desktop\SWS FLAC\Sleeping With Sirens\With Ears To See, And Eyes To Hear\03 - You Kill Me (In a Good Way).wav

     Peak level 100.0 %
     Track quality 100.0 %
     Test CRC 7E278FCE
     Copy CRC 7E278FCE
     Track not present in AccurateRip database
     Copy OK

Track  4

     Filename C:\Users\Bryan\Desktop\SWS FLAC\Sleeping With Sirens\With Ears To See, And Eyes To Hear\04 - Let Love Bleed Red.wav

     Peak level 100.0 %
     Track quality 99.9 %
     Test CRC 744653D2
     Copy CRC 744653D2
     Track not present in AccurateRip database
     Copy OK

Track  5

     Filename C:\Users\Bryan\Desktop\SWS FLAC\Sleeping With Sirens\With Ears To See, And Eyes To Hear\05 - Captain Tyin Knots Vs Mr Walkway (No Way).wav

     Peak level 100.0 %
     Track quality 100.0 %
     Test CRC A67BBFE9
     Copy CRC A67BBFE9
     Track not present in AccurateRip database
     Copy OK

Track  6

     Filename C:\Users\Bryan\Desktop\SWS FLAC\Sleeping With Sirens\With Ears To See, And Eyes To Hear\06 - Don't Fall Asleep At the Helm.wav

     Peak level 100.0 %
     Track quality 100.0 %
     Test CRC E9A66480
     Copy CRC E9A66480
     Track not present in AccurateRip database
     Copy OK

Track  7

     Filename C:\Users\Bryan\Desktop\SWS FLAC\Sleeping With Sirens\With Ears To See, And Eyes To Hear\07 - With Ears To See, And Eyes To Hear.wav

     Peak level 100.0 %
     Track quality 100.0 %
     Test CRC 86D2C878
     Copy CRC 86D2C878
     Track not present in AccurateRip database
     Copy OK

Track  8

     Filename C:\Users\Bryan\Desktop\SWS FLAC\Sleeping With Sirens\With Ears To See, And Eyes To Hear\08 - In Case of Emergency, Dial 411.wav

     Peak level 100.0 %
     Track quality 100.0 %
     Test CRC 658F7803
     Copy CRC 658F7803
     Track not present in AccurateRip database
     Copy OK

Track  9

     Filename C:\Users\Bryan\Desktop\SWS FLAC\Sleeping With Sirens\With Ears To See, And Eyes To Hear\09 - The Left Side of Everywhere.wav

     Peak level 100.0 %
     Track quality 100.0 %
     Test CRC D3CBAD88
     Copy CRC D3CBAD88
     Track not present in AccurateRip database
     Copy OK

Track 10

     Filename C:\Users\Bryan\Desktop\SWS FLAC\Sleeping With Sirens\With Ears To See, And Eyes To Hear\10 - Outro.wav

     Peak level 100.0 %
     Track quality 99.8 %
     Test CRC A7C7692C
     Copy CRC A7C7692C
     Track not present in AccurateRip database
     Copy OK

None of the tracks are present in the AccurateRip database

No errors occurred

End of status report

Код:
Код:
-----------------------

DON'T MODIFY THIS FILE

-----------------------

PERFORMER: auCDtect Task Manager, ver. 1.5.1RC6 build 1.5.1.7
Copyright (c) 2008-2010 y-soft. All rights reserved
http:/y-soft.org

ANALYZER: auCDtect: CD records authenticity detector, version 0.8.2
Copyright (c) 2004 Oleg Berngardt. All rights reserved.
Copyright (c) 2004 Alexander Djourik. All rights reserved.

FILE: 10. Sleeping With Sirens - Outro.flac
  Size: 12878583 Hash: 947A2EC5ED9AEB6F67E0586E6F5F9585 Accuracy: -m0
  Conclusion: CDDA 100%
  Signature: 406BA788B9B2AD14B8C6910861E8B8BA281C1279
FILE: 09. Sleeping With Sirens - The Left Side of Everywhere.flac
  Size: 28664607 Hash: 78D2E094B0FE0C15D322EE9F2B831228 Accuracy: -m0
  Conclusion: CDDA 99%
  Signature: 16D41DED413072EC48AB578B11EF98467514FEC7
FILE: 08. Sleeping With Sirens - In Case of Emergency, Dial 411.flac
  Size: 25540377 Hash: 6E93B35A1606C63CD617999237C42480 Accuracy: -m0
  Conclusion: CDDA 100%
  Signature: F8C8FDF6A7F18D3E4054C4D6947EB9B8F234973B
FILE: 07. Sleeping With Sirens - With Ears To See, And Eyes To Hear.flac
  Size: 33739284 Hash: D12B04A04CC86E6F9CBB451351F7546E Accuracy: -m0
  Conclusion: CDDA 100%
  Signature: 27332813E5CF21CB9358C03BBB5F3FAEF0FEB3F8
FILE: 06. Sleeping With Sirens - Don't Fall Asleep At the Helm.flac
  Size: 19848062 Hash: CA6C96138374AF036E7712FF7982D4C5 Accuracy: -m0
  Conclusion: CDDA 100%
  Signature: 4FE03D0490AC7F31694C2B0715AB9417DA14FCAD
FILE: 05. Sleeping With Sirens - Captain Tyin Knots Vs Mr Walkway (No Way).flac
  Size: 30899629 Hash: 23CE7A29B537CF67B28D90BE3D58D945 Accuracy: -m0
  Conclusion: CDDA 99%
  Signature: EFED6C41C210C49719D171FAD62A1E1D4E50D67F
FILE: 04. Sleeping With Sirens - Let Love Bleed Red.flac
  Size: 32480768 Hash: A6B90DA43675B1F50BFA97D2C64927D5 Accuracy: -m0
  Conclusion: CDDA 100%
  Signature: E8CD497B7549F44AB01ADE09FA9797B4A5067C5D
FILE: 03. Sleeping With Sirens - You Kill Me (In a Good Way).flac
  Size: 33495478 Hash: 1E1DA6524391A64B160F687ADDC53548 Accuracy: -m0
  Conclusion: CDDA 100%
  Signature: D3318610AB6E102F09588899C57038221B98A97D
FILE: 02. Sleeping With Sirens - The Bomb Dot Com V2.0.flac
  Size: 33238126 Hash: 4A786127C7CF49BD4C7E5A8DF5EE9207 Accuracy: -m0
  Conclusion: CDDA 100%
  Signature: 1638F46E2E9E2486C58198088F6208F28BAEA895
FILE: 01. Sleeping With Sirens - If I'm James Dean, You're Audrey Hepburn.flac
  Size: 33480044 Hash: C278615EC944E9F566235D11A6E036BC Accuracy: -m0
  Conclusion: CDDA 99%
  Signature: EA4E73BCC396C09B3984F94538622D887AA067C2


#777Треклист:

01.Do It Now Remember It Later
02.If You Can't Hang
03.Let's Cheers To This
04.Who Are You Now
05.Fire
06.Postcards and Polaroids
07.A Trophy Father's Trophy Son
08.Your Nickel Ain't Like My Dime
09.Tally It Up: Settle The Score
10.Four Corners and Two Sides
11.All My Heart

Продолжительность: 00:40:38


Код:
Код:
Exact Audio Copy V1.0 beta 1 from 15. November 2010
EAC extraction logfile from 14. July 2011, 9:33
Sleeping With Sirens / Let's Cheers to This
Used drive  : TSSTcorpCD/DVDW TS-H652L   Adapter: 5  ID: 0
Read mode               : Secure
Utilize accurate stream : Yes
Defeat audio cache      : Yes
Make use of C2 pointers : No
Read offset correction                      : 6
Overread into Lead-In and Lead-Out          : No
Fill up missing offset samples with silence : Yes
Delete leading and trailing silent blocks   : No
Null samples used in CRC calculations       : Yes
Used interface                              : Native Win32 interface for Win NT & 2000
Gap handling                                : Appended to previous track
Used output format              : User Defined Encoder
Selected bitrate                : 128 kBit/s
Quality                         : High
Add ID3 tag                     : No
Command line compressor         : C:\Program Files\Exact Audio Copy\Flac\flac.exe
Additional command line options : -V -8 -T "artist=%a" -T "title=%t" -T "album=%g" -T "date=%y" -T "tracknumber=%n" -T "genre=%m" %s
TOC of the extracted CD
     Track |   Start  |  Length  | Start sector | End sector
    ---------------------------------------------------------
        1  |  0:00.00 |  3:23.07 |         0    |    15231
        2  |  3:23.07 |  4:10.18 |     15232    |    33999
        3  |  7:33.25 |  4:17.31 |     34000    |    53305
        4  | 11:50.56 |  3:18.48 |     53306    |    68203
        5  | 15:09.29 |  3:42.64 |     68204    |    84917
        6  | 18:52.18 |  3:47.45 |     84918    |   101987
        7  | 22:39.63 |  3:35.71 |    101988    |   118183
        8  | 26:15.59 |  2:48.03 |    118184    |   130786
        9  | 29:03.62 |  3:14.47 |    130787    |   145383
       10  | 32:18.34 |  4:39.22 |    145384    |   166330
       11  | 36:57.56 |  3:40.22 |    166331    |   182852
Track  1
     Filename L:\Sleeping With Sirens - Let's Cheers to This (2011) [FLAC]\01 - Do It Now Remember It Later.wav
     Pre-gap length  0:00:02.00
     Peak level 100.0 %
     Extraction speed 4.1 X
     Track quality 100.0 %
     Test CRC F1B38881
     Copy CRC F1B38881
     Accurately ripped (confidence 1)  [98C4FBAD]
     Copy OK
Track  2
     Filename L:\Sleeping With Sirens - Let's Cheers to This (2011) [FLAC]\02 - If You Can't Hang.wav
     Peak level 100.0 %
     Extraction speed 4.7 X
     Track quality 100.0 %
     Test CRC 990D00F0
     Copy CRC 990D00F0
     Accurately ripped (confidence 1)  [FBD12E9E]
     Copy OK
Track  3
     Filename L:\Sleeping With Sirens - Let's Cheers to This (2011) [FLAC]\03 - Who Are You Now.wav
     Peak level 100.0 %
     Extraction speed 5.1 X
     Track quality 100.0 %
     Test CRC CE4B75F4
     Copy CRC CE4B75F4
     Accurately ripped (confidence 1)  [BF35460F]
     Copy OK
Track  4
     Filename L:\Sleeping With Sirens - Let's Cheers to This (2011) [FLAC]\04 - Four Corners and Two Sides.wav
     Peak level 100.0 %
     Extraction speed 5.4 X
     Track quality 100.0 %
     Test CRC 7F3E17A4
     Copy CRC 7F3E17A4
     Accurately ripped (confidence 1)  [278BA729]
     Copy OK
Track  5
     Filename L:\Sleeping With Sirens - Let's Cheers to This (2011) [FLAC]\05 - A Trophy Fathers Trophy Son.wav
     Peak level 100.0 %
     Extraction speed 5.7 X
     Track quality 100.0 %
     Test CRC 220C7B67
     Copy CRC 220C7B67
     Accurately ripped (confidence 1)  [C0DE6173]
     Copy OK
Track  6
     Filename L:\Sleeping With Sirens - Let's Cheers to This (2011) [FLAC]\06 - Fire.wav
     Peak level 100.0 %
     Extraction speed 6.0 X
     Track quality 100.0 %
     Test CRC D54DF0AB
     Copy CRC D54DF0AB
     Accurately ripped (confidence 1)  [4ADFDCD7]
     Copy OK
Track  7
     Filename L:\Sleeping With Sirens - Let's Cheers to This (2011) [FLAC]\07 - Tally It Up, Settle the Score.wav
     Peak level 100.0 %
     Extraction speed 6.3 X
     Track quality 100.0 %
     Test CRC D19C6F22
     Copy CRC D19C6F22
     Accurately ripped (confidence 1)  [07DE1A5B]
     Copy OK
Track  8
     Filename L:\Sleeping With Sirens - Let's Cheers to This (2011) [FLAC]\08 - Your Nickle Ain't Worth My Dime.wav
     Peak level 100.0 %
     Extraction speed 6.3 X
     Track quality 100.0 %
     Test CRC E5FE0ECF
     Copy CRC E5FE0ECF
     Accurately ripped (confidence 1)  [4A4D139B]
     Copy OK
Track  9
     Filename L:\Sleeping With Sirens - Let's Cheers to This (2011) [FLAC]\09 - Postcards and Polaroids.wav
     Peak level 100.0 %
     Extraction speed 6.5 X
     Track quality 100.0 %
     Test CRC 1C02007D
     Copy CRC 1C02007D
     Accurately ripped (confidence 1)  [A94B5F7D]
     Copy OK
Track 10
     Filename L:\Sleeping With Sirens - Let's Cheers to This (2011) [FLAC]\10 - All My Heart.wav
     Peak level 100.0 %
     Extraction speed 6.6 X
     Track quality 99.9 %
     Test CRC 803757C3
     Copy CRC 803757C3
     Accurately ripped (confidence 1)  [1F7E589A]
     Copy OK
Track 11
     Filename L:\Sleeping With Sirens - Let's Cheers to This (2011) [FLAC]\11 - Lets Cheers to This.wav
     Pre-gap length  0:00:00.13
     Peak level 100.0 %
     Extraction speed 6.9 X
     Track quality 100.0 %
     Test CRC FF2B9295
     Copy CRC FF2B9295
     Accurately ripped (confidence 1)  [2FD88063]
     Copy OK
All tracks accurately ripped
No errors occurred
End of status report
==== Log checksum D5DF251066D5A7D3DB9DE277142BA77BD859606D281C675C97FEA04DBF81BC26 ====

Код:
Код:
-----------------------

DON'T MODIFY THIS FILE

-----------------------

PERFORMER: auCDtect Task Manager, ver. 1.5.1RC6 build 1.5.1.7
Copyright (c) 2008-2010 y-soft. All rights reserved
http:/y-soft.org

ANALYZER: auCDtect: CD records authenticity detector, version 0.8.2
Copyright (c) 2004 Oleg Berngardt. All rights reserved.
Copyright (c) 2004 Alexander Djourik. All rights reserved.

FILE: 11. Sleeping With Sirens - All My Heart.flac
  Size: 29213667 Hash: FAB000D9F4DF4ED222A6576FC1027591 Accuracy: -m0
  Conclusion: CDDA 100%
  Signature: 1FA7FA587C9357C1286CAB1AADB56943626419C4
FILE: 10. Sleeping With Sirens - Four Corners and Two Sides.flac
  Size: 32567451 Hash: AA43B163C0AC0ABDB5149BC913F0AE19 Accuracy: -m0
  Conclusion: CDDA 100%
  Signature: 552F9ED9E62E5BFC26A0FEC6B531D4391658230C
FILE: 09. Sleeping With Sirens - Tally It Up_ Settle The Score.flac
  Size: 24408215 Hash: D49570544C2EE365E4A48A9CF90B6B28 Accuracy: -m0
  Conclusion: CDDA 100%
  Signature: CA7D86D15054A62E7FF5257ECA5623F5D6322603
FILE: 08. Sleeping With Sirens - Your Nickel Ain't Like My Dime.flac
  Size: 21926448 Hash: 422CD547D04707E9068483E91940A192 Accuracy: -m0
  Conclusion: CDDA 100%
  Signature: AD8CAEC1990A1D0AC06D2EF9CD4BF4F00F1BF4DF
FILE: 07. Sleeping With Sirens - A Trophy Father's Trophy Son.flac
  Size: 27892336 Hash: A09BBAC34CCBB6133D8EC4C688C1E3CF Accuracy: -m0
  Conclusion: CDDA 100%
  Signature: EB7498366593CCAEEF13645A7A599C4E00DEB8AF
FILE: 06. Sleeping With Sirens - Postcards and Polaroids.flac
  Size: 28474415 Hash: A26E3301CBEF082980767F9AE4BB29F2 Accuracy: -m0
  Conclusion: CDDA 100%
  Signature: 75A9E746766DDB313721BC54EA217813CD22B564
FILE: 05. Sleeping With Sirens - Fire.flac
  Size: 28450334 Hash: BA6CBF9C287318DC068F80B573E16DEC Accuracy: -m0
  Conclusion: CDDA 100%
  Signature: 2B2AA00A1B33822863241A33EDC043EE286F5FB3
FILE: 04. Sleeping With Sirens - Who Are You Now.flac
  Size: 26292805 Hash: AA35054E2283BA4C8FF50ACC603F79C3 Accuracy: -m0
  Conclusion: CDDA 100%
  Signature: A6058AA1E0509FF14B9C809CC81DFA9C0535FE87
FILE: 03. Sleeping With Sirens - Let's Cheers To This.flac
  Size: 32687320 Hash: 055B6861B00E5AE926338C6259DC4AB4 Accuracy: -m0
  Conclusion: CDDA 100%
  Signature: 82C10D9A04193F662B6C713F2CD2D1E9D8D55247
FILE: 02. Sleeping With Sirens - If You Can't Hang.flac
  Size: 32356517 Hash: EE5D1A34FD5B8AFB47CAF19280AC3748 Accuracy: -m0
  Conclusion: CDDA 100%
  Signature: C608A6EC9912EE7C321B618D0A3766AFC25F963A
FILE: 01. Sleeping With Sirens - Do It Now Remember It Later.flac
  Size: 26460419 Hash: 33EF4AF6FC82B81A44DEFD9F519947BC Accuracy: -m0
  Conclusion: CDDA 100%
  Signature: 559229EA2196A6A9A6E66AAC6493A820F1D86F0D



#777Треклист:

01.Scene One - James Dean & Audrey Hepburn
02.Scene Two - Roger Rabbit
03.Scene Three - Stomach Tied In Knots
04.Scene Four - Don't You Ever Forget About Me
05.Scene Five - With Ears to See and Eyes to Hear

Продолжительность: 00:18:16


Код:
Код:
Exact Audio Copy V1.0 beta 3 from 29. August 2011

EAC extraction logfile from 28. June 2012, 10:36

Sleeping With Sirens / If You Were a Movie, This Would Be Your Soundtrack

Used drive  : TSSTcorpCD/DVDW TS-H652L   Adapter: 5  ID: 0

Read mode               : Secure
Utilize accurate stream : Yes
Defeat audio cache      : Yes
Make use of C2 pointers : No

Read offset correction                      : 6
Overread into Lead-In and Lead-Out          : No
Fill up missing offset samples with silence : Yes
Delete leading and trailing silent blocks   : No
Null samples used in CRC calculations       : Yes
Used interface                              : Native Win32 interface for Win NT & 2000
Gap handling                                : Appended to previous track

Used output format              : User Defined Encoder
Selected bitrate                : 1024 kBit/s
Quality                         : High
Add ID3 tag                     : No
Command line compressor         : C:\Program Files\Exact Audio Copy\Flac\flac.exe
Additional command line options : -8 -V -T "ARTIST=%artist%" -T "TITLE=%title%" -T "ALBUM=%albumtitle%" -T "DATE=%year%" -T "TRACKNUMBER=%tracknr%" -T "GENRE=%genre%" -T "PERFORMER=%albuminterpret%" -T "COMPOSER=%composer%" %haslyrics%--tag-from-file=LYRICS="%lyricsfile%"%haslyrics% -T "DISCNUMBER=%cdnumber%" -T "TOTALDISCS=%totalcds%" -T "TOTALTRACKS=%numtracks%" -T "COMMENT=%comment%" %source% -o %dest%

TOC of the extracted CD

     Track |   Start  |  Length  | Start sector | End sector
    ---------------------------------------------------------
        1  |  0:00.00 |  4:16.04 |         0    |    19203
        2  |  4:16.04 |  3:17.71 |     19204    |    34049
        3  |  7:34.00 |  3:29.43 |     34050    |    49767
        4  | 11:03.43 |  3:24.65 |     49768    |    65132
        5  | 14:28.33 |  3:47.43 |     65133    |    82200

Track  1

     Filename M:\Downloads\Sleeping With Sirens - If You Were a Movie, This Would Be Your Soundtrack (2012) [FLAC]\01 - Scene One - James Dean & Audrey Hepburn.wav

     Pre-gap length  0:00:02.00

     Peak level 99.8 %
     Extraction speed 2.6 X
     Track quality 100.0 %
     Test CRC C5642FDF
     Copy CRC C5642FDF
     Track not present in AccurateRip database
     Copy OK

Track  2

     Filename M:\Downloads\Sleeping With Sirens - If You Were a Movie, This Would Be Your Soundtrack (2012) [FLAC]\02 - Scene Two - Roger Rabbit.wav

     Peak level 99.7 %
     Extraction speed 2.7 X
     Track quality 100.0 %
     Test CRC 00AB1E3C
     Copy CRC 00AB1E3C
     Track not present in AccurateRip database
     Copy OK

Track  3

     Filename M:\Downloads\Sleeping With Sirens - If You Were a Movie, This Would Be Your Soundtrack (2012) [FLAC]\03 - Scene Three - Stomach Tied In Knots.wav

     Peak level 99.7 %
     Extraction speed 3.0 X
     Track quality 100.0 %
     Test CRC AD86E485
     Copy CRC AD86E485
     Track not present in AccurateRip database
     Copy OK

Track  4

     Filename M:\Downloads\Sleeping With Sirens - If You Were a Movie, This Would Be Your Soundtrack (2012) [FLAC]\04 - Scene Four - Don't You Ever Forget About Me.wav

     Peak level 99.7 %
     Extraction speed 2.8 X
     Track quality 99.9 %
     Test CRC 4AA920F4
     Copy CRC 4AA920F4
     Track not present in AccurateRip database
     Copy OK

Track  5

     Filename M:\Downloads\Sleeping With Sirens - If You Were a Movie, This Would Be Your Soundtrack (2012) [FLAC]\05 - Scene Five - With Ears to See and Eyes to Hear.wav

     Peak level 99.7 %
     Extraction speed 3.4 X
     Track quality 100.0 %
     Test CRC B4AD01DC
     Copy CRC B4AD01DC
     Track not present in AccurateRip database
     Copy OK

None of the tracks are present in the AccurateRip database

No errors occurred

End of status report

---- CUETools DB Plugin V2.1.3

[CTDB TOCID: VO7MDFW0tQjwu3neMPgwpUDZ5Ik-] disk not present in database, Submit result: VO7MDFW0tQjwu3neMPgwpUDZ5Ik- has been uploaded

==== Log checksum 7147949A9B8815C55C2FC70E5E1D135AB09E48E0A5B0153C392E584D052A9DF6 ====


Код:
Код:
-----------------------

DON'T MODIFY THIS FILE

-----------------------

PERFORMER: auCDtect Task Manager, ver. 1.5.1RC6 build 1.5.1.7
Copyright (c) 2008-2010 y-soft. All rights reserved
http:/y-soft.org

ANALYZER: auCDtect: CD records authenticity detector, version 0.8.2
Copyright (c) 2004 Oleg Berngardt. All rights reserved.
Copyright (c) 2004 Alexander Djourik. All rights reserved.

FILE: 05. Sleeping With Sirens - Scene Five - With Ears to See and Eyes to Hear.flac
  Size: 26968939 Hash: 5E8AECDAF4EB40651A9B699C05A761FD Accuracy: -m0
  Conclusion: CDDA 100%
  Signature: 55A2D6926CC83FD4D1A2159EFFCAF4BE89E77906
FILE: 04. Sleeping With Sirens - Scene Four - Don't You Ever Forget About Me.flac
  Size: 26689133 Hash: B08600B45D547AF729AE3F97D1A82E9D Accuracy: -m0
  Conclusion: CDDA 100%
  Signature: 2C2D0637A45009E9EED70BDE32E559B1F5C947C1
FILE: 03. Sleeping With Sirens - Scene Three - Stomach Tied In Knots.flac
  Size: 23706222 Hash: 4F21CF1D5AECE1AC4E6813AAF4DAA399 Accuracy: -m0
  Conclusion: CDDA 100%
  Signature: CFD712A7FDFB4E496FDEF2F408EB2144AEF40F35
FILE: 02. Sleeping With Sirens - Scene Two - Roger Rabbit.flac
  Size: 24100310 Hash: 548067B28382DE879EA4B47F88276DC8 Accuracy: -m0
  Conclusion: CDDA 100%
  Signature: 6A07E5513CAD3B5330A92C48C8CBE7DCF1486C15
FILE: 01. Sleeping With Sirens - Scene One - James Dean & Audrey Hepburn.flac
  Size: 31146544 Hash: 276DC49C924ABCEE23000F7D6F3187F6 Accuracy: -m0
  Conclusion: CDDA 100%
  Signature: 62855357BE79B6F5A0C6FCF4F9D2C7627A0F18BA


#777Треклист:

01.Feel
02.Here We Go
03.Free Now
04.Alone
05.I'll Take You There
06.The Best There Ever Was
07.Low
08.Congratulations
09.Deja Vu
10.These Things I've Done
11.Sorry
12.Satellites

Продолжительность: 00:44:09


Код:
Код:
-----------------------

DON'T MODIFY THIS FILE

-----------------------

PERFORMER: auCDtect Task Manager, ver. 1.5.1RC6 build 1.5.1.7
Copyright (c) 2008-2010 y-soft. All rights reserved
http:/y-soft.org

ANALYZER: auCDtect: CD records authenticity detector, version 0.8.2
Copyright (c) 2004 Oleg Berngardt. All rights reserved.
Copyright (c) 2004 Alexander Djourik. All rights reserved.

FILE: 12. Sleeping With Sirens - Satellites.flac
  Size: 27597879 Hash: 034AE6129B842534DA6AB553576EA2CE Accuracy: -m0
  Conclusion: CDDA 100%
  Signature: BDDABFB608723361F4777DE263A3335A25845F4C
FILE: 11. Sleeping With Sirens - Sorry.flac
  Size: 22278272 Hash: E8832555F6DCB5B2F3ABB676D617BDAF Accuracy: -m0
  Conclusion: CDDA 100%
  Signature: FEE7B92C4D502B3ABABE05D9ECBA0A4FE8BDA37D
FILE: 10. Sleeping With Sirens - These Things I've Done.flac
  Size: 28089529 Hash: 658D7999551AF3E25C6DCE4D4A8831BC Accuracy: -m0
  Conclusion: CDDA 100%
  Signature: 1B8893E786315440699431B3FB36356292099F62
FILE: 09. Sleeping With Sirens - Deja Vu.flac
  Size: 26402795 Hash: 567B4F398F755764B8585C7FC6A9032F Accuracy: -m0
  Conclusion: CDDA 100%
  Signature: 669B2D00F053741B1BFAECBA6D208A1244CEFB1B
FILE: 08. Sleeping With Sirens - Congratulations.flac
  Size: 34472384 Hash: F9C1D748965FF9D24F60C553417664D9 Accuracy: -m0
  Conclusion: CDDA 100%
  Signature: A95614371243F8F04AF1ECCD7E4EB9F38500285D
FILE: 07. Sleeping With Sirens - Low.flac
  Size: 28787343 Hash: F1E502342D2B55DF031D2F628C103022 Accuracy: -m0
  Conclusion: CDDA 100%
  Signature: 6410ADE7E4949AC3A50BD6DB6DC2C5D40CC18F90
FILE: 06. Sleeping With Sirens - The Best There Ever Was.flac
  Size: 26485819 Hash: ECBCEF771BCC6142F5E5F97CB95136CB Accuracy: -m0
  Conclusion: CDDA 100%
  Signature: 48C223822D65F1E28A4AC517DE02412EB4762399
FILE: 05. Sleeping With Sirens - I'll Take You There.flac
  Size: 32226646 Hash: DBA4ACFC3D078B6B736232C034415341 Accuracy: -m0
  Conclusion: CDDA 100%
  Signature: 7CEA17F3090351B7B3F65743075D5B7F6780DF26
FILE: 04. Sleeping With Sirens - Alone.flac
  Size: 31109394 Hash: B666E3E1EE151A2535835420C287C9CF Accuracy: -m0
  Conclusion: CDDA 100%
  Signature: ADD2D142FFFDF99019F6EA9D5A448E99C2CE3751
FILE: 03. Sleeping With Sirens - Free Now.flac
  Size: 29810112 Hash: 4D002752A8A36DD0DC58BB662BD7B4E8 Accuracy: -m0
  Conclusion: CDDA 100%
  Signature: EBB701192856A015B7C2A2B9266426E85B38B40D
FILE: 02. Sleeping With Sirens - Here We Go.flac
  Size: 26464722 Hash: C62577A8CFF62BAF4305CADB81A87DCE Accuracy: -m0
  Conclusion: CDDA 99%
  Signature: 96A7170829F6F94D2BDCD4A6CADBD7E62881D959
FILE: 01. Sleeping With Sirens - Feel.flac
  Size: 37355820 Hash: 812AE15C30DD99AE0C5F4FA3048E754E Accuracy: -m0
  Conclusion: CDDA 100%
  Signature: 94A803D51C9427CDA67CA44A56C3304F60562EE2




Тип рипа: Tracks+.cue
Аудиокодек: FLAC
Битрейт аудио: lossless
Правила, инструкции, FAQ!!!
Торрент  Добавлен [16 мар 2014, 00:52] Скачать торрент Магнет ссылка
Скачать торрент
[ Размер 17.35 КБ / Просмотров 192 ]

Статус  
 
Размер  1.02 ГБ
Приватный: Нет (DHT включён)
.torrent скачан  0
 


     Отправить личное сообщение
   
Страница 1 из 1
Показать сообщения за:  Поле сортировки  
Начать новую тему Ответить на тему


Сейчас этот форум просматривают: нет зарегистрированных пользователей и гости: 0


Вы не можете начинать темы
Вы не можете отвечать на сообщения
Вы не можете редактировать свои сообщения
Вы не можете удалять свои сообщения
Вы не можете добавлять вложения

Перейти:  
cron