Начать новую тему Ответить на тему
Статистика раздачи
Размер: 350.66 МБ | Добавлен: 16 мар 2014, 00:39 | Скачали: 0
Сидеров: 7  [0 байт/сек]    Личеров: 2  [0 байт/сек]
Пред. тема | След. тема 

Автор
Сообщение

СообщениеДобавлено: 16 мар 2014, 00:39 

Ответить с цитатой 

Skillet - Rise (2013)

Год: 2013
Жанр: Alternative Rock
Продолжительность: 00:48:11

Кодек: FLAC (tracks+.cue)
Битрейт: Lossless

Треклист:
01. Rise (4:21)
02. Sick Of It (3:11)
03. Good To Be Alive (5:00)
04. Not Gonna Die (3:45)
05. Circus For A Psycho (4:31)
06. American Noise (4:10)
07. Madness In Me (4:17)
08. Salvation (3:45)
09. Fire And Fury (3:56)
10. My Religion (4:12)
11. Hard To Find (3:48)
12. What I Believe (3:19)
Код:
Код:
Exact Audio Copy V1.0 beta 3 from 29. August 2011

EAC extraction logfile from 22. June 2013, 10:03

Skillet / Rise

Used drive  : hp      DVD RW AD-7721H   Adapter: 0  ID: 1

Read mode               : Secure
Utilize accurate stream : Yes
Defeat audio cache      : Yes
Make use of C2 pointers : No

Read offset correction                      : 48
Overread into Lead-In and Lead-Out          : No
Fill up missing offset samples with silence : Yes
Delete leading and trailing silent blocks   : No
Null samples used in CRC calculations       : Yes
Used interface                              : Native Win32 interface for Win NT & 2000
Gap handling                                : Appended to previous track

Used output format              : User Defined Encoder
Selected bitrate                : 128 kBit/s
Quality                         : High
Add ID3 tag                     : No
Command line compressor         : C:\Program Files (x86)\Exact Audio Copy\Flac\flac.exe
Additional command line options : -8 -V -T "ARTIST=%artist%" -T "TITLE=%title%" -T "ALBUM=%albumtitle%" -T "DATE=%year%" -T "TRACKNUMBER=%tracknr%" -T "GENRE=%genre%" -T "PERFORMER=%albuminterpret%" -T "COMPOSER=%composer%" %haslyrics%--tag-from-file=LYRICS="%lyricsfile%"%haslyrics% -T "ALBUMARTIST=%albumartist%" -T "DISCNUMBER=%cdnumber%" -T "TOTALDISCS=%totalcds%" -T "TOTALTRACKS=%numtracks%" -T "COMMENT=%comment%" %source% -o %dest%

TOC of the extracted CD

     Track |   Start  |  Length  | Start sector | End sector
    ---------------------------------------------------------
        1  |  0:00.00 |  4:20.59 |         0    |    19558
        2  |  4:20.59 |  3:10.27 |     19559    |    33835
        3  |  7:31.11 |  4:59.72 |     33836    |    56332
        4  | 12:31.08 |  3:45.21 |     56333    |    73228
        5  | 16:16.29 |  4:31.70 |     73229    |    93623
        6  | 20:48.24 |  4:09.66 |     93624    |   112364
        7  | 24:58.15 |  4:17.34 |    112365    |   131673
        8  | 29:15.49 |  3:45.30 |    131674    |   148578
        9  | 33:01.04 |  3:56.36 |    148579    |   166314
       10  | 36:57.40 |  4:12.44 |    166315    |   185258
       11  | 41:10.09 |  3:48.14 |    185259    |   202372
       12  | 44:58.23 |  3:19.36 |    202373    |   217333

Track  1

     Filename C:\Users\Daniel\Desktop\Skillet - 2013 - Rise [FLAC]\01 - Rise.wav

     Pre-gap length  0:00:02.00

     Peak level 100.0 %
     Extraction speed 2.8 X
     Track quality 100.0 %
     Test CRC 633FD4A6
     Copy CRC 633FD4A6
     Track not present in AccurateRip database
     Copy OK

Track  2

     Filename C:\Users\Daniel\Desktop\Skillet - 2013 - Rise [FLAC]\02 - Sick of It.wav

     Peak level 100.0 %
     Extraction speed 2.9 X
     Track quality 100.0 %
     Test CRC 9BC49118
     Copy CRC 9BC49118
     Track not present in AccurateRip database
     Copy OK

Track  3

     Filename C:\Users\Daniel\Desktop\Skillet - 2013 - Rise [FLAC]\03 - Good to Be Alive.wav

     Peak level 100.0 %
     Extraction speed 3.3 X
     Track quality 100.0 %
     Test CRC 955D22AE
     Copy CRC 955D22AE
     Track not present in AccurateRip database
     Copy OK

Track  4

     Filename C:\Users\Daniel\Desktop\Skillet - 2013 - Rise [FLAC]\04 - Not Gonna Die.wav

     Peak level 100.0 %
     Extraction speed 3.5 X
     Track quality 100.0 %
     Test CRC 00D7ADCF
     Copy CRC 00D7ADCF
     Track not present in AccurateRip database
     Copy OK

Track  5

     Filename C:\Users\Daniel\Desktop\Skillet - 2013 - Rise [FLAC]\05 - Circus for a Psycho.wav

     Peak level 100.0 %
     Extraction speed 3.2 X
     Track quality 99.9 %
     Test CRC A1E95BAF
     Copy CRC A1E95BAF
     Track not present in AccurateRip database
     Copy OK

Track  6

     Filename C:\Users\Daniel\Desktop\Skillet - 2013 - Rise [FLAC]\06 - American Noise.wav

     Peak level 100.0 %
     Extraction speed 3.7 X
     Track quality 100.0 %
     Test CRC B8D1D9C0
     Copy CRC B8D1D9C0
     Track not present in AccurateRip database
     Copy OK

Track  7

     Filename C:\Users\Daniel\Desktop\Skillet - 2013 - Rise [FLAC]\07 - Madness in Me.wav

     Peak level 100.0 %
     Extraction speed 3.5 X
     Track quality 100.0 %
     Test CRC ECC2F362
     Copy CRC ECC2F362
     Track not present in AccurateRip database
     Copy OK

Track  8

     Filename C:\Users\Daniel\Desktop\Skillet - 2013 - Rise [FLAC]\08 - Salvation.wav

     Peak level 100.0 %
     Extraction speed 2.6 X
     Track quality 99.9 %
     Test CRC 4873E2DC
     Copy CRC 4873E2DC
     Track not present in AccurateRip database
     Copy OK

Track  9

     Filename C:\Users\Daniel\Desktop\Skillet - 2013 - Rise [FLAC]\09 - Fire and Fury.wav

     Peak level 100.0 %
     Extraction speed 3.1 X
     Track quality 100.0 %
     Test CRC 3D8F7C9B
     Copy CRC 3D8F7C9B
     Track not present in AccurateRip database
     Copy OK

Track 10

     Filename C:\Users\Daniel\Desktop\Skillet - 2013 - Rise [FLAC]\10 - My Religion.wav

     Peak level 100.0 %
     Extraction speed 3.2 X
     Track quality 100.0 %
     Test CRC 3F1213F6
     Copy CRC 3F1213F6
     Track not present in AccurateRip database
     Copy OK

Track 11

     Filename C:\Users\Daniel\Desktop\Skillet - 2013 - Rise [FLAC]\11 - Hard to Find.wav

     Peak level 100.0 %
     Extraction speed 3.4 X
     Track quality 99.9 %
     Test CRC 64887B42
     Copy CRC 64887B42
     Track not present in AccurateRip database
     Copy OK

Track 12

     Filename C:\Users\Daniel\Desktop\Skillet - 2013 - Rise [FLAC]\12 - What I Believe.wav

     Peak level 100.0 %
     Extraction speed 3.4 X
     Track quality 99.8 %
     Test CRC A1A234D1
     Copy CRC A1A234D1
     Track not present in AccurateRip database
     Copy OK

None of the tracks are present in the AccurateRip database

No errors occurred

End of status report

==== Log checksum F6F7840C0A32243D06DDBE1AF5BE4957FC40E57EBCE176BB05BCF539A910A4BE ====
Код:
Код:
-----------------------

DON'T MODIFY THIS FILE

-----------------------

PERFORMER: auCDtect Task Manager, ver. 1.6.0 RC1 build 1.6.0.1
Copyright (c) 2008-2010 y-soft. All rights reserved
http:/y-soft.org

ANALYZER: auCDtect: CD records authenticity detector, version 0.8.2
Copyright (c) 2004 Oleg Berngardt. All rights reserved.
Copyright (c) 2004 Alexander Djourik. All rights reserved.

FILE: 12 - What I Believe.flac
  Size: 26336436 Hash: C69D3088601C1F50D64696CD7BF6F1C1 Accuracy: -m0
  Conclusion: CDDA 100%
  Signature: 1DFD612615AEA793A416150389C0F93D4FEB9234
FILE: 11 - Hard to Find.flac
  Size: 28438901 Hash: FFBD17F542637585338B3DC1816F5B19 Accuracy: -m0
  Conclusion: CDDA 99%
  Signature: 6FCFDD606F425615114C1255ADAD133F7E67AC26
FILE: 10 - My Religion.flac
  Size: 33041446 Hash: DA0974E29605DBFAC46246AADDCD2010 Accuracy: -m0
  Conclusion: CDDA 100%
  Signature: D3F52C66581468E4A530993AD487A13F41D96915
FILE: 09 - Fire and Fury.flac
  Size: 29577484 Hash: 22B700E4F5FE9DC47F6E0103F643DF45 Accuracy: -m0
  Conclusion: CDDA 100%
  Signature: C1C1B4C000FF381939DF2520E4D7324B45171501
FILE: 08 - Salvation.flac
  Size: 28477585 Hash: 51A3E1D6D5A51C5BAE4F3D182C1429AD Accuracy: -m0
  Conclusion: CDDA 100%
  Signature: BF0B8AFE303313140DD6F3C8D9CF0EE81C5CB960
FILE: 07 - Madness in Me.flac
  Size: 30858016 Hash: A11C6BE27DE927D0CCA4BB5B9E22311E Accuracy: -m0
  Conclusion: CDDA 100%
  Signature: 8A8209ACB768DA14C663B018C9D9C2E49EF02362
FILE: 06 - American Noise.flac
  Size: 29339888 Hash: 9517971980037CC32613B4CD1CEBD6CE Accuracy: -m0
  Conclusion: CDDA 100%
  Signature: 106F6CBC67479D99CE80AEE8D76A1582F2C3977B
FILE: 05 - Circus for a Psycho.flac
  Size: 35767370 Hash: BD14CB3A74F163780CB083C3DF151A3A Accuracy: -m0
  Conclusion: CDDA 100%
  Signature: A80D8E0D5A01703560B257ED42537EFA37222C51
FILE: 04 - Not Gonna Die.flac
  Size: 29667830 Hash: 2D09124AF19CF2F04A41CABFE814C80A Accuracy: -m0
  Conclusion: CDDA 100%
  Signature: 446888FCC476DF63DE893B73D24E4B98B0D34BB1
FILE: 03 - Good to Be Alive.flac
  Size: 37004118 Hash: 607DE412DF7DB91907E4ADD1D21CC040 Accuracy: -m0
  Conclusion: CDDA 100%
  Signature: 7C915A2F53D184B094B245B5C5BFDF8A72BB357F
FILE: 02 - Sick of It.flac
  Size: 25515855 Hash: 7F889467E1257D87CAFE21F666FFB5FE Accuracy: -m0
  Conclusion: CDDA 100%
  Signature: F89D7D6082787BA1F65A3773D99030D368D7E998
FILE: 01 - Rise.flac
  Size: 33590528 Hash: 7488ABDE41F1DFC698035773FA6C246C Accuracy: -m0
  Conclusion: CDDA 100%
  Signature: 383A17733C6054A85A97279017A1A45943947439
Правила, инструкции, FAQ!!!
Торрент  Добавлен [16 мар 2014, 00:39] Скачать торрент Магнет ссылка
Скачать торрент
[ Размер 15.24 КБ / Просмотров 22 ]

Статус  
 
Размер  350.66 МБ
Приватный: Нет (DHT включён)
.torrent скачан  0
 


     Отправить личное сообщение
   
Страница 1 из 1
Показать сообщения за:  Поле сортировки  
Начать новую тему Ответить на тему


Сейчас этот форум просматривают: нет зарегистрированных пользователей и гости: 0


Вы не можете начинать темы
Вы не можете отвечать на сообщения
Вы не можете редактировать свои сообщения
Вы не можете удалять свои сообщения
Вы не можете добавлять вложения

Перейти:  
cron
cron