Начать новую тему Ответить на тему
Статистика раздачи
Размер: 10.39 ГБ | Добавлен: 06 ноя 2019, 18:58 | Скачали: 5
Сидеров: 5  [0 байт/сек]    Личеров: 25  [0 байт/сек]
Пред. тема | След. тема 

Автор
Сообщение

СообщениеДобавлено: 06 ноя 2019, 18:58 

Ответить с цитатой 

Синьор Робинзон / Il signor Robinson, mostruosa storia d'amore e d'avventure (1976) BDRip [H.264/1080p]

#777

Производство: Италия / Vides Cinematografica
Жанр: мелодрама, комедия, приключения

Режиссер: Серджио Корбуччи
Продюсер: Франко Кристальди, Бруно Альтиссими
Актеры: Паоло Вилладжо, Зеуди Арая Кристальди, Перси Хоган, Анна Ногара

Описание:
Робинзон Крузо проходит через множество комичных ситуаций, пока ему не удается хоть как-то освоиться на острове. У него появляется даже Пятница — только на этот раз это темнокожая красавица, с которой Робинзон поначалу тщетно пытается найти общий язык.
Современный Робинзон не хочет отказываться от благ цивилизации и придумывает, как заменить телевизор, радио и все то, без чего в наше время трудно представить свою жизнь…


Возраст: 16+ (зрителям, достигшим 16 лет)
Рейтинг MPAA: этот продукт не был классифицирован

Релиз от: MAG3131

Продолжительность: 01:47:59
Качество видео: BDRip
Перевод: Дублированный, Многоголосый, Двухголосый
Субтитры: Русские

Видео: AVC/H.264, 1916x1036, ~13 mbps
Аудио #01: AC3, 2 ch, 192 kbps - Русский (Дублированный ''Союзмультфильм'' с вставками многоголосого ''РТР'')
Аудио #02: AC3, 2 ch, 192 kbps - Русский (Многоголосый ''РТР'')
Аудио #03: AC3, 2 ch, 192 kbps - Русский (Двухголосый ''НТВ'')
Аудио #04: AC3, 2 ch, 192 kbps - Итальянский
Код:
-[Information] [05.11.2019 19:15:56] x264 [info]: frame I:917   Avg QP:16.81  size:299649
-[Information] [05.11.2019 19:15:56] x264 [info]: frame P:41533 Avg QP:19.54  size:124930
-[Information] [05.11.2019 19:15:56] x264 [info]: frame B:113048 Avg QP:21.29  size: 44805
Код:
Общее
Уникальный идентификатор                 : 64439408424639900303659781388671645663 (0x307A9420FD005D651A8327744E0BF7DF)
Полное имя                               : Il.Signor.Robinson.Mostruosa.Storia.D'amore.E.D'avventure.1976.BDRip.1080p.mkv
Формат                                   : Matroska
Версия формата                           : Version 2
Размер файла                             : 10,4 Гбайт
Продолжительность                        : 1 ч. 47 м.
Общий поток                              : 13,8 Мбит/сек
Название фильма                          : Синьор Робинзон ''Невероятная любовно-приключенческая история'' (Il Signor Robinson ''Mostruosa Storia D'Amore E D'Avventure'') - MAG3131
Дата кодирования                         : UTC 2019-11-06 13:08:04
Программа кодирования                    : mkvmerge v39.0.0 ('In The Waiting Line') 64-bit
Библиотека кодирования                   : libebml v1.3.9 + libmatroska v1.5.2
Attachments                              : Лог кодирования.log

Видео
Идентификатор                            : 1
Формат                                   : AVC
Формат/Информация                        : Advanced Video Codec
Профиль формата                          : [url=http://nnmclub.to/mailto:High@L4.1]High@L4.1[/url]
Настройки формата                        : CABAC / 4 Ref Frames
Параметр CABAC формата                   : Да
Параметр RefFrames формата               : 4 кадра
Идентификатор кодека                     : V_MPEG4/ISO/AVC
Продолжительность                        : 1 ч. 47 м.
Битрейт                                  : 13,0 Мбит/сек
Ширина                                   : 1916 пикселей
Высота                                   : 1036 пикселей
Соотношение сторон                       : 1,85:1
Режим частоты кадров                     : Постоянный
Частота кадров                           : 24,000 кадра/сек
Цветовое пространство                    : YUV
Субдискретизация насыщенности            : 4:2:0
Битовая глубина                          : 8 бит
Тип развёртки                            : Прогрессивная
Бит/(Пиксели*Кадры)                      : 0.273
Размер потока                            : 9,60 Гбайт (92%)
Заголовок                                : Синьор Робинзон ''Невероятная любовно-приключенческая история'' (Il Signor Robinson ''Mostruosa Storia D'Amore E D'Avventure'')
Библиотека кодирования                   : x264 core 157 r2935 545de2f
Настройки программы                      : cabac=1 / ref=4 / deblock=1:-1:-1 / analyse=0x3:0x133 / me=umh / subme=11 / psy=1 / psy_rd=1.00:0.15 / mixed_ref=1 / me_range=64 / chroma_me=1 / trellis=2 / 8x8dct=1 / cqm=0 / deadzone=21,11 / fast_pskip=0 / chroma_qp_offset=-3 / threads=6 / lookahead_threads=1 / sliced_threads=0 / nr=0 / decimate=0 / interlaced=0 / bluray_compat=0 / constrained_intra=0 / bframes=16 / b_pyramid=2 / b_adapt=2 / b_bias=0 / direct=3 / weightb=1 / open_gop=0 / weightp=2 / keyint=240 / keyint_min=24 / scenecut=40 / intra_refresh=0 / rc_lookahead=60 / rc=2pass / mbtree=0 / bitrate=13000 / ratetol=1.0 / qcomp=0.60 / qpmin=0 / qpmax=69 / qpstep=4 / cplxblur=20.0 / qblur=0.5 / vbv_maxrate=50000 / vbv_bufsize=62500 / nal_hrd=none / filler=0 / ip_ratio=1.40 / pb_ratio=1.30 / aq=1:1.00
Язык                                     : Italian
Default                                  : Да
Forced                                   : Нет

Аудио #1
Идентификатор                            : 2
Формат                                   : AC-3
Формат/Информация                        : Audio Coding 3
Коммерческое название                    : Dolby Digital
Идентификатор кодека                     : A_AC3
Продолжительность                        : 1 ч. 47 м.
Вид битрейта                             : Постоянный
Битрейт                                  : 192 Кбит/сек
Каналы                                   : 2 канала
ChannelLayout                            : L R
Частота                                  : 48,0 КГц
Частота кадров                           : 31,250 кадров/сек (1536 SPF)
Метод сжатия                             : С потерями
Размер потока                            : 148 Мбайт (1%)
Заголовок                                : Дублированный ''Союзмультфильм'' с вставками многоголосого ''РТР'' (AC-3, Постоянный, 192 Кбит/сек, 2 канала, 48,0 КГц, 16 бит)
Язык                                     : Russian
ServiceKind/String                       : Complete Main
Default                                  : Да
Forced                                   : Нет

Аудио #2
Идентификатор                            : 3
Формат                                   : AC-3
Формат/Информация                        : Audio Coding 3
Коммерческое название                    : Dolby Digital
Идентификатор кодека                     : A_AC3
Продолжительность                        : 1 ч. 47 м.
Вид битрейта                             : Постоянный
Битрейт                                  : 192 Кбит/сек
Каналы                                   : 2 канала
ChannelLayout                            : L R
Частота                                  : 48,0 КГц
Частота кадров                           : 31,250 кадров/сек (1536 SPF)
Метод сжатия                             : С потерями
Размер потока                            : 148 Мбайт (1%)
Заголовок                                : Многоголосый ''РТР'' (AC-3, Постоянный, 192 Кбит/сек, 2 канала, 48,0 КГц, 16 бит)
Язык                                     : Russian
ServiceKind/String                       : Complete Main
Default                                  : Нет
Forced                                   : Нет

Аудио #3
Идентификатор                            : 4
Формат                                   : AC-3
Формат/Информация                        : Audio Coding 3
Коммерческое название                    : Dolby Digital
Идентификатор кодека                     : A_AC3
Продолжительность                        : 1 ч. 47 м.
Вид битрейта                             : Постоянный
Битрейт                                  : 192 Кбит/сек
Каналы                                   : 2 канала
ChannelLayout                            : L R
Частота                                  : 48,0 КГц
Частота кадров                           : 31,250 кадров/сек (1536 SPF)
Метод сжатия                             : С потерями
Размер потока                            : 148 Мбайт (1%)
Заголовок                                : Двухголосый ''НТВ'' (AC-3, Постоянный, 192 Кбит/сек, 2 канала, 48,0 КГц, 16 бит)
Язык                                     : Russian
ServiceKind/String                       : Complete Main
Default                                  : Нет
Forced                                   : Нет

Аудио #4
Идентификатор                            : 5
Формат                                   : AC-3
Формат/Информация                        : Audio Coding 3
Коммерческое название                    : Dolby Digital
Идентификатор кодека                     : A_AC3
Продолжительность                        : 1 ч. 47 м.
Вид битрейта                             : Постоянный
Битрейт                                  : 192 Кбит/сек
Каналы                                   : 2 канала
ChannelLayout                            : L R
Частота                                  : 48,0 КГц
Частота кадров                           : 31,250 кадров/сек (1536 SPF)
Метод сжатия                             : С потерями
Размер потока                            : 148 Мбайт (1%)
Заголовок                                : Оригинал (AC-3, Постоянный, 192 Кбит/сек, 2 канала, 48,0 КГц, 16 бит)
Язык                                     : Italian
ServiceKind/String                       : Complete Main
Default                                  : Нет
Forced                                   : Нет

Текст
Идентификатор                            : 6
Формат                                   : UTF-8
Идентификатор кодека                     : S_TEXT/UTF8
Идентификатор кодека/Информация          : UTF-8 Plain Text
Заголовок                                : Русские
Язык                                     : Russian
Default                                  : Нет
Forced                                   : Нет

Меню
00:00:00.000                             : en:00:00:00.000
00:08:35.956                             : en:00:08:35.956
00:18:13.333                             : en:00:18:13.333
00:27:50.540                             : en:00:27:50.540
00:36:42.708                             : en:00:36:42.708
00:44:43.000                             : en:00:44:43.000
00:54:15.000                             : en:00:54:15.000
01:06:29.708                             : en:01:06:29.708
01:14:19.792                             : en:01:14:19.792
01:21:47.332                             : en:01:21:47.332
01:34:09.542                             : en:01:34:09.542
01:46:39.457                             : en:01:46:39.457

Скриншоты:
Правила, инструкции, FAQ!!!
Торрент  Добавлен [06 ноя 2019, 18:58] Скачать торрент Магнет ссылка
Скачать торрент
[ Размер 52.82 КБ / Просмотров 69 ]

Статус
Проверен 
 
Размер  10.39 ГБ
Приватный: Нет (DHT включён)
.torrent скачан  5
 


     Отправить личное сообщение
   
Страница 1 из 1
Показать сообщения за:  Поле сортировки  
Начать новую тему Ответить на тему


Сейчас этот форум просматривают: нет зарегистрированных пользователей и гости: 0


Вы не можете начинать темы
Вы не можете отвечать на сообщения
Вы не можете редактировать свои сообщения
Вы не можете удалять свои сообщения
Вы не можете добавлять вложения

Перейти:  
cron