Начать новую тему Ответить на тему
Статистика раздачи
Размер: 1006.85 МБ | Добавлен: 01 июл 2017, 08:45 | Скачали: 9
Сидеров: 178  [0 байт/сек]    Личеров: 57  [0 байт/сек]
Пред. тема | След. тема 

Автор
Сообщение

СообщениеДобавлено: 01 июл 2017, 08:45 

Ответить с цитатой 

Sia / This Is Acting
Формат записи/Источник записи: [TR24][OF]
Наличие водяных знаков: Нет
Год издания/переиздания диска: 2016
Жанр: Pop, Indie, Chillout, Alternative
Издатель(лейбл): Monkey Puzzle Records - RCA Records
Продолжительность: 00:46:37
Наличие сканов в содержимом раздачи: Нет
Треклист:
01. Bird Set Free (4:12)
02. Alive (4:24)
03. One Million Bullets (4:12)
04. Move Your Body (4:07)
05. Unstoppable (3:38)
06. Cheap Thrills (3:32)
07. Reaper (3:40)
08. House On Fire (4:01)
09. Footprints (3:13)
10. Sweet Design (2:26)
11. Broken Glass (4:25)
12. Space Between (4:48)
Контейнер: FLAC (*.flac)
Тип рипа: tracks
Разрядность: 24/96
Формат: WAV (flac.ape.wv)
Количество каналов: 2.0
Код:
foobar2000 1.3.8 / Dynamic Range Meter 1.1.1
log date: 2016-01-30 11:52:15
--------------------------------------------------------------------------------
Analyzed: Sia / This Is Acting
--------------------------------------------------------------------------------
DR         Peak         RMS     Duration Track
--------------------------------------------------------------------------------
DR4       -0.09 dB    -6.11 dB      4:12 01-Bird Set Free
DR4        0.00 dB    -7.72 dB      4:24 02-Alive
DR4        0.00 dB    -5.72 dB      4:12 03-One Million Bullets
DR4        0.00 dB    -5.74 dB      4:07 04-Move Your Body
DR5        0.00 dB    -6.93 dB      3:38 05-Unstoppable
DR6        0.00 dB    -7.53 dB      3:32 06-Cheap Thrills
DR5        0.00 dB    -6.49 dB      3:40 07-Reaper
DR5       -0.16 dB    -6.86 dB      4:01 08-House On Fire
DR5       -0.16 dB    -7.74 dB      3:13 09-Footprints
DR4       -1.00 dB    -5.86 dB      2:26 10-Sweet Design
DR4        0.00 dB    -5.68 dB      4:25 11-Broken Glass
DR7        0.00 dB    -8.50 dB      4:48 12-Space Between
--------------------------------------------------------------------------------
Number of tracks:  12
Official DR value: DR5
Samplerate:        96000 Hz
Channels:          2
Bits per sample:   24
Bitrate:           3088 kbps
Codec:             FLAC
================================================================================
Источник (релизер): QOBUZ (WRZMusic)
Правила, инструкции, FAQ!!!
Торрент  Добавлен [01 июл 2017, 08:45] Скачать торрент Магнет ссылка
Скачать торрент
[ Размер 6.11 КБ / Просмотров 140 ]

Статус
Проверен 
 
Размер  1006.85 МБ
Приватный: Нет (DHT включён)
.torrent скачан  9
 


     Отправить личное сообщение
   
Страница 1 из 1
Показать сообщения за:  Поле сортировки  
Начать новую тему Ответить на тему


Сейчас этот форум просматривают: нет зарегистрированных пользователей и гости: 0


Вы не можете начинать темы
Вы не можете отвечать на сообщения
Вы не можете редактировать свои сообщения
Вы не можете удалять свои сообщения
Вы не можете добавлять вложения

Перейти:  
cron