Начать новую тему Ответить на тему
Статистика раздачи
Размер: 500.96 МБ | Добавлен: 01 июл 2017, 08:50 | Скачали: 15
Сидеров: 61  [0 байт/сек]    Личеров: 20  [0 байт/сек]
Пред. тема | След. тема 

Автор
Сообщение

СообщениеДобавлено: 01 июл 2017, 08:50 

Ответить с цитатой 

Shakira / El Dorado
Формат записи/Источник записи: [TR24][OF]
Наличие водяных знаков: Нет
Год издания/переиздания диска: 2017
Жанр: Pop, Latin
Издатель (лейбл): Sony Music Latin
Продолжительность: 44:03
Наличие сканов в содержимом раздачи: Только обложка альбома
Треклист:
01. Me Enamoré
02. Nada
03. Chantaje (feat. Maluma)
04. When a Woman
05. Amarillo
06. Perro Fiel (feat. Nicky Jam)
07. Trap (feat. Maluma)
08. Comme moi
09. Coconut Tree
10. La Bicicleta
11. Deja vu
12. What We Said (Comme moi) [feat. MAGIC!] [English Version]
13. Toneladas
Контейнер: FLAC (*.flac)
Тип рипа: tracks
Разрядность: 24/44,1
Формат: PCM
Количество каналов: 2.0
Код:
foobar2000 1.3.14 / Dynamic Range Meter 1.1.1
log date: 2017-05-26 21:19:01
--------------------------------------------------------------------------------
Analyzed: Shakira / El Dorado
--------------------------------------------------------------------------------
DR         Peak         RMS     Duration Track
--------------------------------------------------------------------------------
DR6       -1.00 dB    -7.98 dB      3:47 01-Me Enamoré
DR6       -1.03 dB    -9.51 dB      3:11 02-Nada
DR4       -1.03 dB    -6.49 dB      3:16 03-Chantaje (feat. Maluma)
DR4       -1.05 dB    -7.65 dB      3:18 04-When a Woman
DR5       -1.06 dB    -7.43 dB      3:41 05-Amarillo
DR6       -1.00 dB    -8.04 dB      3:16 06-Perro Fiel (feat. Nicky Jam)
DR5       -1.00 dB    -8.92 dB      3:21 07-Trap (feat. Maluma)
DR6       -1.05 dB    -8.16 dB      3:09 08-Comme moi
DR6       -1.01 dB    -8.86 dB      3:50 09-Coconut Tree
DR5       -1.01 dB    -7.26 dB      3:48 10-La Bicicleta
DR5       -1.00 dB    -8.16 dB      3:17 11-Deja vu
DR6       -1.05 dB    -8.18 dB      3:00 12-What We Said (Comme moi) [feat. MAGIC!] [English Version]
DR9       -1.10 dB   -12.64 dB      3:09 13-Toneladas
--------------------------------------------------------------------------------
Number of tracks:  13
Official DR value: DR6
Samplerate:        44100 Hz
Channels:          2
Bits per sample:   24
Bitrate:           1283 kbps
Codec:             FLAC
================================================================================
Источник (релизер): http://www.hdtracks.com/el-dorado-451953
Правила, инструкции, FAQ!!!
Торрент  Добавлен [01 июл 2017, 08:50] Скачать торрент Магнет ссылка
Скачать торрент
[ Размер 20.85 КБ / Просмотров 145 ]

Статус
Проверен 
 
Размер  500.96 МБ
Приватный: Нет (DHT включён)
.torrent скачан  15
 


     Отправить личное сообщение
   
Страница 1 из 1
Показать сообщения за:  Поле сортировки  
Начать новую тему Ответить на тему


Сейчас этот форум просматривают: нет зарегистрированных пользователей и гости: 0


Вы не можете начинать темы
Вы не можете отвечать на сообщения
Вы не можете редактировать свои сообщения
Вы не можете удалять свои сообщения
Вы не можете добавлять вложения

Перейти:  
cron
cron