Начать новую тему Ответить на тему
Статистика раздачи
Размер: 395.17 МБ | Добавлен: 16 мар 2014, 00:24 | Скачали: 0
Сидеров: 1  [0 байт/сек]    Личеров: 0  [0 байт/сек]
Пред. тема | След. тема 

Автор
Сообщение

СообщениеДобавлено: 16 мар 2014, 00:24 

Ответить с цитатой 

Shadow Gallery - Digital Ghosts (2009)

Год: 2009
Жанр: Progressive Rock
Продолжительность: 00:55:29

Кодек: FLAC
Битрейт: Lossless

Треклист:
1.With Honor 9:59
2.Venom 6:22
3.Pain 6:22
4.Gold Dust 6:45
5.Strong 6:50
6.Digital Ghost 9:37
7.Haunted 9:37
Код:
Код:
Exact Audio Copy V1.0 beta 3 from 29. August 2011

EAC extraction logfile from 20. December 2013, 21:34

Shadow Gallery / Digital Ghosts

Used drive  : hp      DVD RW AD-7740H   Adapter: 1  ID: 1

Read mode               : Secure
Utilize accurate stream : Yes
Defeat audio cache      : Yes
Make use of C2 pointers : No

Read offset correction                      : 48
Overread into Lead-In and Lead-Out          : No
Fill up missing offset samples with silence : Yes
Delete leading and trailing silent blocks   : No
Null samples used in CRC calculations       : Yes
Used interface                              : Installed external ASPI interface

Used output format              : User Defined Encoder
Selected bitrate                : 768 kBit/s
Quality                         : High
Add ID3 tag                     : No
Command line compressor         : C:\Program Files (x86)\Exact Audio Copy\Flac\flac.exe
Additional command line options : -V -8 -T "Date=%year%" -T "Genre=%genre%" %source%

TOC of the extracted CD

     Track |   Start  |  Length  | Start sector | End sector
    ---------------------------------------------------------
        1  |  0:00.00 |  9:58.62 |         0    |    44911
        2  |  9:58.62 |  6:21.30 |     44912    |    73516
        3  | 16:20.17 |  6:21.66 |     73517    |   102157
        4  | 22:42.08 |  6:45.05 |    102158    |   132537
        5  | 29:27.13 |  6:49.36 |    132538    |   163248
        6  | 36:16.49 |  9:36.51 |    163249    |   206499
        7  | 45:53.25 |  9:36.30 |    206500    |   249729

Range status and errors

Selected range

     Filename H:\Торренты\Shadow Gallery - Digital Ghosts.wav

     Peak level 100.0 %
     Extraction speed 2.1 X
     Range quality 100.0 %
     Copy CRC 20990205
     Copy OK

No errors occurred

AccurateRip summary

Track  1  accurately ripped (confidence 2)  [DBD7C3FC]  (AR v1)
Track  2  accurately ripped (confidence 2)  [A79F487D]  (AR v1)
Track  3  accurately ripped (confidence 2)  [E1E37052]  (AR v1)
Track  4  accurately ripped (confidence 2)  [836A9843]  (AR v1)
Track  5  accurately ripped (confidence 2)  [BBA3ECFD]  (AR v1)
Track  6  accurately ripped (confidence 2)  [3225524F]  (AR v1)
Track  7  accurately ripped (confidence 2)  [5CC3850D]  (AR v1)

All tracks accurately ripped

End of status report

---- CUETools DB Plugin V2.1.3

[CTDB TOCID: RFUxDTxyhmKwxG6AtOass3Vg7G8-] found, Submit result: RFUxDTxyhmKwxG6AtOass3Vg7G8- has been confirmed
[ac93c490] (9/9) Accurately ripped

==== Log checksum 4CEFC96D36DB3710B6466A5F371E9CCEED31617A5B52E95266705DCFCA88FCFA ====
Код:
Код:
-----------------------

DON'T MODIFY THIS FILE

-----------------------

PERFORMER: auCDtect Task Manager, ver. 1.6.0 RC1 build 1.6.0.1
Copyright (c) 2008-2010 y-soft. All rights reserved
http:/y-soft.org

ANALYZER: auCDtect: CD records authenticity detector, version 0.8.2
Copyright (c) 2004 Oleg Berngardt. All rights reserved.
Copyright (c) 2004 Alexander Djourik. All rights reserved.

FILE: Shadow Gallery - Digital Ghosts.flac
  Size: 414189829 Hash: 1495DBE004485F0D5366CAB178D78FCD Accuracy: -m0
  Conclusion: CDDA 100%
  Signature: 3F8577E3468A83473644031B4E942DC98B782D8C
Правила, инструкции, FAQ!!!
Торрент  Добавлен [16 мар 2014, 00:24] Скачать торрент Магнет ссылка
Скачать торрент
[ Размер 16.47 КБ / Просмотров 31 ]

Статус  
 
Размер  395.17 МБ
Приватный: Нет (DHT включён)
.torrent скачан  0
 


     Отправить личное сообщение
   
Страница 1 из 1
Показать сообщения за:  Поле сортировки  
Начать новую тему Ответить на тему


Сейчас этот форум просматривают: нет зарегистрированных пользователей и гости: 0


Вы не можете начинать темы
Вы не можете отвечать на сообщения
Вы не можете редактировать свои сообщения
Вы не можете удалять свои сообщения
Вы не можете добавлять вложения

Перейти:  
cron