Начать новую тему Ответить на тему
Статистика раздачи
Размер: 1.36 ГБ | Добавлен: 01 июл 2017, 08:36 | Скачали: 3
Сидеров: 2  [0 байт/сек]    Личеров: 0  [0 байт/сек]
Пред. тема | След. тема 

Автор
Сообщение

СообщениеДобавлено: 01 июл 2017, 08:36 

Ответить с цитатой 

Sergio Franchi - La Dolce Italy
Формат записи/Источник записи: [TR24][OF]
Наличие водяных знаков: Нет
Год издания/переиздания диска: 1966/2016
Жанр: Pop, Vocal
Издатель (лейбл): RCA/Legacy
Продолжительность: 35:30
Наличие сканов в содержимом раздачи: Только обложка альбома
Треклист:
01. If You Should Leave Me (2:52)
02. Moon Over Naples (2:44)
03. Volare (2:50)
04. Torna (2:19)
05. Serenade In The Night (3:13)
06. (Give Him That) Pizza-zza (2:20)
07. My Heart Reminds Me (3:34)
08. Ciao ciao bambina (2:38)
09. With You Beside Me (3:10)
10. Sicilian Wagoners (2:56)
11. 'Na voce, 'na chitarra (3:09)
12. Piscatore 'E Pusilleco (3:43) 

Контейнер: FLAC (*.flac)
Тип рипа: tracks
Разрядность: 24/192
Количество каналов: 2.0
Код:
foobar2000 1.3.9 / Dynamic Range Meter 1.1.1
log date: 2017-05-24 20:33:07
--------------------------------------------------------------------------------
Analyzed: Sergio Franchi / La Dolce Italy
--------------------------------------------------------------------------------
DR         Peak         RMS     Duration Track
--------------------------------------------------------------------------------
DR10      -1.23 dB   -14.90 dB      2:52 01-If You Should Leave Me
DR9       -0.68 dB   -14.23 dB      2:44 02-Moon Over Naples
DR10      -0.12 dB   -14.43 dB      2:50 03-Volare
DR7       -1.82 dB   -12.67 dB      2:19 04-Torna
DR8       -2.03 dB   -13.69 dB      3:13 05-Serenade In The Night
DR11      -0.77 dB   -14.41 dB      2:20 06-(Give Him That) Pizza-zza
DR9       -2.31 dB   -14.34 dB      3:34 07-My Heart Reminds Me
DR9       -1.24 dB   -13.08 dB      2:38 08-Ciao ciao bambina
DR9       -1.64 dB   -13.80 dB      3:10 09-With You Beside Me
DR8       -0.91 dB   -14.33 dB      2:56 10-Sicilian Wagoners
DR9       -0.30 dB   -13.60 dB      3:09 11-'Na voce, 'na chitarra
DR9       -0.62 dB   -13.47 dB      3:43 12-Piscatore 'E Pusilleco
--------------------------------------------------------------------------------
Number of tracks:  12
Official DR value: DR9
Samplerate:        192000 Hz
Channels:          2
Bits per sample:   24
Bitrate:           5279 kbps
Codec:             FLAC
================================================================================
Источник: hdtracks.com[/spoiler]
Правила, инструкции, FAQ!!!
Торрент  Добавлен [01 июл 2017, 08:36] Скачать торрент Магнет ссылка
Скачать торрент
[ Размер 14.99 КБ / Просмотров 71 ]

Статус
Проверен 
 
Размер  1.36 ГБ
Приватный: Нет (DHT включён)
.torrent скачан  3
 


     Отправить личное сообщение
   
Страница 1 из 1
Показать сообщения за:  Поле сортировки  
Начать новую тему Ответить на тему


Сейчас этот форум просматривают: нет зарегистрированных пользователей и гости: 0


Вы не можете начинать темы
Вы не можете отвечать на сообщения
Вы не можете редактировать свои сообщения
Вы не можете удалять свои сообщения
Вы не можете добавлять вложения

Перейти:  
cron
cron