Начать новую тему Ответить на тему
Статистика раздачи
Размер: 3.54 ГБ | Добавлен: 16 мар 2014, 00:48 | Скачали: 1
Сидеров: 7  [0 байт/сек]    Личеров: 3  [0 байт/сек]
Пред. тема | След. тема 

Автор
Сообщение

СообщениеДобавлено: 16 мар 2014, 00:48 

Ответить с цитатой 

Seether - 8 Albums + 3 Singles (2000-2011)

Год: 2000-2011
Жанр: Post-Grunge
Продолжительность: 08:31:22

Кодек: FLAC
Битрейт: Lossless

Описание:
11CD
2000 - Saron Gas (Seether) - Fragile (Reissue)
2002 - Disclaimer
2004 - Broken (Single)
2004 - Fine Again (Single)
2004 - Disclaimer II
2005 - Karma And Effect
2005 - Remedy (Single)
2006 - One Cold Night
2007 - Finding Beauty In Negative Spaces
2009 - Finding Beauty In Negative Spaces (Deluxe Edition)
2011 - Holding Onto Strings Better Left to Fray (Deluxe Edition)
Albums:
#777Трeклист:
01. Beer (2:47)
02. Tea (3:36)
03. Pride (4:22)
04. Fine Again (4:03)
05. Empty (4:15)
06. Tied In My Hands (5:13)
07. Take Me Away (3:31)
08. Driven Under (4:31)
09. Stay And Play (3:05)
10. Your Bore (3:40)
11. Pig (4:27)
12. Dazed And Abuzed (3:08)
13. Gasoline (2:46)
14. Tied My Hands (Acoustic) (4:48)
15. Senseless Tradgedy (3:17)

Прoдолжительность: 00:57:50
Код:
Код:
EAC extraction logfile from 2. April 2006, 7:51 for CD
Saron Gas / Fragile [2001 Re-Issue] [Import - South Africa]

Used drive  : PLEXTOR CD-R   PREMIUM   Adapter: 1  ID: 0
Read mode   : Secure with NO C2, accurate stream, disable cache
Read offset correction : 30
Overread into Lead-In and Lead-Out : No

Used output format : C:\Program Files\FLAC\flac.exe   (User Defined Encoder)
                     Additional command line options : -V -8 -T "artist=%a" -T "title=%t" -T "album=%g" -T "date=%y" -T "tracknumber=%n" -T "genre=%m" %s

Other options      :
    Fill up missing offset samples with silence : Yes
    Delete leading and trailing silent blocks : No
    Installed external ASPI interface

Track  1
     Filename C:\EAC Output\Saron Gas - 2000 - Fragile [2001 Re-Issue] [Import - South Africa]\01 Beer.wav

     Pre-gap length  0:00:02.00

     Peak level 99.9 %
     Track quality 100.0 %
     Test CRC 4548EDF4
     Copy CRC 4548EDF4
     Copy OK

Track  2
     Filename C:\EAC Output\Saron Gas - 2000 - Fragile [2001 Re-Issue] [Import - South Africa]\02 Tea.wav

     Pre-gap length  0:00:02.00

     Peak level 99.9 %
     Track quality 100.0 %
     Test CRC 1DE6D5C4
     Copy CRC 1DE6D5C4
     Copy OK

Track  3
     Filename C:\EAC Output\Saron Gas - 2000 - Fragile [2001 Re-Issue] [Import - South Africa]\03 Pride.wav

     Pre-gap length  0:00:02.00

     Peak level 96.5 %
     Track quality 100.0 %
     Test CRC EE3E3C5B
     Copy CRC EE3E3C5B
     Copy OK

Track  4
     Filename C:\EAC Output\Saron Gas - 2000 - Fragile [2001 Re-Issue] [Import - South Africa]\04 Fine Again.wav

     Pre-gap length  0:00:02.00

     Peak level 95.5 %
     Track quality 100.0 %
     Test CRC D8797E72
     Copy CRC D8797E72
     Copy OK

Track  5
     Filename C:\EAC Output\Saron Gas - 2000 - Fragile [2001 Re-Issue] [Import - South Africa]\05 Empty.wav

     Pre-gap length  0:00:02.00

     Peak level 99.9 %
     Track quality 99.9 %
     Test CRC 51D97D3E
     Copy CRC 51D97D3E
     Copy OK

Track  6
     Filename C:\EAC Output\Saron Gas - 2000 - Fragile [2001 Re-Issue] [Import - South Africa]\06 Tied In My Hands.wav

     Pre-gap length  0:00:02.00

     Peak level 94.3 %
     Track quality 100.0 %
     Test CRC 4705526F
     Copy CRC 4705526F
     Copy OK

Track  7
     Filename C:\EAC Output\Saron Gas - 2000 - Fragile [2001 Re-Issue] [Import - South Africa]\07 Take Me Away.wav

     Pre-gap length  0:00:02.00

     Peak level 97.7 %
     Track quality 100.0 %
     Test CRC 25803D64
     Copy CRC 25803D64
     Copy OK

Track  8
     Filename C:\EAC Output\Saron Gas - 2000 - Fragile [2001 Re-Issue] [Import - South Africa]\08 Driven Under.wav

     Pre-gap length  0:00:02.00

     Peak level 98.7 %
     Track quality 100.0 %
     Test CRC 31467492
     Copy CRC 31467492
     Copy OK

Track  9
     Filename C:\EAC Output\Saron Gas - 2000 - Fragile [2001 Re-Issue] [Import - South Africa]\09 Stay And Play.wav

     Pre-gap length  0:00:02.00

     Peak level 92.2 %
     Track quality 100.0 %
     Test CRC 3BECE6BE
     Copy CRC 3BECE6BE
     Copy OK

Track 10
     Filename C:\EAC Output\Saron Gas - 2000 - Fragile [2001 Re-Issue] [Import - South Africa]\10 Your Bore.wav

     Pre-gap length  0:00:02.00

     Peak level 97.6 %
     Track quality 99.9 %
     Test CRC 8EB3A4D4
     Copy CRC 8EB3A4D4
     Copy OK

Track 11
     Filename C:\EAC Output\Saron Gas - 2000 - Fragile [2001 Re-Issue] [Import - South Africa]\11 Pig.wav

     Pre-gap length  0:00:02.00

     Peak level 95.5 %
     Track quality 100.0 %
     Test CRC 27071C09
     Copy CRC 27071C09
     Copy OK

Track 12
     Filename C:\EAC Output\Saron Gas - 2000 - Fragile [2001 Re-Issue] [Import - South Africa]\12 Dazed And Abuzed.wav

     Pre-gap length  0:00:02.00

     Peak level 94.3 %
     Track quality 100.0 %
     Test CRC 35FB6ECC
     Copy CRC 35FB6ECC
     Copy OK

Track 13
     Filename C:\EAC Output\Saron Gas - 2000 - Fragile [2001 Re-Issue] [Import - South Africa]\13 Gasoline [Bonus Track].wav

     Pre-gap length  0:00:02.00

     Peak level 100.0 %
     Track quality 100.0 %
     Test CRC E2C43535
     Copy CRC E2C43535
     Copy OK

Track 14
     Filename C:\EAC Output\Saron Gas - 2000 - Fragile [2001 Re-Issue] [Import - South Africa]\14 Tied My Hands [Acoustic] [Bonus Track].wav

     Pre-gap length  0:00:03.66

     Peak level 89.0 %
     Track quality 100.0 %
     Test CRC 991972BF
     Copy CRC 991972BF
     Copy OK

Track 15
     Filename C:\EAC Output\Saron Gas - 2000 - Fragile [2001 Re-Issue] [Import - South Africa]\15 Senseless Tradgedy [Bonus Track].wav

     Pre-gap length  0:00:02.00

     Peak level 88.1 %
     Track quality 100.0 %
     Test CRC 81F83F4E
     Copy CRC 81F83F4E
     Copy OK

No errors occured

End of status report
Код:
Код:
-----------------------

DON'T MODIFY THIS FILE

-----------------------

PERFORMER: auCDtect Task Manager, ver. 1.5.1RC4 build 1.5.1.5
Copyright (c) 2008-2010 y-soft. All rights reserved
http:/y-soft.org

ANALYZER: auCDtect: CD records authenticity detector, version 0.8.2
Copyright (c) 2004 Oleg Berngardt. All rights reserved.
Copyright (c) 2004 Alexander Djourik. All rights reserved.

FILE: 15 - Senseless Tradgedy.flac
  Size: 20439573 Hash: A1F7D06D015EC0AB171F7A42D7886DC4 Accuracy: -m0
  Conclusion: CDDA 100%
  Signature: E9ADECA252C92AD51B8AF587FAC8BAF2B4D47387
FILE: 14 - Tied My Hands [Acoustic].flac
  Size: 30036232 Hash: CF963EB03ABDC3B90E48CFE8EF4A629B Accuracy: -m0
  Conclusion: CDDA 100%
  Signature: FEE27D36545AEF2CA03FC1B076522D0A8341FE0C
FILE: 13 - Gasoline.flac
  Size: 21010608 Hash: 57F14ADD4F69AF3D95B964BE4EF739E2 Accuracy: -m0
  Conclusion: CDDA 100%
  Signature: B8D25A160FBC2DEBFDCAF55A65A8CFCB56FAAC0A
FILE: 12 - Dazed And Abuzed.flac
  Size: 18628758 Hash: D8080F2363FB8A1AA3C33CF849EEB5A9 Accuracy: -m0
  Conclusion: CDDA 99%
  Signature: EE84E033DD128F881863C405FB0EFD42E5841A20
FILE: 11 - Pig.flac
  Size: 33136968 Hash: C4FBF089096C392FCE698C7E698117C0 Accuracy: -m0
  Conclusion: CDDA 100%
  Signature: ABCA9D9D59896028466BCE3A80A817563DAF76ED
FILE: 10 - Your Bore.flac
  Size: 27608271 Hash: 78779C07327905A2EFAFA8E9114370D7 Accuracy: -m0
  Conclusion: CDDA 99%
  Signature: ABB395C5A85C23BB5477FCFB19239E8EC995650D
FILE: 09 - Stay And Play.flac
  Size: 23978180 Hash: A0E7D85D080DDA22FBD1702AF8F1361F Accuracy: -m0
  Conclusion: CDDA 100%
  Signature: E97D57CA1D4313D5CE90DFFECA0E1945FDD572B1
FILE: 08 - Driven Under.flac
  Size: 33617632 Hash: 8A5F08C017F3271428CF05AE04324724 Accuracy: -m0
  Conclusion: CDDA 100%
  Signature: A9EBC074965D1A06147AAE745F8A6BA96C635FD2
FILE: 07 - Take Me Away.flac
  Size: 25998372 Hash: E61711E6432C4D96FE517B77A18029DC Accuracy: -m0
  Conclusion: CDDA 100%
  Signature: 7820FB52CCF96C6A2F530B4C7473C614BFE56C7E
FILE: 06 - Tied In My Hands.flac
  Size: 35557760 Hash: 7EDF317A6550E1C5F8EE49F53F16B6BC Accuracy: -m0
  Conclusion: CDDA 100%
  Signature: 04A9DBAA22C47ABECE58863A4105D0DE0840CD35
FILE: 05 - Empty.flac
  Size: 29706843 Hash: 096C8A7E86E1269E8235D31857386D16 Accuracy: -m0
  Conclusion: CDDA 100%
  Signature: B44D2CB829A15B1A49AE1880E6A9AEF7C4C1FE1A
FILE: 04 - Fine Again.flac
  Size: 30468915 Hash: D75DA652E9151DA771BF877FBD2C970F Accuracy: -m0
  Conclusion: CDDA 100%
  Signature: 34CC6E2A1ED39D373CA554BDE74FF36189F79B6E
FILE: 03 - Pride.flac
  Size: 34919022 Hash: E1F4721607A08C24A8046DD4AA1B015A Accuracy: -m0
  Conclusion: CDDA 100%
  Signature: EADFED668B04818DD5DA88C18351240E0E7C182C
FILE: 02 - Tea.flac
  Size: 28024269 Hash: 87CF9B5F47170ABD4E45976ABCA696CF Accuracy: -m0
  Conclusion: CDDA 100%
  Signature: E50789DB2F52F5CC89C7A7B2D584198003E2B25D
FILE: 01 - Beer.flac
  Size: 20574014 Hash: 7B0D91CAC30F6E27813649334B69790C Accuracy: -m0
  Conclusion: CDDA 100%
  Signature: D005142233C67FB4452E7885F066D85CBB392940
#777Трeклист:
01. Gasoline (2:49)
02. 69 Tea (3:31)
03. Fine Again (4:04)
04. Needles (3:26)
05. Driven Under (4:34)
06. Pride (4:09)
07. Sympathetic (4:08)
08. Your Bore (3:52)
09. Fade Away (3:53)
10. Pig (3:21)
11. Fuсk It (2:58)
12. Broken (4:21)

Прoдолжительность: 00:45:01
Код:
Код:
Exact Audio Copy V0.99 prebeta 4 from 23. January 2008

EAC extraction logfile from 3. May 2009, 17:31

Seether / Disclaimer

Used drive  : Optiarc DVD RW AD-7560A   Adapter: 0  ID: 0

Read mode               : Secure
Utilize accurate stream : Yes
Defeat audio cache      : Yes
Make use of C2 pointers : No

Read offset correction                      : 6
Overread into Lead-In and Lead-Out          : No
Fill up missing offset samples with silence : Yes
Delete leading and trailing silent blocks   : No
Null samples used in CRC calculations       : Yes
Used interface                              : Native Win32 interface for Win NT & 2000
Gap handling                                : Appended to previous track

Used output format              : User Defined Encoder
Selected bitrate                : 128 kBit/s
Quality                         : High
Add ID3 tag                     : No
Command line compressor         : C:\Program Files\Exact Audio Copy\Flac\flac.exe
Additional command line options : -V -8 -T "artist=%a" -T "title=%t" -T "album=%g" -T "date=%y" -T "tracknumber=%n" -T "genre=%m" %s

TOC of the extracted CD

     Track |   Start  |  Length  | Start sector | End sector
    ---------------------------------------------------------
        1  |  0:00.00 |  2:49.10 |         0    |    12684
        2  |  2:49.10 |  3:31.00 |     12685    |    28509
        3  |  6:20.10 |  4:04.00 |     28510    |    46809
        4  | 10:24.10 |  3:25.52 |     46810    |    62236
        5  | 13:49.62 |  4:33.65 |     62237    |    82776
        6  | 18:23.52 |  4:09.00 |     82777    |   101451
        7  | 22:32.52 |  4:08.28 |    101452    |   120079
        8  | 26:41.05 |  3:52.00 |    120080    |   137479
        9  | 30:33.05 |  3:52.67 |    137480    |   154946
       10  | 34:25.72 |  3:20.55 |    154947    |   170001
       11  | 37:46.52 |  2:58.35 |    170002    |   183386
       12  | 40:45.12 |  4:20.50 |    183387    |   202936

Track  1

     Filename D:\EACrips\01 - Gasoline.wav

     Pre-gap length  0:00:02.00

     Peak level 98.8 %
     Track quality 100.0 %
     Test CRC 6476B57C
     Copy CRC 6476B57C
     Accurately ripped (confidence 37)  [6F292C2D]
     Copy OK

Track  2

     Filename D:\EACrips\02 - 69 Tea.wav

     Peak level 98.8 %
     Track quality 100.0 %
     Test CRC 08309111
     Copy CRC 08309111
     Accurately ripped (confidence 37)  [4005FAC0]
     Copy OK

Track  3

     Filename D:\EACrips\03 - Fine Again.wav

     Peak level 98.8 %
     Track quality 100.0 %
     Test CRC 95AC1EB2
     Copy CRC 95AC1EB2
     Accurately ripped (confidence 38)  [2DB0E2CD]
     Copy OK

Track  4

     Filename D:\EACrips\04 - Needles.wav

     Peak level 98.8 %
     Track quality 100.0 %
     Test CRC DEBBA3EE
     Copy CRC DEBBA3EE
     Accurately ripped (confidence 38)  [9D5BC7F5]
     Copy OK

Track  5

     Filename D:\EACrips\05 - Driven Under.wav

     Peak level 98.8 %
     Track quality 100.0 %
     Test CRC 9746AFD6
     Copy CRC 9746AFD6
     Accurately ripped (confidence 36)  [50AB32E6]
     Copy OK

Track  6

     Filename D:\EACrips\06 - Pride.wav

     Peak level 98.8 %
     Track quality 100.0 %
     Test CRC 95816EE6
     Copy CRC 95816EE6
     Accurately ripped (confidence 37)  [6DDB0D91]
     Copy OK

Track  7

     Filename D:\EACrips\07 - Sympathetic.wav

     Peak level 98.8 %
     Track quality 99.9 %
     Test CRC 4D435EA2
     Copy CRC 4D435EA2
     Accurately ripped (confidence 37)  [F0B8A689]
     Copy OK

Track  8

     Filename D:\EACrips\08 - Your Bore.wav

     Peak level 98.8 %
     Track quality 100.0 %
     Test CRC 1C6C3D73
     Copy CRC 1C6C3D73
     Accurately ripped (confidence 36)  [0671C6BB]
     Copy OK

Track  9

     Filename D:\EACrips\09 - Fade Away.wav

     Peak level 98.8 %
     Track quality 100.0 %
     Test CRC 8141A23C
     Copy CRC 8141A23C
     Accurately ripped (confidence 36)  [B17A00D2]
     Copy OK

Track 10

     Filename D:\EACrips\10 - Pig.wav

     Peak level 98.8 %
     Track quality 100.0 %
     Test CRC ED49A4E5
     Copy CRC ED49A4E5
     Accurately ripped (confidence 36)  [0563755A]
     Copy OK

Track 11

     Filename D:\EACrips\11 - [censored] It.wav

     Peak level 98.8 %
     Track quality 100.0 %
     Test CRC 32287641
     Copy CRC 32287641
     Accurately ripped (confidence 36)  [B60A6DB2]
     Copy OK

Track 12

     Filename D:\EACrips\12 - Broken.wav

     Peak level 98.8 %
     Track quality 99.9 %
     Test CRC C1320FBC
     Copy CRC C1320FBC
     Accurately ripped (confidence 36)  [47F1A313]
     Copy OK

All tracks accurately ripped

No errors occurred

End of status report
Код:
Код:
-----------------------

DON'T MODIFY THIS FILE

-----------------------

PERFORMER: auCDtect Task Manager, ver. 1.5.1RC4 build 1.5.1.5
Copyright (c) 2008-2010 y-soft. All rights reserved
http:/y-soft.org

ANALYZER: auCDtect: CD records authenticity detector, version 0.8.2
Copyright (c) 2004 Oleg Berngardt. All rights reserved.
Copyright (c) 2004 Alexander Djourik. All rights reserved.

FILE: 12 - Broken.flac
  Size: 28649259 Hash: 69F6FB00243B514681072BFD786D811A Accuracy: -m0
  Conclusion: CDDA 100%
  Signature: 47456BB06A8CF8B00D8AFBD5F18AE6555EA94215
FILE: 11 - [censored] It.flac
  Size: 20768852 Hash: 351B7357631C19AEC8BB71225C2D0BDE Accuracy: -m0
  Conclusion: CDDA 100%
  Signature: 92B36E098F71B430FC87675AFBFC6BAB1F746459
FILE: 10 - Pig.flac
  Size: 25974097 Hash: C1B9509DFBC7EC4020348D72D7D8C949 Accuracy: -m0
  Conclusion: CDDA 100%
  Signature: 66968F7CE7CB77255275AFF77EBA122C0A83594C
FILE: 09 - Fade Away.flac
  Size: 29094857 Hash: FB8B01E758624549BEB05DB39F0BC683 Accuracy: -m0
  Conclusion: CDDA 99%
  Signature: EE4CCCF7CA152C1B1DBA1F70A02A9C9DCF466020
FILE: 08 - Your Bore.flac
  Size: 29088465 Hash: 864C72E92AB0C4D8F2CA87D542638340 Accuracy: -m0
  Conclusion: CDDA 100%
  Signature: A97560537A5715A5C6D785A08418A801230BE4DA
FILE: 07 - Sympathetic.flac
  Size: 31292377 Hash: CFA84500FC7D1ACEAFCC383B77E041E5 Accuracy: -m0
  Conclusion: CDDA 100%
  Signature: EC6EE0BE53E41FBD2E5258EEF4A0542760BC45AD
FILE: 06 - Pride.flac
  Size: 33179644 Hash: 4DBA9E5AFD3BA3AC700A6105492318B1 Accuracy: -m0
  Conclusion: CDDA 100%
  Signature: 8E5D9209EE69731F10D7C5084455A6A8C4FB5F10
FILE: 05 - Driven Under.flac
  Size: 34105268 Hash: 196E4D45687593C2579EE7FC9383CDB5 Accuracy: -m0
  Conclusion: CDDA 100%
  Signature: BA609A776374B09487A6BA6DF2C5A366ADC3827E
FILE: 04 - Needles.flac
  Size: 27421357 Hash: 5455140F0427FE39CC253A9EA54070ED Accuracy: -m0
  Conclusion: CDDA 99%
  Signature: 1C039270F67C1F0DD4A125534FA9E81D3D97B381
FILE: 03 - Fine Again.flac
  Size: 31516359 Hash: 0BE0F9646F26DE4716595E895243A037 Accuracy: -m0
  Conclusion: CDDA 100%
  Signature: 0C9C670FFC8C87FBF01D4906CE754B81BF6B1EF0
FILE: 02 - 69 Tea.flac
  Size: 27761311 Hash: EE14977F6C699648BE6A0AA645E330D2 Accuracy: -m0
  Conclusion: CDDA 99%
  Signature: 43E4CAA2A6DE3D5E5144D6FB335B6B3C132CEBCE
FILE: 01 - Gasoline.flac
  Size: 22732874 Hash: 6BEE1D29FE67B50700A72C7EDD0E2BEB Accuracy: -m0
  Conclusion: CDDA 99%
  Signature: EF30D62B7754709C0D5E13960E288FEE922232B0
#777Трeклист:
01. Gasoline (2:48)
02. 69 Tea (3:31)
03. Fine Again (4:04)
04. Needles (3:26)
05. Driven Under (4:32)
06. Pride (4:07)
07. Sympathetic (4:10)
08. Your Bore (3:58)
09. Fade Away (3:52)
10. Pig (3:29)
11. [censored] It (2:58)
12. Broken (4:17)
13. Sold Me (3:40)
14. Cigarettes (3:11)
15. Love Her (4:11)
16. Take Me Away (3:55)
17. Got It Made (5:10)
18. Out of My Way (3:51)
19. Hang On (3:10)
20. Broken (featuring Amy Lee of Evanescence) (4:21)

Прoдолжительность: 02:33:12
Код:
Код:
EAC extraction logfile from 19. August 2007, 11:16 for CD
Seether / Disclaimer II

Used drive  : PHILIPS DVDRW416   Adapter: 1  ID: 0
Read mode   : Secure with NO C2, accurate stream, disable cache
Read offset correction : 1292
Overread into Lead-In and Lead-Out : No

Used output format : D:\Program Files\FLAC\flac.exe   (User Defined Encoder)
                     128 kBit/s
                     Additional command line options : -6 -V -T "artist=%a" -T "title=%t" -T "album=%g" -T "date=%y" -T "tracknumber=%n" -T "genre=%m" -T "comment=EAC 0.9beta4 / FLAC 1.1.0 q6" %s

Other options      :
    Fill up missing offset samples with silence : Yes
    Delete leading and trailing silent blocks : No
    Native Win32 interface for Win NT & 2000

Track  1
     Filename E:\flaki\Seether - 2004 - Disclaimer II\01 - Gasoline.wav

     Pre-gap length  0:00:02.00

     Peak level 100.0 %
     Track quality 100.0 %
     Test CRC 7CC6E39C
     Copy CRC 7CC6E39C
     Copy OK

Track  2
     Filename E:\flaki\Seether - 2004 - Disclaimer II\02 - 69 Tea.wav

     Pre-gap length  0:00:00.01

     Peak level 100.0 %
     Track quality 100.0 %
     Test CRC A0A8EBEC
     Copy CRC A0A8EBEC
     Copy OK

Track  3
     Filename E:\flaki\Seether - 2004 - Disclaimer II\03 - Fine Again.wav

     Pre-gap length  0:00:00.02

     Peak level 100.0 %
     Track quality 100.0 %
     Test CRC 29A458FF
     Copy CRC 29A458FF
     Copy OK

Track  4
     Filename E:\flaki\Seether - 2004 - Disclaimer II\04 - Needles.wav

     Peak level 100.0 %
     Track quality 100.0 %
     Test CRC DA91958F
     Copy CRC DA91958F
     Copy OK

Track  5
     Filename E:\flaki\Seether - 2004 - Disclaimer II\05 - Driven Under.wav

     Pre-gap length  0:00:00.03

     Peak level 100.0 %
     Track quality 100.0 %
     Test CRC FEBD4D0E
     Copy CRC FEBD4D0E
     Copy OK

Track  6
     Filename E:\flaki\Seether - 2004 - Disclaimer II\06 - Pride.wav

     Pre-gap length  0:00:00.04

     Peak level 100.0 %
     Track quality 100.0 %
     Test CRC 616C58CB
     Copy CRC 616C58CB
     Copy OK

Track  7
     Filename E:\flaki\Seether - 2004 - Disclaimer II\07 - Sympathetic.wav

     Peak level 100.0 %
     Track quality 100.0 %
     Test CRC 424CD02B
     Copy CRC 424CD02B
     Copy OK

Track  8
     Filename E:\flaki\Seether - 2004 - Disclaimer II\08 - Your Bore.wav

     Peak level 100.0 %
     Track quality 100.0 %
     Test CRC 7BA0D768
     Copy CRC 7BA0D768
     Copy OK

Track  9
     Filename E:\flaki\Seether - 2004 - Disclaimer II\09 - Fade Away.wav

     Pre-gap length  0:00:00.01

     Peak level 100.0 %
     Track quality 100.0 %
     Test CRC 75127743
     Copy CRC 75127743
     Copy OK

Track 10
     Filename E:\flaki\Seether - 2004 - Disclaimer II\10 - Pig.wav

     Peak level 100.0 %
     Track quality 100.0 %
     Test CRC 520E2A73
     Copy CRC 520E2A73
     Copy OK

Track 11
     Filename E:\flaki\Seether - 2004 - Disclaimer II\11 - [censored] It.wav

     Peak level 100.0 %
     Track quality 100.0 %
     Test CRC BE29E66E
     Copy CRC BE29E66E
     Copy OK

Track 12
     Filename E:\flaki\Seether - 2004 - Disclaimer II\12 - Broken.wav

     Peak level 100.0 %
     Track quality 99.9 %
     Test CRC 95C9B9FA
     Copy CRC 95C9B9FA
     Copy OK

Track 13
     Filename E:\flaki\Seether - 2004 - Disclaimer II\13 - Sold Me.wav

     Peak level 100.0 %
     Track quality 100.0 %
     Test CRC EC9E31E4
     Copy CRC EC9E31E4
     Copy OK

Track 14
     Filename E:\flaki\Seether - 2004 - Disclaimer II\14 - Cigarettes.wav

     Peak level 100.0 %
     Track quality 100.0 %
     Test CRC 83724F01
     Copy CRC 83724F01
     Copy OK

Track 15
     Filename E:\flaki\Seether - 2004 - Disclaimer II\15 - Love Her.wav

     Peak level 100.0 %
     Track quality 100.0 %
     Test CRC BB030203
     Copy CRC BB030203
     Copy OK

Track 16
     Filename E:\flaki\Seether - 2004 - Disclaimer II\16 - Take Me Away.wav

     Peak level 100.0 %
     Track quality 100.0 %
     Test CRC 7808A63A
     Copy CRC 7808A63A
     Copy OK

Track 17
     Filename E:\flaki\Seether - 2004 - Disclaimer II\17 - Got It Made.wav

     Peak level 100.0 %
     Track quality 100.0 %
     Test CRC 06272F97
     Copy CRC 06272F97
     Copy OK

Track 18
     Filename E:\flaki\Seether - 2004 - Disclaimer II\18 - Out of My Way.wav

     Peak level 100.0 %
     Track quality 99.9 %
     Test CRC 8421DBCF
     Copy CRC 8421DBCF
     Copy OK

Track 19
     Filename E:\flaki\Seether - 2004 - Disclaimer II\19 - Hang On.wav

     Peak level 100.0 %
     Track quality 100.0 %
     Test CRC 939C4420
     Copy CRC 939C4420
     Copy OK

Track 20
     Filename E:\flaki\Seether - 2004 - Disclaimer II\20 - Broken (feat. Amy Lee).wav

     Pre-gap length  0:00:00.02

     Peak level 100.0 %
     Track quality 99.9 %
     Test CRC 31C2FB96
     Copy CRC 31C2FB96
     Copy OK

No errors occured

End of status report
Код:
Код:
-----------------------

DON'T MODIFY THIS FILE

-----------------------

PERFORMER: auCDtect Task Manager, ver. 1.5.1RC4 build 1.5.1.5
Copyright (c) 2008-2010 y-soft. All rights reserved
http:/y-soft.org

ANALYZER: auCDtect: CD records authenticity detector, version 0.8.2
Copyright (c) 2004 Oleg Berngardt. All rights reserved.
Copyright (c) 2004 Alexander Djourik. All rights reserved.

FILE: 20 - Broken (feat. Amy Lee).flac
  Size: 32480575 Hash: E33D0BFB138EE4944DC80210F7CF3E89 Accuracy: -m0
  Conclusion: CDDA 100%
  Signature: A551E96C86061F1382E95D2392584A60E32AB486
FILE: 19 - Hang On.flac
  Size: 24285575 Hash: 68714845BFBB71F6307615B09AC76811 Accuracy: -m0
  Conclusion: CDDA 100%
  Signature: ABA28F01BB8A803D9D145481214484F1FCA2F3AE
FILE: 18 - Out of My Way.flac
  Size: 30464140 Hash: 42F104A0071CC8497993EFF6460F43E1 Accuracy: -m0
  Conclusion: CDDA 100%
  Signature: 5C9ABFDB6FD94016CEEA3F859AD1A2612E42A7AC
FILE: 17 - Got It Made.flac
  Size: 38906705 Hash: 82F55D1B90F617264683BF30975C648F Accuracy: -m0
  Conclusion: CDDA 100%
  Signature: F289C8B81F7C6909997A611825468F1D8AE222DC
FILE: 16 - Take Me Away.flac
  Size: 27626582 Hash: 99E323B79CB6B802D9DBFCE7E720E3EF Accuracy: -m0
  Conclusion: CDDA 100%
  Signature: 291783DE55EE5388327F74C6D0E195CCBFE6827C
FILE: 15 - Love Her.flac
  Size: 31043369 Hash: 6778042067E40D12467B9D924E333B08 Accuracy: -m0
  Conclusion: CDDA 100%
  Signature: D0405C01210242705EB4F4A1426D83AD2EC8959C
FILE: 14 - Cigarettes.flac
  Size: 24833579 Hash: D0C3B92844DE24845BBF0C535BBE50DB Accuracy: -m0
  Conclusion: CDDA 100%
  Signature: 21A34D34D164605A33295BA7E8BE9C63297AA3D4
FILE: 13 - Sold Me.flac
  Size: 30220701 Hash: 7ECEC445E97B227385FAF4DB5CC8551F Accuracy: -m0
  Conclusion: CDDA 100%
  Signature: C489744CCBED73B9F37A8DF5731518DDB62EAE44
FILE: 12 - Broken.flac
  Size: 30424990 Hash: FAD2DF73EF7868EF0689629172F29552 Accuracy: -m0
  Conclusion: CDDA 100%
  Signature: 15B5B50AD3378EFD083EF803E8C2E81AF69F6C83
FILE: 11 - [censored] It.flac
  Size: 20601486 Hash: DF03170D73D5146F3F8134BCA7A2BE48 Accuracy: -m0
  Conclusion: CDDA 100%
  Signature: 1435F50F691492D4987B7EEDA0A0F44538CD6456
FILE: 10 - Pig.flac
  Size: 26512405 Hash: C2A9250745AC65D961DA782603FB57FB Accuracy: -m0
  Conclusion: CDDA 99%
  Signature: D2B9439E65E6600293AEF9266557B2905BB250BB
FILE: 09 - Fade Away.flac
  Size: 30253401 Hash: BF64DBDBEFAD13C91EC2EED21A37AF8A Accuracy: -m0
  Conclusion: CDDA 100%
  Signature: 05C5C435BBC8B1B01D955B8F0B866A64CCE9089B
FILE: 08 - Your Bore.flac
  Size: 30676984 Hash: D49AF984A77C22B4248B410DB4974519 Accuracy: -m0
  Conclusion: CDDA 100%
  Signature: 740B420F2E5AC900F70F06303F70F0BBA545EC3F
FILE: 07 - Sympathetic.flac
  Size: 32923960 Hash: 32FCD18A64F6E039EABC6423A91F2F05 Accuracy: -m0
  Conclusion: CDDA 100%
  Signature: DAC2661125A8A6C79A5502CBD7422E43C4F8CEE0
FILE: 06 - Pride.flac
  Size: 33500852 Hash: 50AB384616F5691076759B05A480A252 Accuracy: -m0
  Conclusion: CDDA 100%
  Signature: 70D503B62B626C19EEBAD1C520C9B5CB309B112F
FILE: 05 - Driven Under.flac
  Size: 35333363 Hash: 8ABF8564EDAFC2DE60044EC04F6DEC31 Accuracy: -m0
  Conclusion: CDDA 100%
  Signature: D95E09A17A572B4B67905BCDD84AF343C2D4DF46
FILE: 04 - Needles.flac
  Size: 28269278 Hash: 2D576D8852978256131DF854998716E2 Accuracy: -m0
  Conclusion: CDDA 100%
  Signature: 48E4E595F9E8E8AD0F7C55791E63FD807F33593E
FILE: 03 - Fine Again.flac
  Size: 32493302 Hash: 013B9F3E59FCF5D09C38E54E505505CA Accuracy: -m0
  Conclusion: CDDA 100%
  Signature: A531C888F8962A1C00370B9E29A4C0E4C1A811C9
FILE: 02 - 69 Tea.flac
  Size: 28155668 Hash: BA4F5A916DFC92FB0DEA278973849C95 Accuracy: -m0
  Conclusion: CDDA 100%
  Signature: FA27FB39815F2D08555A4167ADF24DBC8FF9D985
FILE: 01 - Gasoline.flac
  Size: 23471855 Hash: 239EDDF7AF352BCB2DA29B97A044B460 Accuracy: -m0
  Conclusion: CDDA 100%
  Signature: 16296D22FECE482F221699B4270D4C3AD16C607F
#777Трeклист:
01. Because of Me (3:36)
02. Remedy (3:27)
03. Truth (3:50)
04. The Gift (5:34)
05. Burrito (3:51)
06. Given (3:47)
07. Never Leave (4:59)
08. World Falls Away (4:40)
09. Tongue (4:06)
10. I'm the One (2:50)
11. Simplest Mistake (5:28)
12. Diseased (3:40)
13. Plastic Man (3:54)
14. Kom Saam Met My (2:16)

Прoдолжительность: 01:00:49
Код:
Код:
EAC extraction logfile from 27. August 2007, 17:50 for CD
Seether / Karma And Effect

Used drive  : PHILIPS DVDRW416   Adapter: 1  ID: 0
Read mode   : Secure with NO C2, accurate stream, disable cache
Read offset correction : 1292
Overread into Lead-In and Lead-Out : No

Used output format : D:\Program Files\FLAC\flac.exe   (User Defined Encoder)
                     128 kBit/s
                     Additional command line options : -6 -V -T "artist=%a" -T "title=%t" -T "album=%g" -T "date=%y" -T "tracknumber=%n" -T "genre=%m" -T "comment=EAC 0.9beta4 / FLAC 1.1.0 q6" %s

Other options      :
    Fill up missing offset samples with silence : Yes
    Delete leading and trailing silent blocks : No
    Native Win32 interface for Win NT & 2000

Track  1
     Filename E:\flaki\Seether - 2005 - Karma And Effect (FLAC)\01 - Because Of Me.wav

     Pre-gap length  0:00:02.00

     Peak level 98.8 %
     Track quality 99.9 %
     Test CRC 6AA3439A
     Copy CRC 6AA3439A
     Copy OK

Track  2
     Filename E:\flaki\Seether - 2005 - Karma And Effect (FLAC)\02 - Remedy.wav

     Peak level 99.4 %
     Track quality 99.9 %
     Test CRC E6104323
     Copy CRC E6104323
     Copy OK

Track  3
     Filename E:\flaki\Seether - 2005 - Karma And Effect (FLAC)\03 - Truth.wav

     Peak level 98.5 %
     Track quality 100.0 %
     Test CRC 7F001386
     Copy CRC 7F001386
     Copy OK

Track  4
     Filename E:\flaki\Seether - 2005 - Karma And Effect (FLAC)\04 - The Gift.wav

     Pre-gap length  0:00:00.02

     Peak level 98.6 %
     Track quality 100.0 %
     Test CRC 1F1A9DD1
     Copy CRC 1F1A9DD1
     Copy OK

Track  5
     Filename E:\flaki\Seether - 2005 - Karma And Effect (FLAC)\05 - Burrito.wav

     Peak level 98.6 %
     Track quality 100.0 %
     Test CRC 2B1F8E17
     Copy CRC 2B1F8E17
     Copy OK

Track  6
     Filename E:\flaki\Seether - 2005 - Karma And Effect (FLAC)\06 - Given.wav

     Pre-gap length  0:00:00.02

     Peak level 98.5 %
     Track quality 100.0 %
     Test CRC 8B1AD6E4
     Copy CRC 8B1AD6E4
     Copy OK

Track  7
     Filename E:\flaki\Seether - 2005 - Karma And Effect (FLAC)\07 - Never Leave.wav

     Peak level 99.2 %
     Track quality 100.0 %
     Test CRC 17D13FE7
     Copy CRC 17D13FE7
     Copy OK

Track  8
     Filename E:\flaki\Seether - 2005 - Karma And Effect (FLAC)\08 - World Falls Away.wav

     Peak level 98.6 %
     Track quality 100.0 %
     Test CRC 427E3D2F
     Copy CRC 427E3D2F
     Copy OK

Track  9
     Filename E:\flaki\Seether - 2005 - Karma And Effect (FLAC)\09 - Tongue.wav

     Peak level 98.7 %
     Track quality 100.0 %
     Test CRC F813293F
     Copy CRC F813293F
     Copy OK

Track 10
     Filename E:\flaki\Seether - 2005 - Karma And Effect (FLAC)\10 - I'm The One.wav

     Peak level 99.2 %
     Track quality 100.0 %
     Test CRC F1ACE44C
     Copy CRC F1ACE44C
     Copy OK

Track 11
     Filename E:\flaki\Seether - 2005 - Karma And Effect (FLAC)\11 - Simplest Mistake.wav

     Peak level 99.4 %
     Track quality 100.0 %
     Test CRC 44748A98
     Copy CRC 44748A98
     Copy OK

Track 12
     Filename E:\flaki\Seether - 2005 - Karma And Effect (FLAC)\12 - Diseased.wav

     Peak level 100.0 %
     Track quality 100.0 %
     Test CRC D0300F27
     Copy CRC D0300F27
     Copy OK

Track 13
     Filename E:\flaki\Seether - 2005 - Karma And Effect (FLAC)\13 - Plastic Man.wav

     Peak level 78.1 %
     Track quality 100.0 %
     Test CRC 93F2FF8B
     Copy CRC 93F2FF8B
     Copy OK

Track 14
     Filename E:\flaki\Seether - 2005 - Karma And Effect (FLAC)\14 - Bonus Track.wav

     Peak level 98.5 %
     Track quality 100.0 %
     Test CRC 24FC7F2D
     Copy CRC 24FC7F2D
     Copy OK

No errors occured

End of status report
Код:
Код:
-----------------------

DON'T MODIFY THIS FILE

-----------------------

PERFORMER: auCDtect Task Manager, ver. 1.5.1RC4 build 1.5.1.5
Copyright (c) 2008-2010 y-soft. All rights reserved
http:/y-soft.org

ANALYZER: auCDtect: CD records authenticity detector, version 0.8.2
Copyright (c) 2004 Oleg Berngardt. All rights reserved.
Copyright (c) 2004 Alexander Djourik. All rights reserved.

FILE: 14 - Bonus Track.flac
  Size: 14589077 Hash: C490C13A9B19E5F4A24A6DD7E22CB6A8 Accuracy: -m0
  Conclusion: CDDA 100%
  Signature: A40D8341DF11444A152A37683D94C076C59C78F5
FILE: 13 - Plastic Man.flac
  Size: 22582272 Hash: 302A8E4B2D1D7AF65739200E3C9E07E6 Accuracy: -m0
  Conclusion: CDDA 100%
  Signature: BBBB8714306E4E209DA971C733778C3D1D80E610
FILE: 12 - Diseased.flac
  Size: 24343622 Hash: AD2826C58282E94BE043E92501BE7BEC Accuracy: -m0
  Conclusion: CDDA 100%
  Signature: 2B786C6BAC804FFDEF2B29ACA9E8DE2BC82B170D
FILE: 11 - Simplest Mistake.flac
  Size: 41141462 Hash: 0CAC11042B3E6A87D81863D7B20EF613 Accuracy: -m0
  Conclusion: CDDA 100%
  Signature: 18C0CE51BAB5438B7A1452CD2A2D26360FB12C3D
FILE: 10 - I'm The One.flac
  Size: 21751628 Hash: 78B00D5DFD532A4AE9EE9AEB56479199 Accuracy: -m0
  Conclusion: CDDA 99%
  Signature: 87516F730A21FF24CD1A4DA3DD3D4DF9CB579166
FILE: 09 - Tongue.flac
  Size: 28851112 Hash: 9B9A4D94EB928F30FCB3481B999EB825 Accuracy: -m0
  Conclusion: CDDA 100%
  Signature: CD1578F845193ACA8A21191B0BCB60B08A065BEB
FILE: 08 - World Falls Away.flac
  Size: 34205643 Hash: 3B269EBD0DA3641984262B64D055B475 Accuracy: -m0
  Conclusion: CDDA 100%
  Signature: A9D7BAA3DC40E8A639683FE9A2DD6E0921CF702C
FILE: 07 - Never Leave.flac
  Size: 35426409 Hash: ED69BE4C8BBDF06466DD3B36F211746D Accuracy: -m0
  Conclusion: CDDA 100%
  Signature: B5263F627738A73712B2B9A3F585392FA5C6B27A
FILE: 06 - Given.flac
  Size: 27154230 Hash: 7D64129A610DA7860A4192F0C8DFE36D Accuracy: -m0
  Conclusion: CDDA 100%
  Signature: C6D7E2263B0803AB67B318852FD3A73B0F1EE58E
FILE: 05 - Burrito.flac
  Size: 28200548 Hash: 630ED04FF3F348A689AFDE21C1F115E3 Accuracy: -m0
  Conclusion: CDDA 99%
  Signature: 088C2C2F9E0012F24C6256C09D3B2FCF5F436598
FILE: 04 - The Gift.flac
  Size: 39180840 Hash: 4E2B90D6514A70E651093D16E0553150 Accuracy: -m0
  Conclusion: CDDA 100%
  Signature: 749A5BE0D1CF9B78A9EFF8D3A686514F5973FC52
FILE: 03 - Truth.flac
  Size: 27626645 Hash: 256D7B311644D6002AFE3646C87EA49F Accuracy: -m0
  Conclusion: CDDA 100%
  Signature: B3FC0915AFD02FFFF16283547578F63742E3489A
FILE: 02 - Remedy.flac
  Size: 26042136 Hash: 2792B2D4489433B379128E82B67C3119 Accuracy: -m0
  Conclusion: CDDA 100%
  Signature: E30266E29776C21CD36BDB17590DBA6EF0E57131
FILE: 01 - Because Of Me.flac
  Size: 27121041 Hash: 78CD95B24F34ACEFF3A3B9F5DA5CBC79 Accuracy: -m0
  Conclusion: CDDA 100%
  Signature: BD0734776096A002EC4592D679F4AA18487C8840
#777Трeклист:
01. Gasoline (2:57)
02. Driven Under (4:59)
03. Diseased (3:46)
04. Truth (5:16)
05. Immortality (5:02)
06. Tied My Hands (5:16)
07. Sympathetic (4:12)
08. Fine Again (5:05)
09. Broken (4:17)
10. The Gift (5:37)
11. Remedy (3:41)
12. Plastic Man (3:35)
13. The Gift (alternate mix) (4:24)

Прoдолжительность: 00:58:02
Код:
Код:
EAC extraction logfile from 20. July 2007, 10:26 for CD
Seether / One Cold Night

Used drive  : HL-DT-STDVDRW  GSA-S10N   Adapter: 0  ID: 0
Read mode   : Secure with NO C2, accurate stream, disable cache
Read offset correction : 667
Overread into Lead-In and Lead-Out : No

Used output format : C:\Program Files\Exact Audio Copy\flac.exe   (User Defined Encoder)
                     192 kBit/s
                     Additional command line options : -8 -A tukey(0.25) -A gauss(0.1875) -b 4096 -V -T "artist=%a" -T "title=%t" -T "album=%g" -T "date=%y" -T "tracknumber=%n" -T "genre=%m" %s --sector-align

Other options      :
    Fill up missing offset samples with silence : Yes
    Delete leading and trailing silent blocks : No
    Installed external ASPI interface

Track  1
     Filename T:\Torrents\OiNK\Seether - One Cold Night [FLAC]\01 Gasoline.wav

     Pre-gap length  0:00:02.00

     Peak level 98.8 %
     Track quality 100.0 %
     Test CRC 5779AC91
     Copy CRC 5779AC91
     Copy OK

Track  2
     Filename T:\Torrents\OiNK\Seether - One Cold Night [FLAC]\02 Driven Under.wav

     Peak level 98.8 %
     Track quality 100.0 %
     Test CRC 376A05A3
     Copy CRC 376A05A3
     Copy OK

Track  3
     Filename T:\Torrents\OiNK\Seether - One Cold Night [FLAC]\03 Diseased.wav

     Peak level 98.8 %
     Track quality 100.0 %
     Test CRC 1DE1AE85
     Copy CRC 1DE1AE85
     Copy OK

Track  4
     Filename T:\Torrents\OiNK\Seether - One Cold Night [FLAC]\04 Truth.wav

     Peak level 98.8 %
     Track quality 100.0 %
     Test CRC FA3B8DB2
     Copy CRC FA3B8DB2
     Copy OK

Track  5
     Filename T:\Torrents\OiNK\Seether - One Cold Night [FLAC]\05 Immortality.wav

     Peak level 99.3 %
     Track quality 100.0 %
     Test CRC 0E5DC021
     Copy CRC 0E5DC021
     Copy OK

Track  6
     Filename T:\Torrents\OiNK\Seether - One Cold Night [FLAC]\06 Tied My Hands.wav

     Peak level 98.8 %
     Track quality 100.0 %
     Test CRC 6A47A274
     Copy CRC 6A47A274
     Copy OK

Track  7
     Filename T:\Torrents\OiNK\Seether - One Cold Night [FLAC]\07 Sympathetic.wav

     Peak level 98.8 %
     Track quality 100.0 %
     Test CRC 9F495F75
     Copy CRC 9F495F75
     Copy OK

Track  8
     Filename T:\Torrents\OiNK\Seether - One Cold Night [FLAC]\08 Fine Again.wav

     Peak level 98.8 %
     Track quality 100.0 %
     Test CRC 9893D156
     Copy CRC 9893D156
     Copy OK

Track  9
     Filename T:\Torrents\OiNK\Seether - One Cold Night [FLAC]\09 Broken.wav

     Peak level 98.8 %
     Track quality 99.9 %
     Test CRC 0F8BA0D5
     Copy CRC 0F8BA0D5
     Copy OK

Track 10
     Filename T:\Torrents\OiNK\Seether - One Cold Night [FLAC]\10 The Gift.wav

     Peak level 99.9 %
     Track quality 99.9 %
     Test CRC A668EA00
     Copy CRC A668EA00
     Copy OK

Track 11
     Filename T:\Torrents\OiNK\Seether - One Cold Night [FLAC]\11 Remedy.wav

     Peak level 98.8 %
     Track quality 100.0 %
     Test CRC 5373C6BF
     Copy CRC 5373C6BF
     Copy OK

Track 12
     Filename T:\Torrents\OiNK\Seether - One Cold Night [FLAC]\12 Plastic Man.wav

     Peak level 100.0 %
     Track quality 100.0 %
     Test CRC 70391890
     Copy CRC 70391890
     Copy OK

Track 13
     Filename T:\Torrents\OiNK\Seether - One Cold Night [FLAC]\13 The Gift [Alternate Mix].wav

     Pre-gap length  0:00:03.02

     Peak level 98.8 %
     Track quality 100.0 %
     Test CRC E277E2C7
     Copy CRC E277E2C7
     Copy OK

No errors occured

End of status report
Код:
Код:
-----------------------

DON'T MODIFY THIS FILE

-----------------------

PERFORMER: auCDtect Task Manager, ver. 1.5.1RC4 build 1.5.1.5
Copyright (c) 2008-2010 y-soft. All rights reserved
http:/y-soft.org

ANALYZER: auCDtect: CD records authenticity detector, version 0.8.2
Copyright (c) 2004 Oleg Berngardt. All rights reserved.
Copyright (c) 2004 Alexander Djourik. All rights reserved.

FILE: 13 - The Gift [Alternate Mix].flac
  Size: 33304873 Hash: CBC02FCE95F79A38753AF5330DCA1AB4 Accuracy: -m0
  Conclusion: CDDA 100%
  Signature: 0F6CEC7F5C2BCF773DDAA720CB5C7280FE15E58F
FILE: 12 - Plastic Man.flac
  Size: 22085326 Hash: 5193A317585D0F52E820C3B827826EBD Accuracy: -m0
  Conclusion: CDDA 100%
  Signature: EF74F823EBC6B844BC79625BA1DA75AE109BD897
FILE: 11 - Remedy.flac
  Size: 28212880 Hash: A8B0C0FBBE399E672D4530038BF6E014 Accuracy: -m0
  Conclusion: CDDA 100%
  Signature: 8A59E7B2D4DA4021F4E9F0DD3C639C6284492AD8
FILE: 10 - The Gift.flac
  Size: 41821162 Hash: 898BEE296652369EA2A013F8A6D8F082 Accuracy: -m0
  Conclusion: CDDA 100%
  Signature: A8E33A4486DEDD704FD2E891CAE12B40624BE8F9
FILE: 09 - Broken.flac
  Size: 30798204 Hash: 4EAC0A8F9EDB4C5797BF5DDDBE0E71FD Accuracy: -m0
  Conclusion: CDDA 100%
  Signature: F3F99AE97F9C96CA6A64630BB4AD9A0B0B3EA9F2
FILE: 08 - Fine Again.flac
  Size: 38377549 Hash: 7267EDC0A1F3641F0D67DE0FA36817C3 Accuracy: -m0
  Conclusion: CDDA 99%
  Signature: D4A0CC64E7D7906F9A2D1D5A39EC21F7EE65467D
FILE: 07 - Sympathetic.flac
  Size: 32838753 Hash: 5187D0D5059F521B5F78D7A36215F610 Accuracy: -m0
  Conclusion: CDDA 100%
  Signature: 77C4BE2B2F0186324A2584979D6960C36890528B
FILE: 06 - Tied My Hands.flac
  Size: 38540897 Hash: A25EE2D7A1ED06D71E51734CD2C44DBA Accuracy: -m0
  Conclusion: CDDA 100%
  Signature: 91C36169D8324273AB3AD2A33508F726CFC36CC8
FILE: 05 - Immortality.flac
  Size: 38207855 Hash: F218DED7B775724469228D46DD0BC81B Accuracy: -m0
  Conclusion: CDDA 100%
  Signature: AA98AF4ED201A99760AA4A693B10A037B60E3E77
FILE: 04 - Truth.flac
  Size: 39465198 Hash: D58372E2F2859D5E17AFEF80801F5003 Accuracy: -m0
  Conclusion: CDDA 100%
  Signature: 0C24CD9DBCFC2CDAD1E9B40E30D0950CD5A79006
FILE: 03 - Diseased.flac
  Size: 28521532 Hash: A265202E92582118CBA98676DC1346CA Accuracy: -m0
  Conclusion: CDDA 100%
  Signature: 4858AF5F7A944EB6829427A176493EA57ED87DE9
FILE: 02 - Driven Under.flac
  Size: 39019201 Hash: 88A054068AEA3DD27CEBE850DEE651E0 Accuracy: -m0
  Conclusion: CDDA 99%
  Signature: F939F7A8F0A992493B685296C9A302689DFA9CD9
FILE: 01 - Gasoline.flac
  Size: 24310580 Hash: CF44558EAC7FE5B63440EF4EAF4B48B8 Accuracy: -m0
  Conclusion: CDDA 100%
  Signature: D9967831D78C5EEF6523F55447BCA83C7C04877B
#777Трeклист:
01. Like Suicide (4:14)
02. Fake It (3:14)
03. Breakdown (3:29)
04. FMLYHM (3:28)
05. Fallen (4:17)
06. Rise Above This (3:23)
07. No Jesus Christ (7:04)
08. 6 Gun Quota (3:23)
09. Walk Away From the Sun (4:13)
10. Eyes of the Devil (4:59)
11. Don't Believe (4:34)
12. Waste (4:21)

Прoдолжительность: 00:50:41
Код:
Код:
Exact Audio Copy V0.99 prebeta 5 from 4. May 2009

EAC extraction logfile from 3. November 2009, 21:04

Seether / Finding Beauty In Negative Spaces

Used drive  : TSSTcorpCDDVDW SH-S223Q   Adapter: 0  ID: 1

Read mode               : Secure
Utilize accurate stream : Yes
Defeat audio cache      : Yes
Make use of C2 pointers : No

Read offset correction                      : 6
Overread into Lead-In and Lead-Out          : No
Fill up missing offset samples with silence : Yes
Delete leading and trailing silent blocks   : No
Null samples used in CRC calculations       : Yes
Used interface                              : Native Win32 interface for Win NT & 2000
Gap handling                                : Appended to previous track

Used output format              : User Defined Encoder
Selected bitrate                : 640 kBit/s
Quality                         : High
Add ID3 tag                     : No
Command line compressor         : C:\Program Files (x86)\Exact Audio Copy\FLAC\FLAC.EXE
Additional command line options : -V -8 -T "artist=%a" -T "title=%t" -T "album=%g" -T "date=%y" -T "tracknumber=%n" -T "genre=%m" %s

TOC of the extracted CD

     Track |   Start  |  Length  | Start sector | End sector
    ---------------------------------------------------------
        1  |  0:00.00 |  4:14.63 |         0    |    19112
        2  |  4:14.63 |  3:13.67 |     19113    |    33654
        3  |  7:28.55 |  3:29.20 |     33655    |    49349
        4  | 10:58.00 |  3:28.14 |     49350    |    64963
        5  | 14:26.14 |  4:18.06 |     64964    |    84319
        6  | 18:44.20 |  3:23.67 |     84320    |    99611
        7  | 22:08.12 |  7:05.60 |     99612    |   131546
        8  | 29:13.72 |  3:23.11 |    131547    |   146782
        9  | 32:37.08 |  4:13.68 |    146783    |   165825
       10  | 36:51.01 |  5:00.48 |    165826    |   188373
       11  | 41:51.49 |  4:34.59 |    188374    |   208982
       12  | 46:26.33 |  4:21.62 |    208983    |   228619

Track  1

     Filename C:\flacrips\Seether - 2007 - Finding Beauty In Negative Spaces\01 - Like Suicide.wav

     Pre-gap length  0:00:02.00

     Peak level 100.0 %
     Track quality 100.0 %
     Test CRC 48043633
     Copy CRC 48043633
     Accurately ripped (confidence 64)  [DBFC5BBA]
     Copy OK

Track  2

     Filename C:\flacrips\Seether - 2007 - Finding Beauty In Negative Spaces\02 - Fake It.wav

     Peak level 100.0 %
     Track quality 100.0 %
     Test CRC D990211F
     Copy CRC D990211F
     Accurately ripped (confidence 63)  [B6C3E674]
     Copy OK

Track  3

     Filename C:\flacrips\Seether - 2007 - Finding Beauty In Negative Spaces\03 - Breakdown.wav

     Peak level 100.0 %
     Track quality 100.0 %
     Test CRC 13A844A6
     Copy CRC 13A844A6
     Accurately ripped (confidence 64)  [162DAF2D]
     Copy OK

Track  4

     Filename C:\flacrips\Seether - 2007 - Finding Beauty In Negative Spaces\04 - FMLYHM.wav

     Peak level 100.0 %
     Track quality 99.9 %
     Test CRC 6C732EDC
     Copy CRC 6C732EDC
     Accurately ripped (confidence 64)  [EEABF05C]
     Copy OK

Track  5

     Filename C:\flacrips\Seether - 2007 - Finding Beauty In Negative Spaces\05 - Fallen.wav

     Peak level 100.0 %
     Track quality 100.0 %
     Test CRC CF0E3A44
     Copy CRC CF0E3A44
     Accurately ripped (confidence 64)  [D63E0763]
     Copy OK

Track  6

     Filename C:\flacrips\Seether - 2007 - Finding Beauty In Negative Spaces\06 - Rise Above This.wav

     Peak level 100.0 %
     Track quality 99.9 %
     Test CRC EDE0FEEF
     Copy CRC EDE0FEEF
     Accurately ripped (confidence 63)  [39FAA56B]
     Copy OK

Track  7

     Filename C:\flacrips\Seether - 2007 - Finding Beauty In Negative Spaces\07 - No Jesus Christ.wav

     Peak level 100.0 %
     Track quality 100.0 %
     Test CRC 9CE5410E
     Copy CRC 9CE5410E
     Accurately ripped (confidence 63)  [842BC384]
     Copy OK

Track  8

     Filename C:\flacrips\Seether - 2007 - Finding Beauty In Negative Spaces\08 - Six Gun Quota.wav

     Peak level 100.0 %
     Track quality 100.0 %
     Test CRC C4E948DA
     Copy CRC C4E948DA
     Accurately ripped (confidence 63)  [B3490195]
     Copy OK

Track  9

     Filename C:\flacrips\Seether - 2007 - Finding Beauty In Negative Spaces\09 - Walk Away From The Sun.wav

     Peak level 100.0 %
     Track quality 100.0 %
     Test CRC 55BE9868
     Copy CRC 55BE9868
     Accurately ripped (confidence 63)  [49A06791]
     Copy OK

Track 10

     Filename C:\flacrips\Seether - 2007 - Finding Beauty In Negative Spaces\10 - Eyes Of The Devil.wav

     Peak level 100.0 %
     Track quality 100.0 %
     Test CRC E6C3B7D5
     Copy CRC E6C3B7D5
     Accurately ripped (confidence 64)  [98284890]
     Copy OK

Track 11

     Filename C:\flacrips\Seether - 2007 - Finding Beauty In Negative Spaces\11 - Don't Believe.wav

     Peak level 100.0 %
     Track quality 100.0 %
     Test CRC 91E579B9
     Copy CRC 91E579B9
     Accurately ripped (confidence 64)  [F9E8B246]
     Copy OK

Track 12

     Filename C:\flacrips\Seether - 2007 - Finding Beauty In Negative Spaces\12 - Waste.wav

     Peak level 100.0 %
     Track quality 100.0 %
     Test CRC CD153C8D
     Copy CRC CD153C8D
     Accurately ripped (confidence 64)  [D95A72E4]
     Copy OK

All tracks accurately ripped

No errors occurred

End of status report
Код:
Код:
-----------------------

DON'T MODIFY THIS FILE

-----------------------

PERFORMER: auCDtect Task Manager, ver. 1.5.1RC4 build 1.5.1.5
Copyright (c) 2008-2010 y-soft. All rights reserved
http:/y-soft.org

ANALYZER: auCDtect: CD records authenticity detector, version 0.8.2
Copyright (c) 2004 Oleg Berngardt. All rights reserved.
Copyright (c) 2004 Alexander Djourik. All rights reserved.

FILE: 12 - Waste.flac
  Size: 33224650 Hash: CF840D2A65B0B01D471F4DA3D70765EB Accuracy: -m0
  Conclusion: CDDA 100%
  Signature: 91D256D78FD6D0255FC842B4DB72281E9D2B2E95
FILE: 11 - Don't Believe.flac
  Size: 34074651 Hash: 905BF07EDC58A31EB97992E5F18EA237 Accuracy: -m0
  Conclusion: CDDA 100%
  Signature: C6DFA7DB20772D0E50246278E8EA2F6D1D949E33
FILE: 10 - Eyes Of The Devil.flac
  Size: 39423013 Hash: 00D4C25790F246BB9856C56F5333CFAF Accuracy: -m0
  Conclusion: CDDA 100%
  Signature: 7D0435C35A249A5456A08B520F2ADD9D4F06A018
FILE: 09 - Walk Away From The Sun.flac
  Size: 34302951 Hash: 9FC3896490DD23FE4BA80ACEE841F8F1 Accuracy: -m0
  Conclusion: CDDA 100%
  Signature: 8CB57B84C92710D3B2AC3561DC9E816C7E8F916D
FILE: 08 - Six Gun Quota.flac
  Size: 25828775 Hash: B27DD289AA18255D6FC3ED67AEC2F571 Accuracy: -m0
  Conclusion: CDDA 100%
  Signature: A835FAD001120F9C3C6A349D45915437DA820685
FILE: 07 - No Jesus Christ.flac
  Size: 51544949 Hash: CE828346AC0FAC16754989AA7513450A Accuracy: -m0
  Conclusion: CDDA 100%
  Signature: 2FEE6E0CA43A227453F4DEEE6C2577BA1BBAAE8C
FILE: 06 - Rise Above This.flac
  Size: 27816739 Hash: 85DB40E77677DDAD0CB7665693421584 Accuracy: -m0
  Conclusion: CDDA 100%
  Signature: B836F759A0000F6AC666FD3EFE0EA888CC9A4DA1
FILE: 05 - Fallen.flac
  Size: 31771843 Hash: 94C8EC2F3D8647D3F056AC267CD2A322 Accuracy: -m0
  Conclusion: CDDA 100%
  Signature: 30461EF684D038996CFBC29BF8367659508BAB72
FILE: 04 - FMLYHM.flac
  Size: 26053300 Hash: CF58012B37DC666837043FA9898BE977 Accuracy: -m0
  Conclusion: CDDA 100%
  Signature: 4338AC748EC7A2403FDBAA6CBAB5E36E172F2866
FILE: 03 - Breakdown.flac
  Size: 26960926 Hash: 243D0192FA8A0F755A78399A1B95F633 Accuracy: -m0
  Conclusion: CDDA 100%
  Signature: 66DE122D90FB50780DAE3E7AF52EC4D74FD89116
FILE: 02 - Fake It.flac
  Size: 24288043 Hash: 491BEB99FEAE9BA56D8DDAE8892B2803 Accuracy: -m0
  Conclusion: CDDA 100%
  Signature: ACA96486F7BDD19C981AF905312516B32DC8AA5E
FILE: 01 - Like Suicide.flac
  Size: 32224097 Hash: 9C3C286B17C359A3E1818177A1B467A4 Accuracy: -m0
  Conclusion: CDDA 100%
  Signature: 51EA596ECCD4A1BD623583DBE4F8FB67A074B7D1
#777Трeклист:
01. Like Suicide (4:14)
02. Fake It (3:14)
03. Breakdown (3:29)
04. FMLYHM (3:28)
05. Fallen (4:17)
06. Rise Above This (3:23)
07. No Jesus Christ (7:04)
08. 6 Gun Quota (3:23)
09. Walk Away From the Sun (4:13)
10. Eyes of the Devil (4:59)
11. Don't Believe (4:34)
12. Waste (4:21)
13. Careless Whisper (4:56)
14. Careless Whisper (Strings Version) (4:24)

Прoдолжительность: 01:00:11
Код:
Код:
Exact Audio Copy V0.99 prebeta 5 from 4. May 2009

EAC extraction logfile from 30. December 2009, 2:42

Seether / Finding Beauty in Negative Spaces [Deluxe Edition]

Used drive  : PIONEER DVD-RW  DVRKD08   Adapter: 1  ID: 0

Read mode               : Secure
Utilize accurate stream : Yes
Defeat audio cache      : Yes
Make use of C2 pointers : No

Read offset correction                      : 48
Overread into Lead-In and Lead-Out          : No
Fill up missing offset samples with silence : Yes
Delete leading and trailing silent blocks   : No
Null samples used in CRC calculations       : Yes
Used interface                              : Native Win32 interface for Win NT & 2000
Gap handling                                : Appended to previous track

Used output format              : User Defined Encoder
Selected bitrate                : 1024 kBit/s
Quality                         : High
Add ID3 tag                     : No
Command line compressor         : C:\Program Files\Exact Audio Copy\FLAC\FLAC.EXE
Additional command line options : -6 -V -T "ARTIST=%a" -T "TITLE=%t" -T "ALBUM=%g" -T "DATE=%y" -T "TRACKNUMBER=%n" -T "GENRE=%m" -T "COMMENT=%e" %s -o %d

TOC of the extracted CD

     Track |   Start  |  Length  | Start sector | End sector
    ---------------------------------------------------------
        1  |  0:00.00 |  4:14.63 |         0    |    19112
        2  |  4:14.63 |  3:13.67 |     19113    |    33654
        3  |  7:28.55 |  3:29.20 |     33655    |    49349
        4  | 10:58.00 |  3:28.14 |     49350    |    64963
        5  | 14:26.14 |  4:18.06 |     64964    |    84319
        6  | 18:44.20 |  3:23.67 |     84320    |    99611
        7  | 22:08.12 |  7:05.60 |     99612    |   131546
        8  | 29:13.72 |  3:23.11 |    131547    |   146782
        9  | 32:37.08 |  4:13.68 |    146783    |   165825
       10  | 36:51.01 |  5:00.48 |    165826    |   188373
       11  | 41:51.49 |  4:34.59 |    188374    |   208982
       12  | 46:26.33 |  4:26.62 |    208983    |   228994
       13  | 50:53.20 |  5:01.73 |    228995    |   251642
       14  | 55:55.18 |  4:24.20 |    251643    |   271462

Track  1

     Filename I:\EAC\Seether - Finding Beauty In Negative Spaces [Deluxe Edition] (2009)\01 Like Suicide.wav

     Pre-gap length  0:00:02.00

     Peak level 100.0 %
     Track quality 100.0 %
     Test CRC 48043633
     Copy CRC 48043633
     Accurately ripped (confidence 8)  [DBFC5BBA]
     Copy OK

Track  2

     Filename I:\EAC\Seether - Finding Beauty In Negative Spaces [Deluxe Edition] (2009)\02 Fake It.wav

     Peak level 100.0 %
     Track quality 100.0 %
     Test CRC D990211F
     Copy CRC D990211F
     Accurately ripped (confidence 8)  [B6C3E674]
     Copy OK

Track  3

     Filename I:\EAC\Seether - Finding Beauty In Negative Spaces [Deluxe Edition] (2009)\03 Breakdown.wav

     Peak level 100.0 %
     Track quality 100.0 %
     Test CRC 13A844A6
     Copy CRC 13A844A6
     Accurately ripped (confidence 8)  [162DAF2D]
     Copy OK

Track  4

     Filename I:\EAC\Seether - Finding Beauty In Negative Spaces [Deluxe Edition] (2009)\04 FMLYHM.wav

     Peak level 100.0 %
     Track quality 99.9 %
     Test CRC 6C732EDC
     Copy CRC 6C732EDC
     Accurately ripped (confidence 8)  [EEABF05C]
     Copy OK

Track  5

     Filename I:\EAC\Seether - Finding Beauty In Negative Spaces [Deluxe Edition] (2009)\05 Fallen.wav

     Peak level 100.0 %
     Track quality 100.0 %
     Test CRC CF0E3A44
     Copy CRC CF0E3A44
     Accurately ripped (confidence 8)  [D63E0763]
     Copy OK

Track  6

     Filename I:\EAC\Seether - Finding Beauty In Negative Spaces [Deluxe Edition] (2009)\06 Rise Above This.wav

     Peak level 100.0 %
     Track quality 99.9 %
     Test CRC EDE0FEEF
     Copy CRC EDE0FEEF
     Accurately ripped (confidence 8)  [39FAA56B]
     Copy OK

Track  7

     Filename I:\EAC\Seether - Finding Beauty In Negative Spaces [Deluxe Edition] (2009)\07 No Jesus Christ.wav

     Peak level 100.0 %
     Track quality 100.0 %
     Test CRC 9CE5410E
     Copy CRC 9CE5410E
     Accurately ripped (confidence 8)  [842BC384]
     Copy OK

Track  8

     Filename I:\EAC\Seether - Finding Beauty In Negative Spaces [Deluxe Edition] (2009)\08 Six Gun Quota.wav

     Peak level 100.0 %
     Track quality 100.0 %
     Test CRC C4E948DA
     Copy CRC C4E948DA
     Accurately ripped (confidence 8)  [B3490195]
     Copy OK

Track  9

     Filename I:\EAC\Seether - Finding Beauty In Negative Spaces [Deluxe Edition] (2009)\09 Walk Away From the Sun.wav

     Peak level 100.0 %
     Track quality 100.0 %
     Test CRC 55BE9868
     Copy CRC 55BE9868
     Accurately ripped (confidence 8)  [49A06791]
     Copy OK

Track 10

     Filename I:\EAC\Seether - Finding Beauty In Negative Spaces [Deluxe Edition] (2009)\10 Eyes of the Devil.wav

     Peak level 100.0 %
     Track quality 100.0 %
     Test CRC E6C3B7D5
     Copy CRC E6C3B7D5
     Accurately ripped (confidence 8)  [98284890]
     Copy OK

Track 11

     Filename I:\EAC\Seether - Finding Beauty In Negative Spaces [Deluxe Edition] (2009)\11 Don't Believe.wav

     Peak level 100.0 %
     Track quality 100.0 %
     Test CRC 91E579B9
     Copy CRC 91E579B9
     Accurately ripped (confidence 8)  [F9E8B246]
     Copy OK

Track 12

     Filename I:\EAC\Seether - Finding Beauty In Negative Spaces [Deluxe Edition] (2009)\12 Waste.wav

     Peak level 100.0 %
     Track quality 100.0 %
     Test CRC A5A4AC52
     Copy CRC A5A4AC52
     Accurately ripped (confidence 8)  [D95A72E4]
     Copy OK

Track 13

     Filename I:\EAC\Seether - Finding Beauty In Negative Spaces [Deluxe Edition] (2009)\13 Careless Whisper.wav

     Pre-gap length  0:00:04.73

     Peak level 97.7 %
     Track quality 100.0 %
     Test CRC 1F4EA4C0
     Copy CRC 1F4EA4C0
     Accurately ripped (confidence 8)  [F0E4DB6E]
     Copy OK

Track 14

     Filename I:\EAC\Seether - Finding Beauty In Negative Spaces [Deluxe Edition] (2009)\14 Careless Whisper (Strings Version).wav

     Pre-gap length  0:00:04.73

     Peak level 100.0 %
     Track quality 100.0 %
     Test CRC D3F44261
     Copy CRC D3F44261
     Accurately ripped (confidence 8)  [3B2D9887]
     Copy OK

All tracks accurately ripped

No errors occurred

End of status report
Код:
Код:
-----------------------

DON'T MODIFY THIS FILE

-----------------------

PERFORMER: auCDtect Task Manager, ver. 1.5.1RC4 build 1.5.1.5
Copyright (c) 2008-2010 y-soft. All rights reserved
http:/y-soft.org

ANALYZER: auCDtect: CD records authenticity detector, version 0.8.2
Copyright (c) 2004 Oleg Berngardt. All rights reserved.
Copyright (c) 2004 Alexander Djourik. All rights reserved.

FILE: 14 - Careless Whisper (Strings Version).flac
  Size: 34394459 Hash: 78E8C0EFC01C3127B00E228FB63B0273 Accuracy: -m0
  Conclusion: CDDA 100%
  Signature: 0B4BB3965DC1429E7B87CA28D09BD09579CE84F0
FILE: 13 - Careless Whisper.flac
  Size: 38898438 Hash: 57181902C0687C84BB2CD18E5812C29D Accuracy: -m0
  Conclusion: CDDA 99%
  Signature: 4E56C4B9C674CEF92DF9E6496AB29F5BBF592BDE
FILE: 12 - Waste.flac
  Size: 33300326 Hash: 726D316653D25BF0EFD699E7BC00B6F7 Accuracy: -m0
  Conclusion: CDDA 100%
  Signature: DF132AC86EFCAF2B832805A2C6FFD0CA47BF4475
FILE: 11 - Don't Believe.flac
  Size: 34167914 Hash: 905BF07EDC58A31EB97992E5F18EA237 Accuracy: -m0
  Conclusion: CDDA 100%
  Signature: 453DF3EA8511C6F432F20EA90DFCCB4B98DDA9F9
FILE: 10 - Eyes of the Devil.flac
  Size: 39500630 Hash: 00D4C25790F246BB9856C56F5333CFAF Accuracy: -m0
  Conclusion: CDDA 100%
  Signature: 2AFC2FF59AE964A7EE8836F2E7799436AD282C67
FILE: 09 - Walk Away From the Sun.flac
  Size: 34337779 Hash: 9FC3896490DD23FE4BA80ACEE841F8F1 Accuracy: -m0
  Conclusion: CDDA 100%
  Signature: DF8C31A039E48C68FC04DB1F62FAA8625B4966A3
FILE: 08 - Six Gun Quota.flac
  Size: 25898679 Hash: B27DD289AA18255D6FC3ED67AEC2F571 Accuracy: -m0
  Conclusion: CDDA 100%
  Signature: 1AD88C7CC672AE0CAC12A8369C9227AE8A57744B
FILE: 07 - No Jesus Christ.flac
  Size: 51671709 Hash: CE828346AC0FAC16754989AA7513450A Accuracy: -m0
  Conclusion: CDDA 100%
  Signature: 02CA4C99C0FA87F84C03115CE6916711D546D688
FILE: 06 - Rise Above This.flac
  Size: 27843087 Hash: 85DB40E77677DDAD0CB7665693421584 Accuracy: -m0
  Conclusion: CDDA 100%
  Signature: 607ECF8435E8D8665B990448C4A5FF258018DACD
FILE: 05 - Fallen.flac
  Size: 31865894 Hash: 94C8EC2F3D8647D3F056AC267CD2A322 Accuracy: -m0
  Conclusion: CDDA 100%
  Signature: C15DBD2DBF65197EE38A4881D1EB304963A98D0F
FILE: 04 - FMLYHM.flac
  Size: 26132392 Hash: CF58012B37DC666837043FA9898BE977 Accuracy: -m0
  Conclusion: CDDA 100%
  Signature: 2C949921C96305AFD8AED4493C0388E4FBFE7536
FILE: 03 - Breakdown.flac
  Size: 27023196 Hash: 243D0192FA8A0F755A78399A1B95F633 Accuracy: -m0
  Conclusion: CDDA 100%
  Signature: 755E8DB8F9E3EF3EE19A77BE58C1F5B9CA749503
FILE: 02 - Fake It.flac
  Size: 24348654 Hash: 491BEB99FEAE9BA56D8DDAE8892B2803 Accuracy: -m0
  Conclusion: CDDA 100%
  Signature: BD7DD41271899DD1FE8CAC57A6682F3B5102DE67
FILE: 01 - Like Suicide.flac
  Size: 32297354 Hash: 9C3C286B17C359A3E1818177A1B467A4 Accuracy: -m0
  Conclusion: CDDA 100%
  Signature: 2934A5E00437643ACD239F6DB4AC5049454C2094
#777Трeклист:
01. Fur Cue (03:48)
02. No Resolution (03:08)
03. Here And Now (03:56)
04. Country Song (03:50)
05. Master Of Disaster (04:19)
06. Tonight (03:44)
07. Pass Slowly (03:28)
08. Fade Out (03:54)
09. Roses (04:18)
10. Down (03:57)
11. Desire For Need (03:34)
12. Forsaken (04:20)
13. Dead Seeds (Bonus Track) (4:03)
14. Yeah (Bonus Track) (4:29)
15. Nobody (Bonus Track) (3:08)
16. Effigy (Bonus Track) (3:35)

Прoдолжительность: 01:01:23
Код:
Код:
Exact Audio Copy V1.0 beta 1 from 15. November 2010

EAC extraction logfile from 17. May 2011, 10:13

Seether / Holding Onto Strings Better Left To Frat (Deluxe Version)

Used drive  : Optiarc DVD RW AD-7241S   Adapter: 1  ID: 0

Read mode               : Secure
Utilize accurate stream : Yes
Defeat audio cache      : Yes
Make use of C2 pointers : No

Read offset correction                      : 48
Overread into Lead-In and Lead-Out          : No
Fill up missing offset samples with silence : Yes
Delete leading and trailing silent blocks   : No
Null samples used in CRC calculations       : Yes
Used interface                              : Native Win32 interface for Win NT & 2000
Gap handling                                : Appended to previous track

Used output format              : User Defined Encoder
Selected bitrate                : 1024 kBit/s
Quality                         : High
Add ID3 tag                     : No
Command line compressor         : C:\Program Files\Exact Audio Copy\Flac\flac.exe
Additional command line options : -V -T "Artist=%a" -T "Title=%t" -T "Album=%g" -T "date=%y" -T "tracknumber=%n" -T "Genre=%m" -8 %s

TOC of the extracted CD

     Track |   Start  |  Length  | Start sector | End sector
    ---------------------------------------------------------
        1  |  0:00.00 |  3:48.08 |         0    |    17107
        2  |  3:48.08 |  3:08.17 |     17108    |    31224
        3  |  6:56.25 |  3:55.43 |     31225    |    48892
        4  | 10:51.68 |  3:49.54 |     48893    |    66121
        5  | 14:41.47 |  4:18.50 |     66122    |    85521
        6  | 19:00.22 |  3:44.04 |     85522    |   102325
        7  | 22:44.26 |  3:27.62 |    102326    |   117912
        8  | 26:12.13 |  3:54.15 |    117913    |   135477
        9  | 30:06.28 |  4:17.59 |    135478    |   154811
       10  | 34:24.12 |  3:57.26 |    154812    |   172612
       11  | 38:21.38 |  3:33.52 |    172613    |   188639
       12  | 41:55.15 |  4:21.20 |    188640    |   208234
       13  | 46:16.35 |  4:02.71 |    208235    |   226455
       14  | 50:19.31 |  4:28.62 |    226456    |   246617
       15  | 54:48.18 |  3:07.69 |    246618    |   260711
       16  | 57:56.12 |  3:35.00 |    260712    |   276836

Track  1

     Filename C:\Users\\Music\FLAC\Seether- Holding Onto Strings Better Left To Frat (Deluxe Version) (2011) [FLAC]\01. Fur Cue.wav

     Pre-gap length  0:00:02.00

     Peak level 97.7 %
     Extraction speed 2.0 X
     Track quality 99.9 %
     Test CRC 098DBA39
     Copy CRC 098DBA39
     Track not present in AccurateRip database
     Copy OK

Track  2

     Filename C:\Users\\Music\FLAC\Seether- Holding Onto Strings Better Left To Frat (Deluxe Version) (2011) [FLAC]\02. No Resolution.wav

     Peak level 97.7 %
     Extraction speed 2.4 X
     Track quality 100.0 %
     Test CRC 7AE1A330
     Copy CRC 7AE1A330
     Track not present in AccurateRip database
     Copy OK

Track  3

     Filename C:\Users\\Music\FLAC\Seether- Holding Onto Strings Better Left To Frat (Deluxe Version) (2011) [FLAC]\03. Here And Now.wav

     Peak level 97.7 %
     Extraction speed 2.7 X
     Track quality 100.0 %
     Test CRC 60E44279
     Copy CRC 60E44279
     Track not present in AccurateRip database
     Copy OK

Track  4

     Filename C:\Users\\Music\FLAC\Seether- Holding Onto Strings Better Left To Frat (Deluxe Version) (2011) [FLAC]\04. Country Song.wav

     Peak level 97.7 %
     Extraction speed 2.9 X
     Track quality 100.0 %
     Test CRC 3C92ACE2
     Copy CRC 3C92ACE2
     Track not present in AccurateRip database
     Copy OK

Track  5

     Filename C:\Users\\Music\FLAC\Seether- Holding Onto Strings Better Left To Frat (Deluxe Version) (2011) [FLAC]\05. Master Of Disaster.wav

     Peak level 97.7 %
     Extraction speed 2.8 X
     Track quality 99.9 %
     Test CRC 598E58E0
     Copy CRC 598E58E0
     Track not present in AccurateRip database
     Copy OK

Track  6

     Filename C:\Users\\Music\FLAC\Seether- Holding Onto Strings Better Left To Frat (Deluxe Version) (2011) [FLAC]\06. Tonight.wav

     Peak level 97.7 %
     Extraction speed 3.3 X
     Track quality 100.0 %
     Test CRC ED57313C
     Copy CRC ED57313C
     Track not present in AccurateRip database
     Copy OK

Track  7

     Filename C:\Users\\Music\FLAC\Seether- Holding Onto Strings Better Left To Frat (Deluxe Version) (2011) [FLAC]\07. Pass Slowly.wav

     Peak level 97.7 %
     Extraction speed 3.4 X
     Track quality 100.0 %
     Test CRC B5899898
     Copy CRC B5899898
     Track not present in AccurateRip database
     Copy OK

Track  8

     Filename C:\Users\\Music\FLAC\Seether- Holding Onto Strings Better Left To Frat (Deluxe Version) (2011) [FLAC]\08. Fade Out.wav

     Peak level 97.7 %
     Extraction speed 3.7 X
     Track quality 100.0 %
     Test CRC 2001DA70
     Copy CRC 2001DA70
     Track not present in AccurateRip database
     Copy OK

Track  9

     Filename C:\Users\\Music\FLAC\Seether- Holding Onto Strings Better Left To Frat (Deluxe Version) (2011) [FLAC]\09. Roses.wav

     Peak level 97.7 %
     Extraction speed 3.9 X
     Track quality 100.0 %
     Test CRC 957C2E19
     Copy CRC 957C2E19
     Track not present in AccurateRip database
     Copy OK

Track 10

     Filename C:\Users\\Music\FLAC\Seether- Holding Onto Strings Better Left To Frat (Deluxe Version) (2011) [FLAC]\10. Down.wav

     Peak level 97.7 %
     Extraction speed 4.0 X
     Track quality 100.0 %
     Test CRC 35F5177E
     Copy CRC 35F5177E
     Track not present in AccurateRip database
     Copy OK

Track 11

     Filename C:\Users\\Music\FLAC\Seether- Holding Onto Strings Better Left To Frat (Deluxe Version) (2011) [FLAC]\11. Desire For Need.wav

     Peak level 97.7 %
     Extraction speed 4.1 X
     Track quality 100.0 %
     Test CRC C3F49BA7
     Copy CRC C3F49BA7
     Track not present in AccurateRip database
     Copy OK

Track 12

     Filename C:\Users\\Music\FLAC\Seether- Holding Onto Strings Better Left To Frat (Deluxe Version) (2011) [FLAC]\12. Forsaken.wav

     Peak level 97.7 %
     Extraction speed 4.3 X
     Track quality 100.0 %
     Test CRC 3F51374D
     Copy CRC 3F51374D
     Track not present in AccurateRip database
     Copy OK

Track 13

     Filename C:\Users\\Music\FLAC\Seether- Holding Onto Strings Better Left To Frat (Deluxe Version) (2011) [FLAC]\13. Dead Seeds (Bonus Track).wav

     Pre-gap length  0:00:01.54

     Peak level 97.7 %
     Extraction speed 4.4 X
     Track quality 100.0 %
     Test CRC 2AD55F1B
     Copy CRC 2AD55F1B
     Track not present in AccurateRip database
     Copy OK

Track 14

     Filename C:\Users\\Music\FLAC\Seether- Holding Onto Strings Better Left To Frat (Deluxe Version) (2011) [FLAC]\14. Yeah (Bonus Track).wav

     Peak level 97.7 %
     Extraction speed 4.6 X
     Track quality 100.0 %
     Test CRC D7777C8A
     Copy CRC D7777C8A
     Track not present in AccurateRip database
     Copy OK

Track 15

     Filename C:\Users\\Music\FLAC\Seether- Holding Onto Strings Better Left To Frat (Deluxe Version) (2011) [FLAC]\15. Nobody (Bonus Track).wav

     Peak level 97.7 %
     Extraction speed 4.5 X
     Track quality 100.0 %
     Test CRC 00B59CE7
     Copy CRC 00B59CE7
     Track not present in AccurateRip database
     Copy OK

Track 16

     Filename C:\Users\\Music\FLAC\Seether- Holding Onto Strings Better Left To Frat (Deluxe Version) (2011) [FLAC]\16. Effigy (Bonus Track).wav

     Peak level 97.7 %
     Extraction speed 4.8 X
     Track quality 100.0 %
     Test CRC 7725ED67
     Copy CRC 7725ED67
     Track not present in AccurateRip database
     Copy OK

None of the tracks are present in the AccurateRip database

No errors occurred

End of status report

==== Log checksum 31192DAFE6E6D5C0634DF1E85EC1BAAEE339456FAC543C558A11D306397BB91A ====
Код:
Код:
-----------------------

DON'T MODIFY THIS FILE

-----------------------

PERFORMER: auCDtect Task Manager, ver. 1.5.1RC4 build 1.5.1.5
Copyright (c) 2008-2010 y-soft. All rights reserved
http:/y-soft.org

ANALYZER: auCDtect: CD records authenticity detector, version 0.8.2
Copyright (c) 2004 Oleg Berngardt. All rights reserved.
Copyright (c) 2004 Alexander Djourik. All rights reserved.

FILE: 16 - Effigy (Bonus Track).flac
  Size: 27191597 Hash: AAA751CD0553156408E53C6E226ECCC0 Accuracy: -m0
  Conclusion: CDDA 99%
  Signature: 5941BB61D977C3C3C13FAE779922CDB9C9BE5C6F
FILE: 15 - Nobody (Bonus Track).flac
  Size: 24111659 Hash: 68ED92151A5093D5F40C99BFF6510D64 Accuracy: -m0
  Conclusion: CDDA 100%
  Signature: 0CF37524AA0E0617E89999881F9D8D5F9F17F0A4
FILE: 14 - Yeah (Bonus Track).flac
  Size: 34728216 Hash: 1F397D94DA9D425E8A09A0968B1BB0CA Accuracy: -m0
  Conclusion: CDDA 100%
  Signature: 14D0C8E6FAFE86ED247D043383D95AAD0C403AAE
FILE: 13 - Dead Seeds (Bonus Track).flac
  Size: 30695825 Hash: 9B3B7E97FC9049DC0836EDF9AB131900 Accuracy: -m0
  Conclusion: CDDA 99%
  Signature: C680A563813EF8DF3589E34C8D11A04D4EE59680
FILE: 12 - Forsaken.flac
  Size: 32151224 Hash: BBCB8BC6F151E30821AD315A17657D5F Accuracy: -m0
  Conclusion: CDDA 100%
  Signature: F8AFACEFA3F4D15AAFDB1FC887E3CDF9D8787319
FILE: 11 - Desire For Need.flac
  Size: 27625543 Hash: 834F20FBB84E8A2F715BB8CD7F6785A3 Accuracy: -m0
  Conclusion: CDDA 99%
  Signature: E0C24B39C5FEDCFBB80469F30D1EE30BBE938148
FILE: 10 - Down.flac
  Size: 28768052 Hash: 6B0CF1D25544E9DE5B6B84F384FE6DD0 Accuracy: -m0
  Conclusion: CDDA 99%
  Signature: F77BEA0901A566096D24857162C362B71EDA95D7
FILE: 09 - Roses.flac
  Size: 31892160 Hash: 989DFE96CA92DFB3521C1B55ADC64F2E Accuracy: -m0
  Conclusion: CDDA 100%
  Signature: 11E3914F13A78EF1F349FF20C1152ED5430E57CE
FILE: 08 - Fade Out.flac
  Size: 30044372 Hash: CCC0F04FA4CBB7DA18B134D742C1A384 Accuracy: -m0
  Conclusion: CDDA 100%
  Signature: C74D1FF87BD1A8720F8ECA1788B8FB496E8C2F6B
FILE: 07 - Pass Slowly.flac
  Size: 24674590 Hash: 5E39CCE29E0D7FDBA3D4C0D41F39916F Accuracy: -m0
  Conclusion: CDDA 99%
  Signature: 144A4F860821922AD18C0EC2FDC649BB15D0A5AD
FILE: 06 - Tonight.flac
  Size: 29078160 Hash: C55E91BEE22B2270E37ADA38AAD22B9A Accuracy: -m0
  Conclusion: CDDA 100%
  Signature: 9B6E96A7242FA60C26DBE64F49AC9A27AD2C324D
FILE: 05 - Master Of Disaster.flac
  Size: 32694407 Hash: 752FC1DB19322C4ECBEBF95B2D1C9F5D Accuracy: -m0
  Conclusion: CDDA 100%
  Signature: ECE0513D025297EDFDE2EE9D5C7B596AB7C7C2C7
FILE: 04 - Country Song.flac
  Size: 27268795 Hash: 144A7757E08B3EDD2B01C7CB289C9062 Accuracy: -m0
  Conclusion: CDDA 100%
  Signature: CEE699C0C6BD657F51932AB5DF8C257FC639E781
FILE: 03 - Here And Now.flac
  Size: 30397369 Hash: 100E741BEEF0D09BB227A06CB7877531 Accuracy: -m0
  Conclusion: CDDA 100%
  Signature: 4F8642CB304DBF666046FDC641370C6B646E873E
FILE: 02 - No Resolution.flac
  Size: 24211824 Hash: 6D68E896626ACBFFF9EBB8E0C9E73543 Accuracy: -m0
  Conclusion: CDDA 100%
  Signature: D9AF8A84A9D2A340FE2EF04E0C66824B0408286F
FILE: 01 - Fur Cue.flac
  Size: 29960253 Hash: 5AEE3CA21D0B7E3A17FF9DD1A515905D Accuracy: -m0
  Conclusion: CDDA 100%
  Signature: 6A1F34A2C68A14B75DB5AA7D61E68030F72D335B
Singles:
#777Трeклист:
01. Broken (featuring Amy Lee) (4:20)
02. Tea (3:33)
03. Something in the Way ("Live X" Session at 99X, Atlanta) (3:05)
04. Out of My Way (3:54)

Прoдолжительность: 00:14:51
Код:
Код:
Exact Audio Copy V0.99 prebeta 5 from 4. May 2009

EAC extraction logfile from 30. January 2010, 0:56

Seether featuring Amy Lee / Broken

Used drive  : PIONEER DVD-RW  DVR-110D   Adapter: 0  ID: 0

Read mode               : Secure
Utilize accurate stream : Yes
Defeat audio cache      : Yes
Make use of C2 pointers : No

Read offset correction                      : 48
Overread into Lead-In and Lead-Out          : No
Fill up missing offset samples with silence : Yes
Delete leading and trailing silent blocks   : No
Null samples used in CRC calculations       : Yes
Used interface                              : Native Win32 interface for Win NT & 2000
Gap handling                                : Appended to previous track

Used output format              : User Defined Encoder
Selected bitrate                : 320 kBit/s
Quality                         : High
Add ID3 tag                     : No
Command line compressor         : D:\Program Files (x86)\Exact Audio Copy\Flac\flac.exe
Additional command line options : -V -8 -T "artist=%a" -T "title=%t" -T "album=%g" -T "date=%y" -T "tracknumber=%n" -T "genre=%m" %s

TOC of the extracted CD

     Track |   Start  |  Length  | Start sector | End sector
    ---------------------------------------------------------
        1  |  0:00.00 |  4:20.25 |         0    |    19524
        2  |  4:20.25 |  3:33.00 |     19525    |    35499
        3  |  7:53.25 |  3:05.04 |     35500    |    49378
        4  | 10:58.29 |  3:53.62 |     49379    |    66915
        5  | 17:24.16 | 13:37.28 |     78316    |   139618

Track  1

     Filename C:\EACrips\Seether featuring Amy Lee - 2004 - Broken [FLAC]\01 - Seether featuring Amy Lee - Broken.wav

     Pre-gap length  0:00:02.00

     Peak level 97.7 %
     Track quality 99.9 %
     Test CRC 88730124
     Copy CRC 88730124
     Accurately ripped (confidence 2)  [ABE28247]
     Copy OK

Track  2

     Filename C:\EACrips\Seether featuring Amy Lee - 2004 - Broken [FLAC]\02 - Seether featuring Amy Lee - 69 Tea.wav

     Pre-gap length  0:00:02.00

     Peak level 98.8 %
     Track quality 100.0 %
     Test CRC 70A708C4
     Copy CRC 70A708C4
     Accurately ripped (confidence 2)  [D7FE3905]
     Copy OK

Track  3

     Filename C:\EACrips\Seether featuring Amy Lee - 2004 - Broken [FLAC]\03 - Seether featuring Amy Lee - Something In The Way (''Live X'' Session At 99X, Atlanta).wav

     Pre-gap length  0:00:02.00

     Peak level 98.2 %
     Track quality 100.0 %
     Test CRC DCF618BC
     Copy CRC DCF618BC
     Accurately ripped (confidence 2)  [35EBEC81]
     Copy OK

Track  4

     Filename C:\EACrips\Seether featuring Amy Lee - 2004 - Broken [FLAC]\04 - Seether featuring Amy Lee - Out Of My Way.wav

     Pre-gap length  0:00:02.00

     Peak level 99.7 %
     Track quality 100.0 %
     Test CRC 9C5EC2BB
     Copy CRC 9C5EC2BB
     Accurately ripped (confidence 2)  [A08D99BE]
     Copy OK

All tracks accurately ripped

No errors occurred

End of status report
Код:
Код:
-----------------------

DON'T MODIFY THIS FILE

-----------------------

PERFORMER: auCDtect Task Manager, ver. 1.5.1RC4 build 1.5.1.5
Copyright (c) 2008-2010 y-soft. All rights reserved
http:/y-soft.org

ANALYZER: auCDtect: CD records authenticity detector, version 0.8.2
Copyright (c) 2004 Oleg Berngardt. All rights reserved.
Copyright (c) 2004 Alexander Djourik. All rights reserved.

FILE: 04 - Out Of My Way.flac
  Size: 29021410 Hash: C1A11441F5E17D6CAC50A3BECB26B5D9 Accuracy: -m0
  Conclusion: CDDA 100%
  Signature: B1AF0D9F5DFEBC5C05104C139BED0FBF7FC78EDB
FILE: 03 - Something In The Way (''Live X'' Session At 99X, Atlanta).flac
  Size: 16010897 Hash: 5C2A33E0EED5A20782759D83002E2AE0 Accuracy: -m0
  Conclusion: MPEG 95%
  Signature: 7ADD6E16877F62387CE8CB648AF6F7D209C4CEFD
FILE: 02 - 69 Tea.flac
  Size: 27757108 Hash: 56F3CE340EFA720779C5AB31EBAD7CAB Accuracy: -m0
  Conclusion: CDDA 100%
  Signature: 473A0C53ACD56BECA2306A904F53507EF7BAD78C
FILE: 01 - Broken.flac
  Size: 32323457 Hash: 6DE1D31839907EE705A6B7041A2EFA66 Accuracy: -m0
  Conclusion: CDDA 100%
  Signature: 048DCA643E683C03DD995B7D6A01E48C306EFCDB
#777Трeклист:
01 - Fine Again (New Album Version) (4:06)
02 - Take Me Away (3:57)
03 - Hang on (3:12)
04 - Fine Again (Acoustic Version) (4:03)

Прoдолжительность: 00:15:17
Код:
Код:
Exact Audio Copy V0.99 prebeta 5 from 4. May 2009

EAC extraction logfile from 30. January 2010, 0:31

Seether / Fine Again

Used drive  : PIONEER DVD-RW  DVR-110D   Adapter: 0  ID: 0

Read mode               : Secure
Utilize accurate stream : Yes
Defeat audio cache      : Yes
Make use of C2 pointers : No

Read offset correction                      : 48
Overread into Lead-In and Lead-Out          : No
Fill up missing offset samples with silence : Yes
Delete leading and trailing silent blocks   : No
Null samples used in CRC calculations       : Yes
Used interface                              : Native Win32 interface for Win NT & 2000
Gap handling                                : Appended to previous track

Used output format              : User Defined Encoder
Selected bitrate                : 320 kBit/s
Quality                         : High
Add ID3 tag                     : No
Command line compressor         : D:\Program Files (x86)\Exact Audio Copy\Flac\flac.exe
Additional command line options : -V -8 -T "artist=%a" -T "title=%t" -T "album=%g" -T "date=%y" -T "tracknumber=%n" -T "genre=%m" %s

TOC of the extracted CD

     Track |   Start  |  Length  | Start sector | End sector
    ---------------------------------------------------------
        1  |  0:00.00 |  4:05.73 |         0    |    18447
        2  |  4:05.73 |  3:57.29 |     18448    |    36251
        3  |  8:03.27 |  3:12.28 |     36252    |    50679
        4  | 11:15.55 |  4:03.14 |     50680    |    68918

Track  1

     Filename C:\EACrips\Seether - 2004 - Fine Again [FLAC]\01 - Seether - Fine Again (New Album Version).wav

     Pre-gap length  0:00:02.00

     Peak level 89.0 %
     Track quality 100.0 %
     Test CRC 5F07818E
     Copy CRC 5F07818E
     Accurately ripped (confidence 1)  [29FD9D45]
     Copy OK

Track  2

     Filename C:\EACrips\Seether - 2004 - Fine Again [FLAC]\02 - Seether - Take Me Away.wav

     Pre-gap length  0:00:02.08

     Peak level 100.0 %
     Track quality 100.0 %
     Test CRC 1212E2AA
     Copy CRC 1212E2AA
     Accurately ripped (confidence 1)  [3D04372E]
     Copy OK

Track  3

     Filename C:\EACrips\Seether - 2004 - Fine Again [FLAC]\03 - Seether - Hang on.wav

     Pre-gap length  0:00:01.64

     Peak level 99.9 %
     Track quality 100.0 %
     Test CRC EA4B8284
     Copy CRC EA4B8284
     Accurately ripped (confidence 1)  [7FBE6C0E]
     Copy OK

Track  4

     Filename C:\EACrips\Seether - 2004 - Fine Again [FLAC]\04 - Seether - Fine Again (Acoustic Version).wav

     Pre-gap length  0:00:01.82

     Peak level 98.8 %
     Track quality 100.0 %
     Test CRC 88173E11
     Copy CRC 88173E11
     Accurately ripped (confidence 1)  [B896E85A]
     Copy OK

All tracks accurately ripped

No errors occurred

End of status report
Код:
Код:
-----------------------

DON'T MODIFY THIS FILE

-----------------------

PERFORMER: auCDtect Task Manager, ver. 1.5.1RC4 build 1.5.1.5
Copyright (c) 2008-2010 y-soft. All rights reserved
http:/y-soft.org

ANALYZER: auCDtect: CD records authenticity detector, version 0.8.2
Copyright (c) 2004 Oleg Berngardt. All rights reserved.
Copyright (c) 2004 Alexander Djourik. All rights reserved.

FILE: 04 - Fine Again (Acoustic Version).flac
  Size: 31253358 Hash: 4588C9F779525115786639BE23A6DD78 Accuracy: -m0
  Conclusion: CDDA 100%
  Signature: 98C8A37280993D39049D7F3C67C76F7B689D7D28
FILE: 03 - Hang on.flac
  Size: 23640180 Hash: D48437D9698D2B92E53271FC8861D3A4 Accuracy: -m0
  Conclusion: CDDA 100%
  Signature: 9E70A2C4320AEE3B9D430BEDCDD891217C9B4430
FILE: 02 - Take Me Away.flac
  Size: 27509170 Hash: 8B4AC4CD954F320C278D15E2FA426A4E Accuracy: -m0
  Conclusion: CDDA 100%
  Signature: BD72338D30219806C7856296A9CC2F913875EF35
FILE: 01 - Fine Again.flac
  Size: 32012615 Hash: 48876CF637B756DC500A6F2948387B28 Accuracy: -m0
  Conclusion: CDDA 100%
  Signature: 2CA0C49718AA9394084E4A7FAA1B65FD19BE9461
#777Трeклист:
01. Remedy (3:31)
02. Let Me Go (3:24)
03. Remedy (Acoustic) (3:47)
Прoдолжительность: 00:10:41
Код:
Код:
Exact Audio Copy V0.99 prebeta 5 from 4. May 2009

EAC extraction logfile from 29. January 2010, 19:00

Seether / Remedy

Used drive  : PIONEER DVD-RW  DVR-110D   Adapter: 0  ID: 0

Read mode               : Secure
Utilize accurate stream : Yes
Defeat audio cache      : Yes
Make use of C2 pointers : No

Read offset correction                      : 48
Overread into Lead-In and Lead-Out          : No
Fill up missing offset samples with silence : Yes
Delete leading and trailing silent blocks   : No
Null samples used in CRC calculations       : Yes
Used interface                              : Native Win32 interface for Win NT & 2000
Gap handling                                : Appended to previous track

Used output format              : User Defined Encoder
Selected bitrate                : 320 kBit/s
Quality                         : High
Add ID3 tag                     : No
Command line compressor         : D:\Program Files (x86)\Exact Audio Copy\Flac\flac.exe
Additional command line options : -V -8 -T "artist=%a" -T "title=%t" -T "album=%g" -T "date=%y" -T "tracknumber=%n" -T "genre=%m" %s

TOC of the extracted CD

     Track |   Start  |  Length  | Start sector | End sector
    ---------------------------------------------------------
        1  |  0:00.00 |  3:31.02 |         0    |    15826
        2  |  3:31.02 |  3:23.66 |     15827    |    31117
        3  |  6:54.68 |  3:47.35 |     31118    |    48177
        4  | 13:14.28 | 10:05.06 |     59578    |   104958

Track  1

     Filename C:\EACrips\Seether - 2005 - Remedy [FLAC]\01 - Seether - Remedy.wav

     Pre-gap length  0:00:02.00

     Peak level 96.6 %
     Track quality 100.0 %
     Test CRC 8D09AE35
     Copy CRC 8D09AE35
     Accurately ripped (confidence 1)  [775F71AE]
     Copy OK

Track  2

     Filename C:\EACrips\Seether - 2005 - Remedy [FLAC]\02 - Seether - Let Me Go.wav

     Peak level 96.6 %
     Track quality 99.9 %
     Test CRC 3A2D07F7
     Copy CRC 3A2D07F7
     Accurately ripped (confidence 1)  [6D90D329]
     Copy OK

Track  3

     Filename C:\EACrips\Seether - 2005 - Remedy [FLAC]\03 - Seether - Remedy (live accoustic).wav

     Peak level 97.8 %
     Track quality 99.9 %
     Test CRC 38EAB118
     Copy CRC 38EAB118
     Accurately ripped (confidence 1)  [7381F2A9]
     Copy OK

All tracks accurately ripped

No errors occurred

End of status report
Код:
Код:
-----------------------

DON'T MODIFY THIS FILE

-----------------------

PERFORMER: auCDtect Task Manager, ver. 1.5.1RC4 build 1.5.1.5
Copyright (c) 2008-2010 y-soft. All rights reserved
http:/y-soft.org

ANALYZER: auCDtect: CD records authenticity detector, version 0.8.2
Copyright (c) 2004 Oleg Berngardt. All rights reserved.
Copyright (c) 2004 Alexander Djourik. All rights reserved.

FILE: 03 - Remedy (live accoustic).flac
  Size: 24036280 Hash: 9A6DDFD4D01DD292455D5DC742FDA644 Accuracy: -m0
  Conclusion: MPEG 100%
  Signature: 08D978450AB832BA5E95C67E2458C0C2623C2ECB
FILE: 02 - Let Me Go.flac
  Size: 23754827 Hash: 4186B50B89996A5C1D71BD545EADE945 Accuracy: -m0
  Conclusion: CDDA 100%
  Signature: AD6AE6510FCE4A4EE7DCE28F6703B736BAD240D8
FILE: 01 - Remedy.flac
  Size: 26495328 Hash: 084EB09BA733BB7C49B815CB8A409419 Accuracy: -m0
  Conclusion: CDDA 100%
  Signature: 6118735041AC838088ACB206F9179247EE46F4A4
Правила, инструкции, FAQ!!!
Торрент  Добавлен [16 мар 2014, 00:48] Скачать торрент Магнет ссылка
Скачать торрент
[ Размер 33.67 КБ / Просмотров 84 ]

Статус  
 
Размер  3.54 ГБ
Приватный: Нет (DHT включён)
.torrent скачан  1
 


     Отправить личное сообщение
   
Страница 1 из 1
Показать сообщения за:  Поле сортировки  
Начать новую тему Ответить на тему


Сейчас этот форум просматривают: нет зарегистрированных пользователей и гости: 0


Вы не можете начинать темы
Вы не можете отвечать на сообщения
Вы не можете редактировать свои сообщения
Вы не можете удалять свои сообщения
Вы не можете добавлять вложения

Перейти:  
cron
cron