Начать новую тему Ответить на тему
Статистика раздачи
Размер: 466.96 МБ | Добавлен: 23 дек 2013, 22:08 | Скачали: 2
Сидеров: 3  [0 байт/сек]    Личеров: 2  [0 байт/сек]
Пред. тема | След. тема 

Автор
Сообщение

СообщениеДобавлено: 23 дек 2013, 22:08 

Ответить с цитатой 

Schubert In Rock - Schubert In Rock (2013)

Год: 2013
Издание: LLRR
Номер по каталогу: LLRR01
Жанр: Hard Rock
Источник : RD
Сканы: Есть
Продолжительность: 01:01:38

Кодек: FLAC
Тип рипа: Image+.cue
Метод сжатия: Lossless

Треклист:
01. Second King Of Darkness (5:16)
02. Heavy Metal Party (3:59)
03. Cavalry Of Evil (3:18)
04. Ready For The Action (5:14)
05. Good Morning Sir (3:51)
06. Lady Of The Tower (3:25)
07. Black Jack Billy (5:56)
08. Young, Free And Deadly (5:05)
09. Don On Fire (0:57)
10. Stairway To Hell (5:42)
11. Three Horned Dragon (4:24)
12. Perfect Body (4:26)
13. Davi (4:37)
14. Holy Ground (5:28)

Проект Klaus Schubert из Австрии совместно с Bernie Mardsen, Don Airey, Tony Martin, Biff Byford, Doogie White, Joe Lynn Turner, Marc Storace, Neil Murray
Код:
Код:
REM GENRE "Hard Rock"
REM DATE 2013
REM DISCID B40E710E
REM COMMENT "ExactAudioCopy v1.0b3"
PERFORMER "Schubert"
TITLE "In Rock (LLRR01)"
FILE "Schubert - In Rock (LLRR01).flac" WAVE
  TRACK 01 AUDIO
    TITLE "Second King Of Darkness"
    PERFORMER "Schubert"
    ISRC ATAQ81300001
    FLAGS DCP
    INDEX 01 00:00:00
  TRACK 02 AUDIO
    TITLE "Heavy Metal Party"
    PERFORMER "Schubert"
    ISRC ATAQ81300002
    FLAGS DCP
    INDEX 01 05:15:72
  TRACK 03 AUDIO
    TITLE "Cavalry Of Evil"
    PERFORMER "Schubert"
    ISRC ATAQ81300003
    FLAGS DCP
    INDEX 00 09:14:53
    INDEX 01 09:14:64
  TRACK 04 AUDIO
    TITLE "Ready For The Action"
    PERFORMER "Schubert"
    ISRC ATAQ81300004
    FLAGS DCP
    INDEX 00 12:33:04
    INDEX 01 12:33:05
  TRACK 05 AUDIO
    TITLE "Good Morning Sir"
    PERFORMER "Schubert"
    ISRC ATAQ81300005
    FLAGS DCP
    INDEX 00 17:46:50
    INDEX 01 17:46:72
  TRACK 06 AUDIO
    TITLE "Lady Of The Tower"
    PERFORMER "Schubert"
    ISRC ATAQ81300006
    FLAGS DCP
    INDEX 00 21:37:57
    INDEX 01 21:38:03
  TRACK 07 AUDIO
    TITLE "Black Jack Billy"
    PERFORMER "Schubert"
    ISRC ATAQ81300007
    FLAGS DCP
    INDEX 01 25:02:63
  TRACK 08 AUDIO
    TITLE "Young, Free And Deadly"
    PERFORMER "Schubert"
    ISRC ATAQ81300008
    FLAGS DCP
    INDEX 00 30:58:19
    INDEX 01 30:58:36
  TRACK 09 AUDIO
    TITLE "Don On Fire"
    PERFORMER "Schubert"
    ISRC ATAQ81300009
    FLAGS DCP
    INDEX 00 36:03:61
    INDEX 01 36:03:63
  TRACK 10 AUDIO
    TITLE "Stairway To Hell"
    PERFORMER "Schubert"
    ISRC ATAQ81300010
    FLAGS DCP
    INDEX 01 37:01:01
  TRACK 11 AUDIO
    TITLE "Three Horned Dragon"
    PERFORMER "Schubert"
    ISRC ATAQ81300011
    FLAGS DCP
    INDEX 00 42:42:61
    INDEX 01 42:42:62
  TRACK 12 AUDIO
    TITLE "Perfect Body"
    PERFORMER "Schubert"
    ISRC ATAQ81300012
    FLAGS DCP
    INDEX 00 47:06:40
    INDEX 01 47:06:41
  TRACK 13 AUDIO
    TITLE "Davi"
    PERFORMER "Schubert"
    ISRC ATAQ81300013
    FLAGS DCP
    INDEX 01 51:32:70
  TRACK 14 AUDIO
    TITLE "Holy Ground"
    PERFORMER "Schubert"
    ISRC ATAQ81300014
    FLAGS DCP
    INDEX 01 56:09:62

Код:
Код:
Exact Audio Copy V1.0 beta 3 from 29. August 2011

EAC extraction logfile from 21. December 2013, 21:36

Schubert / In Rock (LLRR01)

Used drive  : MATSHITABD-CMB UJ242AS   Adapter: 0  ID: 1

Read mode               : Secure
Utilize accurate stream : Yes
Defeat audio cache      : Yes
Make use of C2 pointers : No

Read offset correction                      : 103
Overread into Lead-In and Lead-Out          : No
Fill up missing offset samples with silence : Yes
Delete leading and trailing silent blocks   : No
Null samples used in CRC calculations       : Yes
Used interface                              : Installed external ASPI interface

Used output format              : User Defined Encoder
Selected bitrate                : 1024 kBit/s
Quality                         : High
Add ID3 tag                     : Yes
Command line compressor         : C:\Program Files (x86)\Exact Audio Copy\Flac\flac.exe
Additional command line options : -V -8 -T "Date=%year%" -T "Genre=%genre%" %source%

TOC of the extracted CD

     Track |   Start  |  Length  | Start sector | End sector
    ---------------------------------------------------------
        1  |  0:00.00 |  5:15.72 |         0    |    23696
        2  |  5:15.72 |  3:58.67 |     23697    |    41613
        3  |  9:14.64 |  3:18.16 |     41614    |    56479
        4  | 12:33.05 |  5:13.67 |     56480    |    80021
        5  | 17:46.72 |  3:51.06 |     80022    |    97352
        6  | 21:38.03 |  3:24.60 |     97353    |   112712
        7  | 25:02.63 |  5:55.48 |    112713    |   139385
        8  | 30:58.36 |  5:05.27 |    139386    |   162287
        9  | 36:03.63 |  0:57.13 |    162288    |   166575
       10  | 37:01.01 |  5:41.61 |    166576    |   192211
       11  | 42:42.62 |  4:23.54 |    192212    |   211990
       12  | 47:06.41 |  4:26.29 |    211991    |   231969
       13  | 51:32.70 |  4:36.67 |    231970    |   252736
       14  | 56:09.62 |  5:28.08 |    252737    |   277344

Range status and errors

Selected range

     Filename C:\EACrip\Schubert - In Rock (LLRR01).wav

     Peak level 95.7 %
     Extraction speed 3.9 X
     Range quality 99.9 %
     Test CRC 61BC93DF
     Copy CRC 61BC93DF
     Copy OK

No errors occurred

AccurateRip summary

Track  1  not present in database
Track  2  not present in database
Track  3  not present in database
Track  4  not present in database
Track  5  not present in database
Track  6  not present in database
Track  7  not present in database
Track  8  not present in database
Track  9  not present in database
Track 10  not present in database
Track 11  not present in database
Track 12  not present in database
Track 13  not present in database
Track 14  not present in database

None of the tracks are present in the AccurateRip database

End of status report

==== Log checksum B6FD955FC99164AA26CFA1571B141259E70CFFCE1EC67DF6C9FE000DEC142655 ====

Код:
Код:
-----------------------

DON'T MODIFY THIS FILE

-----------------------

PERFORMER: auCDtect Task Manager, ver. 1.6.0 RC1 build 1.6.0.1
Copyright (c) 2008-2010 y-soft. All rights reserved
http:/y-soft.org

ANALYZER: auCDtect: CD records authenticity detector, version 0.8.2
Copyright (c) 2004 Oleg Berngardt. All rights reserved.
Copyright (c) 2004 Alexander Djourik. All rights reserved.

FILE: Schubert - In Rock (LLRR01).flac
  Size: 478791872 Hash: 9AEBD068DE5270FCD8CBF33AC290B6A4 Accuracy: -m0
  Conclusion: MPEG 95%
  Signature: B7CC4D9AF51236A991A425673C0CE5E6241FF2A6

Правила, инструкции, FAQ!!!
Торрент  Добавлен [23 дек 2013, 22:08] Скачать торрент Магнет ссылка
Скачать торрент
[ Размер 19.94 КБ / Просмотров 80 ]

Статус  
 
Размер  466.96 МБ
Приватный: Нет (DHT включён)
.torrent скачан  2
 


     Отправить личное сообщение
   
Страница 1 из 1
Показать сообщения за:  Поле сортировки  
Начать новую тему Ответить на тему


Сейчас этот форум просматривают: нет зарегистрированных пользователей и гости: 0


Вы не можете начинать темы
Вы не можете отвечать на сообщения
Вы не можете редактировать свои сообщения
Вы не можете удалять свои сообщения
Вы не можете добавлять вложения

Перейти:  
cron
cron