Начать новую тему Ответить на тему
Статистика раздачи
Размер: 248.84 МБ | Добавлен: 01 апр 2019, 19:24 | Скачали: 1
Сидеров: 3  [0 байт/сек]    Личеров: 1  [0 байт/сек]
Пред. тема | След. тема 

Автор
Сообщение

СообщениеДобавлено: 01 апр 2019, 19:24 

Ответить с цитатой 

Sarah Ferri - Strings Sessions


Формат записи/Источник записи: [TR24][OF]
Наличие водяных знаков: Нет
Год издания: 2018
Жанр: Pop, Indie Pop
Издатель (лейбл): Jazzhaus Records
Продолжительность: 00:23:55
Наличие сканов в содержимом раздачи: Только обложка альбома
Контейнер: FLAC (*.flac)
Тип рипа: tracks
Разрядность: 24/44,1
Формат: PCM
Количество каналов: 2.0
Источник (релизер): 7digital.com
Треклист:
01. Where Home Was (Strings Session)
02. Your Gaze (Strings Session)
03. Displeasure (Strings Session)
04. The Jump (Strings Session)
05. Dancing at the Supermarket (Strings Session)
06. Living Water (Strings Session)
Код:
foobar2000 1.4 / Dynamic Range Meter 1.1.1
log date: 2018-10-06 15:40:07
--------------------------------------------------------------------------------
Analyzed: Sarah Ferri / Strings Sessions
--------------------------------------------------------------------------------
DR         Peak         RMS     Duration Track
--------------------------------------------------------------------------------
DR9       -1.00 dB   -12.88 dB      3:18 01-Where Home Was (Strings Session)
DR9       -1.00 dB   -12.16 dB      4:37 02-Your Gaze (Strings Session)
DR8       -1.00 dB   -13.11 dB      3:36 03-Displeasure (Strings Session)
DR9       -1.00 dB   -11.10 dB      4:28 04-The Jump (Strings Session)
DR7       -1.00 dB   -10.07 dB      4:15 05-Dancing at the Supermarket (Strings Session)
DR9       -1.00 dB   -11.61 dB      3:43 06-Living Water (Strings Session)
--------------------------------------------------------------------------------
Number of tracks:  6
Official DR value: DR8
Samplerate:        44100 Hz
Channels:          2
Bits per sample:   24
Bitrate:           1496 kbps
Codec:             FLAC
================================================================================
The Belgian-Italian musician Sarah Ferri composes songs to hum along. Now she is releasing an EP titled "Strings Sessions" after two successful albums. For this, six songs from their previous albums, the swinging "Ferritales" (2014) and the cinematic "Displeasure" (2016), were disassembled and rearranged for strings.
Правила, инструкции, FAQ!!!
Торрент  Добавлен [01 апр 2019, 19:24] Скачать торрент Магнет ссылка
Скачать торрент
[ Размер 20.39 КБ / Просмотров 31 ]

Статус
Проверен 
 
Размер  248.84 МБ
Приватный: Нет (DHT включён)
.torrent скачан  1
 


     Отправить личное сообщение
   
Страница 1 из 1
Показать сообщения за:  Поле сортировки  
Начать новую тему Ответить на тему


Сейчас этот форум просматривают: нет зарегистрированных пользователей и гости: 0


Вы не можете начинать темы
Вы не можете отвечать на сообщения
Вы не можете редактировать свои сообщения
Вы не можете удалять свои сообщения
Вы не можете добавлять вложения

Перейти:  
cron
cron