Начать новую тему Ответить на тему
Статистика раздачи
Размер: 1019.24 МБ | Добавлен: 16 мар 2014, 00:01 | Скачали: 4
Сидеров: 8  [0 байт/сек]    Личеров: 2  [0 байт/сек]
Пред. тема | След. тема 

Автор
Сообщение

СообщениеДобавлено: 16 мар 2014, 00:01 

Ответить с цитатой 

Santana - The Essential Santana (2013)

Год: 2013
Жанр: Rock, Latin
Продолжительность: 02:23:38
Лейбл: Sony/Columbia
Каталог: 88883772452

Кодек: FLAC (tracks+.cue +log)
Битрейт: Lossless
#777Трек лист:
01. Jingo (4:22)
02. Everybody's Everything (3:32)
03. Black Magic Woman-Gypsy Queen (5:20)
04. Oye Como Va (4:18)
05. Samba Pa Ti (4:46)
06. No One To Depend On (5:25)
07. She's Not There (4:10)
08. Evil Ways (3:56)
09. Love, Devotion & Surrender (3:39)
10. Open Invitation (4:46)
11. Stormy (4:48)
12. Europa (Earth's Cry Heaven's Smile) (5:05)
13. Winning (3:29)
14. Soul Sacrifice (Live At Woodstock) (11:38)
Продолжительность – 01:09:12
Код:
Код:
Exact Audio Copy V1.0 beta 3 from 29. August 2011

EAC extraction logfile from 1. October 2013, 21:51

Santana / The Essential Santana

Used drive  : PLEXTOR DVDR   PX-891SA   Adapter: 10  ID: 0

Read mode               : Secure
Utilize accurate stream : Yes
Defeat audio cache      : Yes
Make use of C2 pointers : No

Read offset correction                      : 6
Overread into Lead-In and Lead-Out          : No
Fill up missing offset samples with silence : Yes
Delete leading and trailing silent blocks   : No
Null samples used in CRC calculations       : Yes
Used interface                              : Native Win32 interface for Win NT & 2000
Gap handling                                : Appended to previous track

Used output format              : User Defined Encoder
Selected bitrate                : 1024 kBit/s
Quality                         : High
Add ID3 tag                     : No
Command line compressor         : C:\Program Files (x86)\Exact Audio Copy\FLAC\FLAC.EXE
Additional command line options : -0 -V -T "ARTIST=%artist%" -T "TITLE=%title%" -T "ALBUM=%albumtitle%" -T "DATE=%year%" -T "TRACKNUMBER=%tracknr%" -T "TOTALTRACKS=%numtracks%" -T "GENRE=%genre%" -T "COMMENT=Naftamusic Release!" %source%

TOC of the extracted CD

     Track |   Start  |  Length  | Start sector | End sector
    ---------------------------------------------------------
        1  |  0:00.00 |  4:21.62 |         0    |    19636
        2  |  4:21.62 |  3:31.63 |     19637    |    35524
        3  |  7:53.50 |  5:19.53 |     35525    |    59502
        4  | 13:13.28 |  4:17.69 |     59503    |    78846
        5  | 17:31.22 |  4:46.02 |     78847    |   100298
        6  | 22:17.24 |  5:24.49 |    100299    |   124647
        7  | 27:41.73 |  4:09.41 |    124648    |   143363
        8  | 31:51.39 |  3:56.33 |    143364    |   161096
        9  | 35:47.72 |  3:38.55 |    161097    |   177501
       10  | 39:26.52 |  4:46.05 |    177502    |   198956
       11  | 44:12.57 |  4:47.38 |    198957    |   220519
       12  | 49:00.20 |  5:04.69 |    220520    |   243388
       13  | 54:05.14 |  3:29.02 |    243389    |   259065
       14  | 57:34.16 | 11:38.18 |    259066    |   311433

Track  1

     Filename F:\Nafta Releases\Santana - The Essential Santana (2 CD 2013)[FLAC] - Naftamusic\CD 1\01 - Jingo.wav

     Pre-gap length  0:00:02.00

     Peak level 100.0 %
     Extraction speed 5.9 X
     Track quality 100.0 %
     Test CRC 325C54E5
     Copy CRC 325C54E5
     Track not present in AccurateRip database
     Copy OK

Track  2

     Filename F:\Nafta Releases\Santana - The Essential Santana (2 CD 2013)[FLAC] - Naftamusic\CD 1\02 - Everybody's Everything.wav

     Pre-gap length  0:00:01.38

     Peak level 100.0 %
     Extraction speed 5.1 X
     Track quality 99.9 %
     Test CRC F0ECA987
     Copy CRC F0ECA987
     Track not present in AccurateRip database
     Copy OK

Track  3

     Filename F:\Nafta Releases\Santana - The Essential Santana (2 CD 2013)[FLAC] - Naftamusic\CD 1\03 - Black Magic Woman-Gypsy Queen.wav

     Pre-gap length  0:00:01.15

     Peak level 100.0 %
     Extraction speed 6.2 X
     Track quality 99.9 %
     Test CRC CE4E9582
     Copy CRC CE4E9582
     Track not present in AccurateRip database
     Copy OK

Track  4

     Filename F:\Nafta Releases\Santana - The Essential Santana (2 CD 2013)[FLAC] - Naftamusic\CD 1\04 - Oye Como Va.wav

     Pre-gap length  0:00:00.09

     Peak level 100.0 %
     Extraction speed 7.6 X
     Track quality 100.0 %
     Test CRC EC76AE06
     Copy CRC EC76AE06
     Track not present in AccurateRip database
     Copy OK

Track  5

     Filename F:\Nafta Releases\Santana - The Essential Santana (2 CD 2013)[FLAC] - Naftamusic\CD 1\05 - Samba Pa Ti.wav

     Pre-gap length  0:00:01.12

     Peak level 99.9 %
     Extraction speed 8.1 X
     Track quality 100.0 %
     Test CRC D8779817
     Copy CRC D8779817
     Track not present in AccurateRip database
     Copy OK

Track  6

     Filename F:\Nafta Releases\Santana - The Essential Santana (2 CD 2013)[FLAC] - Naftamusic\CD 1\06 - No One To Depend On.wav

     Pre-gap length  0:00:00.31

     Peak level 100.0 %
     Extraction speed 8.8 X
     Track quality 100.0 %
     Test CRC B6766037
     Copy CRC B6766037
     Track not present in AccurateRip database
     Copy OK

Track  7

     Filename F:\Nafta Releases\Santana - The Essential Santana (2 CD 2013)[FLAC] - Naftamusic\CD 1\07 - She's Not There.wav

     Pre-gap length  0:00:01.49

     Peak level 100.0 %
     Extraction speed 8.9 X
     Track quality 100.0 %
     Test CRC CEE46421
     Copy CRC CEE46421
     Track not present in AccurateRip database
     Copy OK

Track  8

     Filename F:\Nafta Releases\Santana - The Essential Santana (2 CD 2013)[FLAC] - Naftamusic\CD 1\08 - Evil Ways.wav

     Pre-gap length  0:00:01.21

     Peak level 100.0 %
     Extraction speed 9.2 X
     Track quality 100.0 %
     Test CRC 095DEB8E
     Copy CRC 095DEB8E
     Track not present in AccurateRip database
     Copy OK

Track  9

     Filename F:\Nafta Releases\Santana - The Essential Santana (2 CD 2013)[FLAC] - Naftamusic\CD 1\09 - Love, Devotion & Surrender.wav

     Pre-gap length  0:00:01.44

     Peak level 100.0 %
     Extraction speed 9.4 X
     Track quality 100.0 %
     Test CRC 12FFFB83
     Copy CRC 12FFFB83
     Track not present in AccurateRip database
     Copy OK

Track 10

     Filename F:\Nafta Releases\Santana - The Essential Santana (2 CD 2013)[FLAC] - Naftamusic\CD 1\10 - Open Invitation.wav

     Pre-gap length  0:00:01.27

     Peak level 100.0 %
     Extraction speed 10.0 X
     Track quality 100.0 %
     Test CRC FA0B53EC
     Copy CRC FA0B53EC
     Track not present in AccurateRip database
     Copy OK

Track 11

     Filename F:\Nafta Releases\Santana - The Essential Santana (2 CD 2013)[FLAC] - Naftamusic\CD 1\11 - Stormy.wav

     Pre-gap length  0:00:01.27

     Peak level 100.0 %
     Extraction speed 8.8 X
     Track quality 99.9 %
     Test CRC F4EDA62D
     Copy CRC F4EDA62D
     Track not present in AccurateRip database
     Copy OK

Track 12

     Filename F:\Nafta Releases\Santana - The Essential Santana (2 CD 2013)[FLAC] - Naftamusic\CD 1\12 - Europa (Earth's Cry Heaven's Smile).wav

     Pre-gap length  0:00:02.11

     Peak level 100.0 %
     Extraction speed 10.9 X
     Track quality 100.0 %
     Test CRC 4885E577
     Copy CRC 4885E577
     Track not present in AccurateRip database
     Copy OK

Track 13

     Filename F:\Nafta Releases\Santana - The Essential Santana (2 CD 2013)[FLAC] - Naftamusic\CD 1\13 - Winning.wav

     Pre-gap length  0:00:01.05

     Peak level 100.0 %
     Extraction speed 10.7 X
     Track quality 100.0 %
     Test CRC 79923C30
     Copy CRC 79923C30
     Track not present in AccurateRip database
     Copy OK

Track 14

     Filename F:\Nafta Releases\Santana - The Essential Santana (2 CD 2013)[FLAC] - Naftamusic\CD 1\14 - Soul Sacrifice (Live At Woodstock).wav

     Pre-gap length  0:00:01.27

     Peak level 98.7 %
     Extraction speed 12.4 X
     Track quality 100.0 %
     Test CRC A98A73E7
     Copy CRC A98A73E7
     Track not present in AccurateRip database
     Copy OK

None of the tracks are present in the AccurateRip database

No errors occurred

End of status report

==== Log checksum 5A7B5321FAD53539C1AF2A76FFD8F282E846F600BF0C5113B2D59752CD242EA9 ====
 
Код:
Код:
-----------------------

DON'T MODIFY THIS FILE

-----------------------

PERFORMER: auCDtect Task Manager, ver. 1.5.1RC6 build 1.5.1.7
Copyright (c) 2008-2010 y-soft. All rights reserved
http:/y-soft.org

ANALYZER: auCDtect: CD records authenticity detector, version 0.8.2
Copyright (c) 2004 Oleg Berngardt. All rights reserved.
Copyright (c) 2004 Alexander Djourik. All rights reserved.

FILE: 14 - Soul Sacrifice (Live At Woodstock).flac
  Size: 83240688 Hash: 12A86807012DDE9C00D9B429DF63D17A Accuracy: -m8
  Conclusion: CDDA 100%
  Signature: 9812910AF2DDC6A508E0D002A599619118EF78BB
FILE: 13 - Winning.flac
  Size: 28310921 Hash: BE119F523BAE2EEB14C4955B5102887B Accuracy: -m8
  Conclusion: CDDA 100%
  Signature: 7795F96FB1D6B21FE37DECE0923B17FAC7CF5729
FILE: 12 - Europa (Earth's Cry Heaven's Smile).flac
  Size: 34532165 Hash: 642A7483E89D9378FE18FA273A4B7FC9 Accuracy: -m8
  Conclusion: CDDA 100%
  Signature: BB78BE225F2CE1D42267A3E767C34492AC288B44
FILE: 11 - Stormy.flac
  Size: 35499146 Hash: 903FBE8D47A4729D0602DC052F94C1A8 Accuracy: -m8
  Conclusion: CDDA 100%
  Signature: 92E50030636D8F80AC221C8165C3352D99598723
FILE: 10 - Open Invitation.flac
  Size: 36313261 Hash: FDEAFE87BAD591BC0B49DC2771161BAB Accuracy: -m8
  Conclusion: CDDA 100%
  Signature: 939CFC95F9CF42BE85E3145350B35C5DD2FCE518
FILE: 09 - Love, Devotion & Surrender.flac
  Size: 27422036 Hash: 34BAE6E981F01ACAC877ADF943664CAB Accuracy: -m8
  Conclusion: CDDA 99%
  Signature: 674C1B1A22B42611BC96CB249875F7B7118B563F
FILE: 08 - Evil Ways.flac
  Size: 27026844 Hash: D2B3DDEBA017E1D68F79812E94FEB769 Accuracy: -m8
  Conclusion: CDDA 100%
  Signature: AC5F27534D6FB8C48B7DB42D52B354A544C06F49
FILE: 07 - She's Not There.flac
  Size: 29225342 Hash: BBB2448ED1542D76918588EADD70DE3E Accuracy: -m8
  Conclusion: CDDA 100%
  Signature: 2F1E0DCE51081FE4A4D4EF6B8F593056E78CDE8A
FILE: 06 - No One To Depend On.flac
  Size: 40978592 Hash: C000AF250DD5C86F6DC7601CD8B08031 Accuracy: -m8
  Conclusion: CDDA 100%
  Signature: 2BC1116B13D239CD7354B0E8AAA5D64B4678D0EE
FILE: 05 - Samba Pa Ti.flac
  Size: 31453250 Hash: 45F0FF6FD2FB949DE3F35A428CC2D424 Accuracy: -m8
  Conclusion: CDDA 100%
  Signature: B7F93B88E8ACF6BC6530B20E554CED781A0B98FF
FILE: 04 - Oye Como Va.flac
  Size: 31058854 Hash: 7C3464C54CE9311E650AE3F59C47F610 Accuracy: -m8
  Conclusion: CDDA 100%
  Signature: 8CD52071E17A350FD52F7195A7D11C03FB789FDB
FILE: 03 - Black Magic Woman-Gypsy Queen.flac
  Size: 38306543 Hash: 679A118B36A2D0D86D22843D72B7AF57 Accuracy: -m8
  Conclusion: CDDA 100%
  Signature: 5E16030273F1FE72FE29A677B4E90450B4ADE81F
FILE: 02 - Everybody's Everything.flac
  Size: 28097096 Hash: DC822592733F01665E029B9C5D71ED64 Accuracy: -m8
  Conclusion: CDDA 100%
  Signature: B278631F5A589E8DDC7BA2BF978868E3A8CD76F2
FILE: 01 - Jingo.flac
  Size: 29794799 Hash: B0964FEC444356456045F6B90D3F7F6C Accuracy: -m8
  Conclusion: CDDA 99%
  Signature: 5255D60B31E2888C372B248536D4F35B3C9F2FB5
#777Трек лист:
01. Smooth (Featuring Rob Thomas) (4:56)
02. Maria Maria (Featuring The Product G & B) (4:23)
03. Hold On (4:36)
04. Make Somebody Happy (4:13)
05. The Game Of Love (Featuring Michelle Branch) (4:15)
06. Bella (4:28)
07. The Healer (John Lee Hooker Featuring Santana) (5:39)
08. Somewhere In Heaven (9:57)
09. Into The Night (Featuring Chad Kroeger) (3:43)
10. Put Your Lights On (Featuring Everlast) (4:47)
11. The Calling (Featuring Eric Clapton) (7:50)
12. Blues For Salvador (5:58)
13. Victory Is Won (5:21)
14. The Game Of Love (Featuring Tina Turner) (4:21)
Продолжительность – 01:14:27
Код:
Код:
Exact Audio Copy V1.0 beta 3 from 29. August 2011

EAC extraction logfile from 1. October 2013, 22:11

Santana / The Essential Santana

Used drive  : PLEXTOR DVDR   PX-891SA   Adapter: 10  ID: 0

Read mode               : Secure
Utilize accurate stream : Yes
Defeat audio cache      : Yes
Make use of C2 pointers : No

Read offset correction                      : 6
Overread into Lead-In and Lead-Out          : No
Fill up missing offset samples with silence : Yes
Delete leading and trailing silent blocks   : No
Null samples used in CRC calculations       : Yes
Used interface                              : Native Win32 interface for Win NT & 2000
Gap handling                                : Appended to previous track

Used output format              : User Defined Encoder
Selected bitrate                : 1024 kBit/s
Quality                         : High
Add ID3 tag                     : No
Command line compressor         : C:\Program Files (x86)\Exact Audio Copy\FLAC\FLAC.EXE
Additional command line options : -0 -V -T "ARTIST=%artist%" -T "TITLE=%title%" -T "ALBUM=%albumtitle%" -T "DATE=%year%" -T "TRACKNUMBER=%tracknr%" -T "TOTALTRACKS=%numtracks%" -T "GENRE=%genre%" -T "COMMENT=Naftamusic Release!" %source%

TOC of the extracted CD

     Track |   Start  |  Length  | Start sector | End sector
    ---------------------------------------------------------
        1  |  0:00.00 |  4:56.18 |         0    |    22217
        2  |  4:56.18 |  4:22.55 |     22218    |    41922
        3  |  9:18.73 |  4:36.35 |     41923    |    62657
        4  | 13:55.33 |  4:13.23 |     62658    |    81655
        5  | 18:08.56 |  4:14.65 |     81656    |   100770
        6  | 22:23.46 |  4:27.48 |    100771    |   120843
        7  | 26:51.19 |  5:39.15 |    120844    |   146283
        8  | 32:30.34 |  9:56.74 |    146284    |   191057
        9  | 42:27.33 |  3:42.64 |    191058    |   207771
       10  | 46:10.22 |  4:47.10 |    207772    |   229306
       11  | 50:57.32 |  7:50.32 |    229307    |   264588
       12  | 58:47.64 |  5:57.58 |    264589    |   291421
       13  | 64:45.47 |  5:20.62 |    291422    |   315483
       14  | 70:06.34 |  4:20.55 |    315484    |   335038

Track  1

     Filename F:\Nafta Releases\Santana - The Essential Santana (2 CD 2013)[FLAC] - Naftamusic\CD 2\01 - Smooth (Featuring Rob Thomas).wav

     Pre-gap length  0:00:02.00

     Peak level 83.2 %
     Extraction speed 6.1 X
     Track quality 100.0 %
     Test CRC 327E412E
     Copy CRC 327E412E
     Track not present in AccurateRip database
     Copy OK

Track  2

     Filename F:\Nafta Releases\Santana - The Essential Santana (2 CD 2013)[FLAC] - Naftamusic\CD 2\02 - Maria Maria (Featuring The Product G & B).wav

     Pre-gap length  0:00:01.06

     Peak level 100.0 %
     Extraction speed 6.6 X
     Track quality 100.0 %
     Test CRC C3F1A4D0
     Copy CRC C3F1A4D0
     Track not present in AccurateRip database
     Copy OK

Track  3

     Filename F:\Nafta Releases\Santana - The Essential Santana (2 CD 2013)[FLAC] - Naftamusic\CD 2\03 - Hold On.wav

     Pre-gap length  0:00:00.61

     Peak level 100.0 %
     Extraction speed 7.2 X
     Track quality 100.0 %
     Test CRC F4A89B0A
     Copy CRC F4A89B0A
     Track not present in AccurateRip database
     Copy OK

Track  4

     Filename F:\Nafta Releases\Santana - The Essential Santana (2 CD 2013)[FLAC] - Naftamusic\CD 2\04 - Make Somebody Happy.wav

     Pre-gap length  0:00:01.14

     Peak level 98.3 %
     Extraction speed 6.3 X
     Track quality 99.9 %
     Test CRC 8B6E60EB
     Copy CRC 8B6E60EB
     Track not present in AccurateRip database
     Copy OK

Track  5

     Filename F:\Nafta Releases\Santana - The Essential Santana (2 CD 2013)[FLAC] - Naftamusic\CD 2\05 - The Game Of Love (Featuring Michelle Branch).wav

     Pre-gap length  0:00:01.14

     Peak level 87.9 %
     Extraction speed 8.0 X
     Track quality 100.0 %
     Test CRC 75D354E9
     Copy CRC 75D354E9
     Track not present in AccurateRip database
     Copy OK

Track  6

     Filename F:\Nafta Releases\Santana - The Essential Santana (2 CD 2013)[FLAC] - Naftamusic\CD 2\06 - Bella.wav

     Pre-gap length  0:00:01.20

     Peak level 99.1 %
     Extraction speed 8.5 X
     Track quality 100.0 %
     Test CRC CD33BBD0
     Copy CRC CD33BBD0
     Track not present in AccurateRip database
     Copy OK

Track  7

     Filename F:\Nafta Releases\Santana - The Essential Santana (2 CD 2013)[FLAC] - Naftamusic\CD 2\07 - The Healer (John Lee Hooker Featuring Santana).wav

     Peak level 100.0 %
     Extraction speed 9.2 X
     Track quality 100.0 %
     Test CRC 12FFCDB1
     Copy CRC 12FFCDB1
     Track not present in AccurateRip database
     Copy OK

Track  8

     Filename F:\Nafta Releases\Santana - The Essential Santana (2 CD 2013)[FLAC] - Naftamusic\CD 2\08 - Somewhere In Heaven.wav

     Pre-gap length  0:00:01.17

     Peak level 99.3 %
     Extraction speed 10.4 X
     Track quality 100.0 %
     Test CRC 8FF37D0E
     Copy CRC 8FF37D0E
     Track not present in AccurateRip database
     Copy OK

Track  9

     Filename F:\Nafta Releases\Santana - The Essential Santana (2 CD 2013)[FLAC] - Naftamusic\CD 2\09 - Into The Night (Featuring Chad Kroeger).wav

     Pre-gap length  0:00:01.01

     Peak level 86.8 %
     Extraction speed 9.9 X
     Track quality 100.0 %
     Test CRC 50DEEE2A
     Copy CRC 50DEEE2A
     Track not present in AccurateRip database
     Copy OK

Track 10

     Filename F:\Nafta Releases\Santana - The Essential Santana (2 CD 2013)[FLAC] - Naftamusic\CD 2\10 - Put Your Lights On (Featuring Everlast).wav

     Pre-gap length  0:00:01.09

     Peak level 84.8 %
     Extraction speed 8.9 X
     Track quality 99.9 %
     Test CRC 5FE18A0B
     Copy CRC 5FE18A0B
     Track not present in AccurateRip database
     Copy OK

Track 11

     Filename F:\Nafta Releases\Santana - The Essential Santana (2 CD 2013)[FLAC] - Naftamusic\CD 2\11 - The Calling (Featuring Eric Clapton).wav

     Peak level 99.0 %
     Extraction speed 10.3 X
     Track quality 99.9 %
     Test CRC AEFB424A
     Copy CRC AEFB424A
     Track not present in AccurateRip database
     Copy OK

Track 12

     Filename F:\Nafta Releases\Santana - The Essential Santana (2 CD 2013)[FLAC] - Naftamusic\CD 2\12 - Blues For Salvador.wav

     Pre-gap length  0:00:01.51

     Peak level 100.0 %
     Extraction speed 11.8 X
     Track quality 100.0 %
     Test CRC F9288B03
     Copy CRC F9288B03
     Track not present in AccurateRip database
     Copy OK

Track 13

     Filename F:\Nafta Releases\Santana - The Essential Santana (2 CD 2013)[FLAC] - Naftamusic\CD 2\13 - Victory Is Won.wav

     Pre-gap length  0:00:00.68

     Peak level 86.2 %
     Extraction speed 12.0 X
     Track quality 100.0 %
     Test CRC EF10736E
     Copy CRC EF10736E
     Track not present in AccurateRip database
     Copy OK

Track 14

     Filename F:\Nafta Releases\Santana - The Essential Santana (2 CD 2013)[FLAC] - Naftamusic\CD 2\14 - The Game Of Love (Featuring Tina Turner).wav

     Pre-gap length  0:00:00.18

     Peak level 81.3 %
     Extraction speed 12.0 X
     Track quality 100.0 %
     Test CRC 1FAF7554
     Copy CRC 1FAF7554
     Track not present in AccurateRip database
     Copy OK

None of the tracks are present in the AccurateRip database

No errors occurred

End of status report

==== Log checksum 649A272432179C697DD414BA8917A46EDF18830C43CCA7A105E18A042BAB265C ====
 
Код:
Код:
-----------------------

DON'T MODIFY THIS FILE

-----------------------

PERFORMER: auCDtect Task Manager, ver. 1.5.1RC6 build 1.5.1.7
Copyright (c) 2008-2010 y-soft. All rights reserved
http:/y-soft.org

ANALYZER: auCDtect: CD records authenticity detector, version 0.8.2
Copyright (c) 2004 Oleg Berngardt. All rights reserved.
Copyright (c) 2004 Alexander Djourik. All rights reserved.

FILE: 14 - The Game Of Love (Featuring Tina Turner).flac
  Size: 36644649 Hash: 9B3B01C0E49304C293F6D959BC899F03 Accuracy: -m8
  Conclusion: CDDA 100%
  Signature: DB719964B02F7D5EDF1CDFE75BADE706B4148A3A
FILE: 13 - Victory Is Won.flac
  Size: 40991335 Hash: 78E31DC7BC79ADDC013689D8B54811C5 Accuracy: -m8
  Conclusion: CDDA 100%
  Signature: D3426226FF93A41316F9507C7F0916BF40B24C46
FILE: 12 - Blues For Salvador.flac
  Size: 38055714 Hash: 6D4AC7B05B541F944A9F149781CC2677 Accuracy: -m8
  Conclusion: CDDA 100%
  Signature: 5E1A3A5810818E70D12B665616099E56C2BC7D05
FILE: 11 - The Calling (Featuring Eric Clapton).flac
  Size: 52799768 Hash: 6B691D4ED1A3E4AE452BD7D89AD8AE0B Accuracy: -m8
  Conclusion: CDDA 100%
  Signature: 5A98D2668B84A24F4FDE0377E90D2A21B7E1DDA4
FILE: 10 - Put Your Lights On (Featuring Everlast).flac
  Size: 36311048 Hash: B8A2A9B935FDFF27AEC2BA4284D6D1BD Accuracy: -m8
  Conclusion: CDDA 100%
  Signature: C5CF7D68B4C15ECFF16B7054C30F2715AB4F5226
FILE: 09 - Into The Night (Featuring Chad Kroeger).flac
  Size: 30452313 Hash: 45ADEC2C0258752F42CE31E78C711454 Accuracy: -m8
  Conclusion: CDDA 100%
  Signature: 419E2CCD20FDCCADE10A640908CE2979077D4A2E
FILE: 08 - Somewhere In Heaven.flac
  Size: 67471913 Hash: 8CE979E97C44AD4B090D4A94A6793335 Accuracy: -m8
  Conclusion: CDDA 100%
  Signature: 9CB9613106B4F3F502E76D8078106B4A1630687F
FILE: 07 - The Healer (John Lee Hooker Featuring Santana).flac
  Size: 42017182 Hash: B62AD73AF0800D1ED97C1E7E3CA30B15 Accuracy: -m8
  Conclusion: CDDA 100%
  Signature: FDB99F6D363D083959A31604D65E0926B6C83E4A
FILE: 06 - Bella.flac
  Size: 32255527 Hash: 4DE6FC98007BA2BDD2D9A6AA45FDA987 Accuracy: -m8
  Conclusion: CDDA 100%
  Signature: B215B62F152A2395FFDB8254CC683223597AA900
FILE: 05 - The Game Of Love (Featuring Michelle Branch).flac
  Size: 34459762 Hash: E1DDECE431AB572D61A7553DE8D3504E Accuracy: -m8
  Conclusion: CDDA 100%
  Signature: E75C720FF480C535B189C7117B59226CA72127B6
FILE: 04 - Make Somebody Happy.flac
  Size: 27537587 Hash: 68F84CD4099A0264E686D202FE8B3F7C Accuracy: -m8
  Conclusion: CDDA 100%
  Signature: A5E2CA12BA4F9B2BE567F8F2385B6A651245659D
FILE: 03 - Hold On.flac
  Size: 36437298 Hash: 78B85E994E09FAC5BF76678ECDCC5501 Accuracy: -m8
  Conclusion: CDDA 100%
  Signature: C5305855FF815EA0AC52DDA41FB7E41DBD9B5C83
FILE: 02 - Maria Maria (Featuring The Product G & B).flac
  Size: 29827366 Hash: 05D602D93DC101029AA35EC82E6A62FA Accuracy: -m8
  Conclusion: CDDA 100%
  Signature: AA2F278D40DB908CA6E75E1B5426C4A0E9C41B57
FILE: 01 - Smooth (Featuring Rob Thomas).flac
  Size: 39637252 Hash: C53B11CA625D703A191723B2E1350057 Accuracy: -m8
  Conclusion: CDDA 100%
  Signature: 849053D60DAF035B5800051C1D6A1C62F8F589DA
 
Правила, инструкции, FAQ!!!
Торрент  Добавлен [16 мар 2014, 00:01] Скачать торрент Магнет ссылка
Скачать торрент
[ Размер 23.92 КБ / Просмотров 44 ]

Статус  
 
Размер  1019.24 МБ
Приватный: Нет (DHT включён)
.torrent скачан  4
 


     Отправить личное сообщение
   
Страница 1 из 1
Показать сообщения за:  Поле сортировки  
Начать новую тему Ответить на тему


Сейчас этот форум просматривают: нет зарегистрированных пользователей и гости: 0


Вы не можете начинать темы
Вы не можете отвечать на сообщения
Вы не можете редактировать свои сообщения
Вы не можете удалять свои сообщения
Вы не можете добавлять вложения

Перейти:  
cron
cron