Начать новую тему Ответить на тему
Статистика раздачи
Размер: 1.03 ГБ | Добавлен: 16 мар 2014, 00:01 | Скачали: 0
Сидеров: 10  [0 байт/сек]    Личеров: 2  [0 байт/сек]
Пред. тема | След. тема 

Автор
Сообщение

СообщениеДобавлено: 16 мар 2014, 00:01 

Ответить с цитатой 

Santana - The Best Of Santana 2CD (2012 (1969,1990))

Страна:
USA
Страна-производитель диска: Greece
Жанр: Classic Rock, Blues Rock, Psychedelic Rock
Год издания: 2012 (1969, 1990)
Издатель (лейбл): Sony Music Enterteinment Greece S.A.
Номер по каталогу: n/a
Аудиокодек: FLAC (*.flac)
Тип рипа: track+.cue
Битрейт аудио:lossless
Источник (релизер): alekow
Наличие сканов в содержимом раздачи: Yes
Продолжительность: 02:24:24

Описание: Это подарочное издание оригинальных альбомов 1969 и 1990 года, выпущенного Sony Music для греческой газеты «Этнос» в 2012 году (номер был посвящен Карлос Аугусто Алвес Сантана).
Треклист:
#777Продолжительность: 01:16:57
Трек лист:
01. Jingo [4:14]
02. Evil Ways [3:54]
03. Black Magic Woman/Gypsy Queen [5:19]
04. Oye Como Va [4:18]
05. Samba Pa' Ti [4:46]
06. She's Not There [4:09]
07. No One To Depend On [5:32]
08. Open Invitation [4:45]
09. Hold On [4:23]
10. Bella [4:30]
11. Winning [3:28]
12. All I Ever Wanted [4:03]
13. Dance Sister Dance (Baila Mi Hermana) [8:15]
14. Europa (Earth's Cry, Heaven's Smile) [5:06]
15. Everybody's Everything [3:30]
16. Soul Sacrifice [6:35]
Код:
Код:
REM GENRE "Classic Rock"
REM DATE 1998
REM DISCID D6120710
REM COMMENT "ExactAudioCopy v1.0b1"
PERFORMER "Santana"
TITLE "The Best Of Santana"
FILE "01. Jingo.wav" WAVE
  TRACK 01 AUDIO
    TITLE "Jingo"
    PERFORMER "Santana"
    INDEX 01 00:00:00
FILE "02. Evil Ways.wav" WAVE
  TRACK 02 AUDIO
    TITLE "Evil Ways"
    PERFORMER "Santana"
    INDEX 01 00:00:00
FILE "03. Black Magic Woman- Gypsy Queen.wav" WAVE
  TRACK 03 AUDIO
    TITLE "Black Magic Woman- Gypsy Queen"
    PERFORMER "Santana"
    INDEX 01 00:00:00
FILE "04. Oye Como Va.wav" WAVE
  TRACK 04 AUDIO
    TITLE "Oye Como Va"
    PERFORMER "Santana"
    INDEX 01 00:00:00
  TRACK 05 AUDIO
    TITLE "Samba Pa' Ti"
    PERFORMER "Santana"
    INDEX 00 04:16:67
FILE "05. Samba Pa' Ti.wav" WAVE
    INDEX 01 00:00:00
FILE "06. She's Not There.wav" WAVE
  TRACK 06 AUDIO
    TITLE "She's Not There"
    PERFORMER "Santana"
    INDEX 01 00:00:00
FILE "07. No One To Depend On.wav" WAVE
  TRACK 07 AUDIO
    TITLE "No One To Depend On"
    PERFORMER "Santana"
    INDEX 01 00:00:00
FILE "08. Open Invitation.wav" WAVE
  TRACK 08 AUDIO
    TITLE "Open Invitation"
    PERFORMER "Santana"
    INDEX 01 00:00:00
FILE "09. Hold On.wav" WAVE
  TRACK 09 AUDIO
    TITLE "Hold On"
    PERFORMER "Santana"
    INDEX 01 00:00:00
FILE "10. Bella.wav" WAVE
  TRACK 10 AUDIO
    TITLE "Bella"
    PERFORMER "Santana"
    INDEX 01 00:00:00
FILE "11. Winning.wav" WAVE
  TRACK 11 AUDIO
    TITLE "Winning"
    PERFORMER "Santana"
    INDEX 01 00:00:00
FILE "12. All I Ever Wanted.wav" WAVE
  TRACK 12 AUDIO
    TITLE "All I Ever Wanted"
    PERFORMER "Santana"
    INDEX 01 00:00:00
FILE "13. Dance Sister Dance (Baila Mi Hermana).wav" WAVE
  TRACK 13 AUDIO
    TITLE "Dance Sister Dance (Baila Mi Hermana)"
    PERFORMER "Santana"
    INDEX 01 00:00:00
  TRACK 14 AUDIO
    TITLE "Europa (Earth's Cry, Heaven's Smile)"
    PERFORMER "Santana"
    INDEX 00 08:15:55
FILE "14. Europa (Earth's Cry, Heaven's Smile).wav" WAVE
    INDEX 01 00:00:00
FILE "15. Everybody's Everything.wav" WAVE
  TRACK 15 AUDIO
    TITLE "Everybody's Everything"
    PERFORMER "Santana"
    INDEX 01 00:00:00
FILE "16. Soul Sacrifice.wav" WAVE
  TRACK 16 AUDIO
    TITLE "Soul Sacrifice"
    PERFORMER "Santana"
    INDEX 01 00:00:00
Код:
Код:
Exact Audio Copy V1.0 beta 1 from 15. November 2010

EAC extraction logfile from 20. December 2012, 18:59

Santana / The Best Of Santana

Used drive  : TSSTcorpCD/DVDW SH-S182D   Adapter: 1  ID: 0

Read mode               : Secure
Utilize accurate stream : Yes
Defeat audio cache      : Yes
Make use of C2 pointers : No

Read offset correction                      : 6
Overread into Lead-In and Lead-Out          : No
Fill up missing offset samples with silence : Yes
Delete leading and trailing silent blocks   : No
Null samples used in CRC calculations       : Yes
Used interface                              : Native Win32 interface for Win NT & 2000
Gap handling                                : Appended to previous track

Used output format              : User Defined Encoder
Selected bitrate                : 1024 kBit/s
Quality                         : High
Add ID3 tag                     : No
Command line compressor         : C:\Program Files\Exact Audio Copy\Flac\flac.exe
Additional command line options : -6 -V -T "ARTIST=%a" -T "TITLE=%t" -T "ALBUM=%g" -T "DATE=%y" -T "TRACKNUMBER=%n" -T "GENRE=%m" -T "COMMENT=%e" %s -o %d

TOC of the extracted CD

     Track |   Start  |  Length  | Start sector | End sector
    ---------------------------------------------------------
        1  |  0:00.00 |  4:14.40 |         0    |    19089
        2  |  4:14.40 |  3:54.60 |     19090    |    36699
        3  |  8:09.25 |  5:19.50 |     36700    |    60674
        4  | 13:29.00 |  4:18.07 |     60675    |    80031
        5  | 17:47.07 |  4:46.03 |     80032    |   101484
        6  | 22:33.10 |  4:09.60 |    101485    |   120219
        7  | 26:42.70 |  5:32.30 |    120220    |   145149
        8  | 32:15.25 |  4:45.65 |    145150    |   166589
        9  | 37:01.15 |  4:23.47 |    166590    |   186361
       10  | 41:24.62 |  4:30.25 |    186362    |   206636
       11  | 45:55.12 |  3:28.38 |    206637    |   222274
       12  | 49:23.50 |  4:03.07 |    222275    |   240506
       13  | 53:26.57 |  8:15.60 |    240507    |   277691
       14  | 61:42.42 |  5:06.40 |    277692    |   300681
       15  | 66:49.07 |  3:30.60 |    300682    |   316491
       16  | 70:19.67 |  6:35.23 |    316492    |   346139

Track  1

     Filename C:\New Folder\01. Jingo.wav

     Pre-gap length  0:00:02.00

     Peak level 100.0 %
     Extraction speed 2.1 X
     Track quality 100.0 %
     Test CRC 0DC72746
     Copy CRC D2DCF3FC
     Cannot be verified as accurate (confidence 26)  [381692C1], AccurateRip returned [1F9E088D]
     Copy OK

Track  2

     Filename C:\New Folder\02. Evil Ways.wav

     Peak level 100.0 %
     Extraction speed 2.5 X
     Track quality 100.0 %
     Test CRC 2973BFAF
     Copy CRC 2973BFAF
     Accurately ripped (confidence 11)  [D766C165]
     Copy OK

Track  3

     Filename C:\New Folder\03. Black Magic Woman- Gypsy Queen.wav

     Peak level 100.0 %
     Extraction speed 2.8 X
     Track quality 100.0 %
     Test CRC 4E28A011
     Copy CRC 4E28A011
     Accurately ripped (confidence 12)  [7A7ABA0E]
     Copy OK

Track  4

     Filename C:\New Folder\04. Oye Como Va.wav

     Peak level 100.0 %
     Extraction speed 2.8 X
     Track quality 100.0 %
     Test CRC 7E942829
     Copy CRC 7E942829
     Accurately ripped (confidence 11)  [BD4C13B6]
     Copy OK

Track  5

     Filename C:\New Folder\05. Samba Pa' Ti.wav

     Pre-gap length  0:00:01.15

     Peak level 100.0 %
     Extraction speed 3.6 X
     Track quality 100.0 %
     Test CRC 86AFAF11
     Copy CRC 86AFAF11
     Accurately ripped (confidence 13)  [73957787]
     Copy OK

Track  6

     Filename C:\New Folder\06. She's Not There.wav

     Peak level 100.0 %
     Extraction speed 3.9 X
     Track quality 100.0 %
     Test CRC 66E37AF9
     Copy CRC 66E37AF9
     Accurately ripped (confidence 11)  [32B805A7]
     Copy OK

Track  7

     Filename C:\New Folder\07. No One To Depend On.wav

     Peak level 100.0 %
     Extraction speed 1.5 X
     Track quality 99.9 %
     Test CRC 11D56021
     Copy CRC 11D56021
     Accurately ripped (confidence 11)  [501E6F37]
     Copy OK

Track  8

     Filename C:\New Folder\08. Open Invitation.wav

     Peak level 100.0 %
     Extraction speed 3.9 X
     Track quality 100.0 %
     Test CRC 8330188F
     Copy CRC 8330188F
     Accurately ripped (confidence 11)  [820E27F6]
     Copy OK

Track  9

     Filename C:\New Folder\09. Hold On.wav

     Peak level 100.0 %
     Extraction speed 2.9 X
     Track quality 100.0 %
     Test CRC 4667B578
     Copy CRC 4667B578
     Accurately ripped (confidence 11)  [DD2A1B90]
     Copy OK

Track 10

     Filename C:\New Folder\10. Bella.wav

     Peak level 100.0 %
     Extraction speed 4.0 X
     Track quality 100.0 %
     Test CRC E5C17225
     Copy CRC E5C17225
     Accurately ripped (confidence 11)  [78AEDC95]
     Copy OK

Track 11

     Filename C:\New Folder\11. Winning.wav

     Peak level 100.0 %
     Extraction speed 4.4 X
     Track quality 100.0 %
     Test CRC 05202E4D
     Copy CRC 05202E4D
     Accurately ripped (confidence 11)  [10706603]
     Copy OK

Track 12

     Filename C:\New Folder\12. All I Ever Wanted.wav

     Peak level 100.0 %
     Extraction speed 4.3 X
     Track quality 99.9 %
     Test CRC 7423FB8C
     Copy CRC 7423FB8C
     Accurately ripped (confidence 11)  [A0705F3C]
     Copy OK

Track 13

     Filename C:\New Folder\13. Dance Sister Dance (Baila Mi Hermana).wav

     Peak level 100.0 %
     Extraction speed 4.5 X
     Track quality 100.0 %
     Test CRC 29CFAF88
     Copy CRC 29CFAF88
     Accurately ripped (confidence 11)  [ADB6C420]
     Copy OK

Track 14

     Filename C:\New Folder\14. Europa (Earth's Cry, Heaven's Smile).wav

     Pre-gap length  0:00:00.05

     Peak level 100.0 %
     Extraction speed 1.8 X
     Track quality 100.0 %
     Test CRC 1F4DA629
     Copy CRC 1F4DA629
     Accurately ripped (confidence 12)  [2D4EADEB]
     Copy OK

Track 15

     Filename C:\New Folder\15. Everybody's Everything.wav

     Peak level 100.0 %
     Extraction speed 4.6 X
     Track quality 100.0 %
     Test CRC 429F8DA8
     Copy CRC 429F8DA8
     Accurately ripped (confidence 11)  [855807BD]
     Copy OK

Track 16

     Filename C:\New Folder\16. Soul Sacrifice.wav

     Peak level 100.0 %
     Extraction speed 4.0 X
     Track quality 100.0 %
     Test CRC 2C38751E
     Copy CRC 2C38751E
     Accurately ripped (confidence 11)  [D1553103]
     Copy OK

15 track(s) accurately ripped
 1 track(s) could not be verified as accurate

Some tracks could not be verified as accurate

No errors occurred

End of status report
Код:
Код:
-----------------------

DON'T MODIFY THIS FILE

-----------------------

PERFORMER: auCDtect Task Manager, ver. 1.5.1RC6 build 1.5.1.7
Copyright (c) 2008-2010 y-soft. All rights reserved
http:/y-soft.org

ANALYZER: auCDtect: CD records authenticity detector, version 0.8.2
Copyright (c) 2004 Oleg Berngardt. All rights reserved.
Copyright (c) 2004 Alexander Djourik. All rights reserved.

FILE: 16. Soul Sacrifice.flac
  Size: 41717089 Hash: D92F46A9F09663DCB2C209A638183D8D Accuracy: -m0
  Conclusion: CDDA 100%
  Signature: 7C0E28EA720086196647D823F7108EC34391B925
FILE: 15. Everybody's Everything.flac
  Size: 26224943 Hash: 33D89EF69B8FF786683446C92573BD6C Accuracy: -m0
  Conclusion: CDDA 100%
  Signature: 8A8BCFE3C96A42F7BD2B571DE90846CF12FAA805
FILE: 14. Europa (Earth's Cry, Heaven's Smile).flac
  Size: 32625335 Hash: 1EAC2A6E477A076DE563B2191C2120EB Accuracy: -m0
  Conclusion: CDDA 100%
  Signature: 2C1E492F8CD15BEF82A14C39F0FFC5E9E5E6632E
FILE: 13. Dance Sister Dance (Baila Mi Hermana).flac
  Size: 58177829 Hash: 7CB4D98411DC543EF0F0D50C783EFAC8 Accuracy: -m0
  Conclusion: CDDA 99%
  Signature: 285266FAF37D35E3C082CC21DD3D421A428430D3
FILE: 12. All I Ever Wanted.flac
  Size: 31712043 Hash: 4E37E5ED4B13DE0BC994D7DBEEE7C647 Accuracy: -m0
  Conclusion: CDDA 100%
  Signature: 0AA0E19B16F36DF00E224F9D8A7CC0A686032215
FILE: 11. Winning.flac
  Size: 26271564 Hash: C7CB32C7AD0D38B9BE22F7841AE56D46 Accuracy: -m0
  Conclusion: CDDA 100%
  Signature: C394463DB1A3037D2597D92706F84439A588B51D
FILE: 10. Bella.flac
  Size: 30184201 Hash: 35240C83344ECA096502C6E0996E04E4 Accuracy: -m0
  Conclusion: CDDA 99%
  Signature: 2EDF1E4617C0651E55F09354EC5B6EDCFC32D0AC
FILE: 09. Hold On.flac
  Size: 31219309 Hash: 45823E13AAE687A9A387A55F1CC2B8B6 Accuracy: -m0
  Conclusion: CDDA 100%
  Signature: F6B7ACD8AAC171CA0D1E77566364CF748D090794
FILE: 08. Open Invitation.flac
  Size: 34551558 Hash: EB4ED10AA2D385CA8EA7A167A381C18E Accuracy: -m0
  Conclusion: CDDA 100%
  Signature: EF782784D2580351859C2883774A7BB03EDA6C5F
FILE: 07. No One To Depend On.flac
  Size: 39812196 Hash: B96BB58E41576FE5E76A953C7A9B1762 Accuracy: -m0
  Conclusion: CDDA 100%
  Signature: 7D335041C68370C2E9A35B08E9B857018B64D263
FILE: 06. She's Not There.flac
  Size: 26101964 Hash: F9D12D90B4C35543C534EC74CCD74C14 Accuracy: -m0
  Conclusion: CDDA 99%
  Signature: 61C4030C8651EFB945FD6C75626234EA160DE122
FILE: 05. Samba Pa' Ti.flac
  Size: 28992305 Hash: C4E4BA7F3B8A8B6A8455AB3FD1D9B12E Accuracy: -m0
  Conclusion: CDDA 100%
  Signature: 00859E54E09C5BF1C5D5D9D65EE079904CDE1C3E
FILE: 04. Oye Como Va.flac
  Size: 29780786 Hash: C9E9491B54C461501818569C9DD6375E Accuracy: -m0
  Conclusion: CDDA 100%
  Signature: 5C0199F5A86658B56856C32740E78AAE06EDBABB
FILE: 03. Black Magic Woman- Gypsy Queen.flac
  Size: 36312409 Hash: DD55C3C1527843E6A6D25A2EFB796AA9 Accuracy: -m0
  Conclusion: CDDA 100%
  Signature: F213D5309E58CA01A64D4E4B310F2923EFF8BA1A
FILE: 02. Evil Ways.flac
  Size: 24872245 Hash: 79ADFECB79B8117D81C4790D7606D71A Accuracy: -m0
  Conclusion: CDDA 100%
  Signature: 69ACE90A830FEC1AAD8EFD0B15B84FFB8E318C94
FILE: 01. Jingo.flac
  Size: 27897350 Hash: BA0DD6341A7B4891379018218D6E8331 Accuracy: -m0
  Conclusion: CDDA 100%
  Signature: 40FED82ADA5C8F2DA9E3A5373549F5E69A68A2C6
#777Продолжительность: 01:07:27
Треклист:
01. Persuasion [2:34]
02. You Just Don't Care [4:35]
03. Black Magic Woman/Gypsy Queen (Live) [6:30]
04. Incident At Neshabur [4:57]
05. Se A Cabo [2:50]
06. Hope You're Feeling Better [4:11]
07. Toussaint L'Overture [5:56]
08. Guajira [5:43]
09. Everything's Coming Our Way [3:16]
10. Europa (Earth's Cry Heaven's Smile) (Live) [6:12]
11. Stormy [4:46]
12. Well All Right [4:11]
13. One Chain (Don't Make No Prison) [7:14]
14. Peace On Earth- Mother Earth- Third Stone From The Sun (Medley) [4:24]
Код:
Код:
REM GENRE "Classic Rock"
REM DATE 2000
REM DISCID BF0FCE0E
REM COMMENT "ExactAudioCopy v1.0b1"
PERFORMER "Santana"
TITLE "The Best Of Santana Volume 2"
FILE "01. Persuasion.wav" WAVE
  TRACK 01 AUDIO
    TITLE "Persuasion"
    PERFORMER "Santana"
    INDEX 01 00:00:00
  TRACK 02 AUDIO
    TITLE "You Just Don't Care"
    PERFORMER "Santana"
    INDEX 00 02:32:52
FILE "02. You Just Don't Care.wav" WAVE
    INDEX 01 00:00:00
  TRACK 03 AUDIO
    TITLE "Black Magic Woman/Gypsy Queen (Live)"
    PERFORMER "Santana"
    INDEX 00 04:34:13
FILE "03. Black Magic Woman,Gypsy Queen (Live).wav" WAVE
    INDEX 01 00:00:00
  TRACK 04 AUDIO
    TITLE "Incident At Neshabur"
    PERFORMER "Santana"
    INDEX 00 06:30:15
FILE "04. Incident At Neshabur.wav" WAVE
    INDEX 01 00:00:00
  TRACK 05 AUDIO
    TITLE "Se A Cabo"
    PERFORMER "Santana"
    INDEX 00 04:57:35
FILE "05. Se A Cabo.wav" WAVE
    INDEX 01 00:00:00
  TRACK 06 AUDIO
    TITLE "Hope You're Feeling Better"
    PERFORMER "Santana"
    INDEX 00 02:50:05
FILE "06. Hope You're Feeling Better.wav" WAVE
    INDEX 01 00:00:00
  TRACK 07 AUDIO
    TITLE "Toussaint L'Overture"
    PERFORMER "Santana"
    INDEX 00 04:10:37
FILE "07. Toussaint L'Overture.wav" WAVE
    INDEX 01 00:00:00
  TRACK 08 AUDIO
    TITLE "Guajira"
    PERFORMER "Santana"
    INDEX 00 05:54:33
FILE "08. Guajira.wav" WAVE
    INDEX 01 00:00:00
  TRACK 09 AUDIO
    TITLE "Everything's Coming Our Way"
    PERFORMER "Santana"
    INDEX 00 05:43:07
FILE "09. Everything's Coming Our Way.wav" WAVE
    INDEX 01 00:00:00
  TRACK 10 AUDIO
    TITLE "Europa (Earth's Cry Heaven's Smile) (Live)"
    PERFORMER "Santana"
    INDEX 00 03:15:13
FILE "10. Europa (Earth's Cry Heaven's Smile) (Live).wav" WAVE
    INDEX 01 00:00:00
  TRACK 11 AUDIO
    TITLE "Stormy"
    PERFORMER "Santana"
    INDEX 00 06:10:70
FILE "11. Stormy.wav" WAVE
    INDEX 01 00:00:00
  TRACK 12 AUDIO
    TITLE "Well All Right"
    PERFORMER "Santana"
    INDEX 00 04:45:13
FILE "12. Well All Right.wav" WAVE
    INDEX 01 00:00:00
  TRACK 13 AUDIO
    TITLE "One Chain (Don't Make No Prison)"
    PERFORMER "Santana"
    INDEX 00 04:10:42
FILE "13. One Chain (Don't Make No Prison).wav" WAVE
    INDEX 01 00:00:00
  TRACK 14 AUDIO
    TITLE "Peace On Earth- Mother Earth- Third Stone From The Sun (Medley)"
    PERFORMER "Santana"
    INDEX 00 07:13:08
FILE "14. Peace On Earth- Mother Earth- Third Stone From The Sun (Medley).wav" WAVE
    INDEX 01 00:00:00
Код:
Код:
Exact Audio Copy V1.0 beta 1 from 15. November 2010

EAC extraction logfile from 22. December 2012, 10:45

Santana / The Best Of Santana Volume 2

Used drive  : TSSTcorpCD/DVDW SH-S182D   Adapter: 1  ID: 0

Read mode               : Secure
Utilize accurate stream : Yes
Defeat audio cache      : Yes
Make use of C2 pointers : No

Read offset correction                      : 6
Overread into Lead-In and Lead-Out          : No
Fill up missing offset samples with silence : Yes
Delete leading and trailing silent blocks   : No
Null samples used in CRC calculations       : Yes
Used interface                              : Native Win32 interface for Win NT & 2000
Gap handling                                : Appended to previous track

Used output format              : User Defined Encoder
Selected bitrate                : 1024 kBit/s
Quality                         : High
Add ID3 tag                     : No
Command line compressor         : C:\Program Files\Exact Audio Copy\Flac\flac.exe
Additional command line options : -6 -V -T "ARTIST=%a" -T "TITLE=%t" -T "ALBUM=%g" -T "DATE=%y" -T "TRACKNUMBER=%n" -T "GENRE=%m" -T "COMMENT=%e" %s -o %d

TOC of the extracted CD

     Track |   Start  |  Length  | Start sector | End sector
    ---------------------------------------------------------
        1  |  0:00.00 |  2:34.37 |         0    |    11586
        2  |  2:34.37 |  4:35.58 |     11587    |    32269
        3  |  7:10.20 |  6:30.57 |     32270    |    61576
        4  | 13:41.02 |  4:57.40 |     61577    |    83891
        5  | 18:38.42 |  2:50.58 |     83892    |    96699
        6  | 21:29.25 |  4:11.27 |     96700    |   115551
        7  | 25:40.52 |  5:56.03 |    115552    |   142254
        8  | 31:36.55 |  5:43.67 |    142255    |   168046
        9  | 37:20.47 |  3:16.28 |    168047    |   182774
       10  | 40:37.00 |  6:12.12 |    182775    |   210686
       11  | 46:49.12 |  4:46.68 |    210687    |   232204
       12  | 51:36.05 |  4:11.47 |    232205    |   251076
       13  | 55:47.52 |  7:14.20 |    251077    |   283646
       14  | 63:01.72 |  4:24.58 |    283647    |   303504

Track  1

     Filename C:\New Folder\01. Persuasion.wav

     Pre-gap length  0:00:02.00

     Peak level 100.0 %
     Extraction speed 2.2 X
     Track quality 100.0 %
     Test CRC BAD002A0
     Copy CRC BAD002A0
     Track not present in AccurateRip database
     Copy OK

Track  2

     Filename C:\New Folder\02. You Just Don't Care.wav

     Pre-gap length  0:00:01.60

     Peak level 100.0 %
     Extraction speed 2.5 X
     Track quality 100.0 %
     Test CRC 9F94CFF0
     Copy CRC 9F94CFF0
     Track not present in AccurateRip database
     Copy OK

Track  3

     Filename C:\New Folder\03. Black Magic Woman,Gypsy Queen (Live).wav

     Pre-gap length  0:00:01.45

     Peak level 99.8 %
     Extraction speed 3.2 X
     Track quality 100.0 %
     Test CRC 565AE261
     Copy CRC 565AE261
     Track not present in AccurateRip database
     Copy OK

Track  4

     Filename C:\New Folder\04. Incident At Neshabur.wav

     Pre-gap length  0:00:00.42

     Peak level 99.8 %
     Extraction speed 3.1 X
     Track quality 99.9 %
     Test CRC 2C889AF0
     Copy CRC 2C889AF0
     Track not present in AccurateRip database
     Copy OK

Track  5

     Filename C:\New Folder\05. Se A Cabo.wav

     Pre-gap length  0:00:00.05

     Peak level 99.8 %
     Extraction speed 3.1 X
     Track quality 100.0 %
     Test CRC 07386306
     Copy CRC 07386306
     Track not present in AccurateRip database
     Copy OK

Track  6

     Filename C:\New Folder\06. Hope You're Feeling Better.wav

     Pre-gap length  0:00:00.53

     Peak level 99.8 %
     Extraction speed 3.3 X
     Track quality 99.9 %
     Test CRC 8A2D8827
     Copy CRC 8A2D8827
     Track not present in AccurateRip database
     Copy OK

Track  7

     Filename C:\New Folder\07. Toussaint L'Overture.wav

     Pre-gap length  0:00:00.65

     Peak level 99.8 %
     Extraction speed 4.1 X
     Track quality 100.0 %
     Test CRC 3A5756C6
     Copy CRC 3A5756C6
     Track not present in AccurateRip database
     Copy OK

Track  8

     Filename C:\New Folder\08. Guajira.wav

     Pre-gap length  0:00:01.45

     Peak level 99.8 %
     Extraction speed 4.2 X
     Track quality 100.0 %
     Test CRC E100DCF3
     Copy CRC E100DCF3
     Track not present in AccurateRip database
     Copy OK

Track  9

     Filename C:\New Folder\09. Everything's Coming Our Way.wav

     Pre-gap length  0:00:00.60

     Peak level 99.8 %
     Extraction speed 4.2 X
     Track quality 100.0 %
     Test CRC 5A7D0674
     Copy CRC 5A7D0674
     Track not present in AccurateRip database
     Copy OK

Track 10

     Filename C:\New Folder\10. Europa (Earth's Cry Heaven's Smile) (Live).wav

     Pre-gap length  0:00:01.15

     Peak level 100.0 %
     Extraction speed 4.6 X
     Track quality 100.0 %
     Test CRC 9DBA5FB6
     Copy CRC 9DBA5FB6
     Track not present in AccurateRip database
     Copy OK

Track 11

     Filename C:\New Folder\11. Stormy.wav

     Pre-gap length  0:00:01.17

     Peak level 99.8 %
     Extraction speed 3.9 X
     Track quality 99.9 %
     Test CRC FE4FEE7E
     Copy CRC FE4FEE7E
     Track not present in AccurateRip database
     Copy OK

Track 12

     Filename C:\New Folder\12. Well All Right.wav

     Pre-gap length  0:00:01.55

     Peak level 99.8 %
     Extraction speed 4.8 X
     Track quality 100.0 %
     Test CRC 64014059
     Copy CRC 64014059
     Track not present in AccurateRip database
     Copy OK

Track 13

     Filename C:\New Folder\13. One Chain (Don't Make No Prison).wav

     Pre-gap length  0:00:01.05

     Peak level 99.8 %
     Extraction speed 5.1 X
     Track quality 100.0 %
     Test CRC 482D40BB
     Copy CRC 482D40BB
     Track not present in AccurateRip database
     Copy OK

Track 14

     Filename C:\New Folder\14. Peace On Earth- Mother Earth- Third Stone From The Sun (Medley).wav

     Pre-gap length  0:00:01.12

     Peak level 99.8 %
     Extraction speed 4.7 X
     Track quality 100.0 %
     Test CRC 2868E31B
     Copy CRC 2868E31B
     Track not present in AccurateRip database
     Copy OK

None of the tracks are present in the AccurateRip database

No errors occurred

End of status report

Код:
Код:
-----------------------

DON'T MODIFY THIS FILE

-----------------------

PERFORMER: auCDtect Task Manager, ver. 1.5.1RC6 build 1.5.1.7
Copyright (c) 2008-2010 y-soft. All rights reserved
http:/y-soft.org

ANALYZER: auCDtect: CD records authenticity detector, version 0.8.2
Copyright (c) 2004 Oleg Berngardt. All rights reserved.
Copyright (c) 2004 Alexander Djourik. All rights reserved.

FILE: 14. Peace On Earth- Mother Earth- Third Stone From The Sun (Medley).flac
  Size: 30379531 Hash: DF9A0BDF8C470CDB00256E6DFB8E3843 Accuracy: -m0
  Conclusion: CDDA 100%
  Signature: B80EF9ED6A3421BE6B966F39643218EAD6DDF4B1
FILE: 13. One Chain (Don't Make No Prison).flac
  Size: 56155335 Hash: BC142A59EFA5A17215D9C16B9A7B2F48 Accuracy: -m0
  Conclusion: MPEG 95%
  Signature: A2DB97364F0AFC729D19DD4AC8DECD748274AD1F
FILE: 12. Well All Right.flac
  Size: 32880036 Hash: 1ECEA2B6320E084A4D6A789052E3248B Accuracy: -m0
  Conclusion: CDDA 100%
  Signature: 7378CE8178DF2E51756C370BCB1C495967CB11BC
FILE: 11. Stormy.flac
  Size: 33810337 Hash: 514DA6A5F20A3783426C9DD3A2AC06B1 Accuracy: -m0
  Conclusion: MPEG 95%
  Signature: DEFA4A2D2C5413AB98E35B620BE08D3362FAB5FF
FILE: 10. Europa (Earth's Cry Heaven's Smile) (Live).flac
  Size: 42185748 Hash: A42BD9AAC50C0F090189E62B359C7834 Accuracy: -m0
  Conclusion: CDDA 100%
  Signature: D9ED9790EEB239F9F4D2D72A6830E2C97E66CDA9
FILE: 09. Everything's Coming Our Way.flac
  Size: 23569022 Hash: 7D8E50C74D07E7EDDDB93EE6BD007FE9 Accuracy: -m0
  Conclusion: CDDA 100%
  Signature: 466FD857FF01AFAD7E61700609B30B7C05E6BE57
FILE: 08. Guajira.flac
  Size: 41987065 Hash: A9C177D6DF8C57630F7E79EC5795029F Accuracy: -m0
  Conclusion: CDDA 100%
  Signature: D450D1FB8A3C2B9D188B03E44CDA58562576CC2A
FILE: 07. Toussaint L'Overture.flac
  Size: 45513933 Hash: CD391F69889ABC87B11903C68E1850F2 Accuracy: -m0
  Conclusion: CDDA 100%
  Signature: 11C3862C1B4461F63204451ABFC22A813580F0DC
FILE: 06. Hope You're Feeling Better.flac
  Size: 30239605 Hash: D3E1ECD06A2D5680DEC7960A780D467B Accuracy: -m0
  Conclusion: CDDA 99%
  Signature: 8D31666B84B68B23DC871116DBF8B574C8DF965B
FILE: 05. Se A Cabo.flac
  Size: 19331177 Hash: DA9DEA837449CB24D190A8237ADD0B32 Accuracy: -m0
  Conclusion: CDDA 100%
  Signature: 7233B85081E5A5D4DB459801804E4521640F9D98
FILE: 04. Incident At Neshabur.flac
  Size: 31796670 Hash: DF6E17530FFC6319938701AAFB65B70E Accuracy: -m0
  Conclusion: CDDA 99%
  Signature: B9896B39D44D057D622B3CC99535E050FE16F49E
FILE: 03. Black Magic Woman,Gypsy Queen (Live).flac
  Size: 47756491 Hash: FE7D47850D931A24D361FEA1199B02DA Accuracy: -m0
  Conclusion: CDDA 100%
  Signature: 4C3E61132E84F6B581454068222F91D52317C188
FILE: 02. You Just Don't Care.flac
  Size: 31640273 Hash: 11D0AAB45D2F960C39957B7B6260D2D5 Accuracy: -m0
  Conclusion: CDDA 100%
  Signature: CC2A9D3C041364DAB2585C30126D1AF675391871
FILE: 01. Persuasion.flac
  Size: 17646789 Hash: 6CDB33F460E315C4322D2B531CC86F08 Accuracy: -m0
  Conclusion: CDDA 100%
  Signature: 492A5C845DEAFFD8669262E491A02DD205F18DA5


Правила, инструкции, FAQ!!!
Торрент  Добавлен [16 мар 2014, 00:01] Скачать торрент Магнет ссылка
Скачать торрент
[ Размер 16.38 КБ / Просмотров 59 ]

Статус  
 
Размер  1.03 ГБ
Приватный: Нет (DHT включён)
.torrent скачан  0
 


     Отправить личное сообщение
   
Страница 1 из 1
Показать сообщения за:  Поле сортировки  
Начать новую тему Ответить на тему


Сейчас этот форум просматривают: нет зарегистрированных пользователей и гости: 0


Вы не можете начинать темы
Вы не можете отвечать на сообщения
Вы не можете редактировать свои сообщения
Вы не можете удалять свои сообщения
Вы не можете добавлять вложения

Перейти:  
cron
cron