Начать новую тему Ответить на тему
Статистика раздачи
Размер: 1.83 ГБ | Добавлен: 28 июл 2013, 13:20 | Скачали: 4
Сидеров: 8  [0 байт/сек]    Личеров: 18  [0 байт/сек]
Пред. тема | След. тема 

Автор
Сообщение

СообщениеДобавлено: 28 июл 2013, 13:20 

Ответить с цитатой 

Sammy Hagar - 4 альбома (1981-1987) Mini LP SHM-CD


Год: 1981-1987/ 2013
Жанр: Hard Rock
Издание: Universal Music
Каталог№: UICY-75595~98
Продолжительность: 02:43:23
Источник: ALLexxess
Сканы: Есть
Кодек: FLAC
Тип рипа: Image+.cue
Метод сжатия: Lossless


Official DR value: DR12
Продолжительность: 00:41:53
Треклист:

01. I'll Fall In Love Again (4:13)
02. There's Only One Way To Rock (4:14)
03. Baby's On Fire (3:33)
04. Can't Get Loose (5:37)
05. Heavy Metal (3:49)
06. Baby, It's You (4:45)
07. Surrender (3:13)
08. Inside Lookin' In (4:25)
09. Sweet Hitchhiker (4:09)
10. Piece Of My Heart (3:56)
Код:
Код:
REM GENRE "Rock / Hard Rock"
REM DATE 1981
REM DISCID 8409D10A
REM COMMENT "ExactAudioCopy v1.0b3"
PERFORMER "Sammy Hagar"
TITLE "Standing Hampton"
FILE "Sammy Hagar - Standing Hampton.flac" WAVE
  TRACK 01 AUDIO
    TITLE "I'll Fall In Love Again"
    PERFORMER "Sammy Hagar"
    INDEX 01 00:00:00
  TRACK 02 AUDIO
    TITLE "There's Only One Way To Rock"
    PERFORMER "Sammy Hagar"
    INDEX 01 04:13:22
  TRACK 03 AUDIO
    TITLE "Baby's On Fire"
    PERFORMER "Sammy Hagar"
    INDEX 01 08:27:06
  TRACK 04 AUDIO
    TITLE "Can't Get Loose"
    PERFORMER "Sammy Hagar"
    INDEX 01 12:00:22
  TRACK 05 AUDIO
    TITLE "Heavy Metal"
    PERFORMER "Sammy Hagar"
    INDEX 01 17:37:02
  TRACK 06 AUDIO
    TITLE "Baby, It's You"
    PERFORMER "Sammy Hagar"
    INDEX 00 21:25:07
    INDEX 01 21:26:07
  TRACK 07 AUDIO
    TITLE "Surrender"
    PERFORMER "Sammy Hagar"
    INDEX 01 26:10:47
  TRACK 08 AUDIO
    TITLE "Inside Lookin' In"
    PERFORMER "Sammy Hagar"
    INDEX 01 29:23:70
  TRACK 09 AUDIO
    TITLE "Sweet Hitchhiker"
    PERFORMER "Sammy Hagar"
    INDEX 01 33:48:47
  TRACK 10 AUDIO
    TITLE "Piece Of My Heart"
    PERFORMER "Sammy Hagar"
    INDEX 01 37:57:21

Код:
Код:
Exact Audio Copy V1.0 beta 3 from 29. August 2011

EAC extraction logfile from 23. July 2013, 17:22

Sammy Hagar / Standing Hampton

Used drive  : PLEXTOR BD-R  PX-B950SA   Adapter: 6  ID: 0

Read mode               : Secure
Utilize accurate stream : Yes
Defeat audio cache      : Yes
Make use of C2 pointers : No

Read offset correction                      : 6
Overread into Lead-In and Lead-Out          : No
Fill up missing offset samples with silence : Yes
Delete leading and trailing silent blocks   : No
Null samples used in CRC calculations       : Yes
Used interface                              : Native Win32 interface for Win NT & 2000

Used output format : Internal WAV Routines
Sample format      : 44.100 Hz; 16 Bit; Stereo

TOC of the extracted CD

     Track |   Start  |  Length  | Start sector | End sector
    ---------------------------------------------------------
        1  |  0:00.00 |  4:13.22 |         0    |    18996
        2  |  4:13.22 |  4:13.59 |     18997    |    38030
        3  |  8:27.06 |  3:33.16 |     38031    |    54021
        4  | 12:00.22 |  5:36.55 |     54022    |    79276
        5  | 17:37.02 |  3:49.05 |     79277    |    96456
        6  | 21:26.07 |  4:44.40 |     96457    |   117796
        7  | 26:10.47 |  3:13.23 |    117797    |   132294
        8  | 29:23.70 |  4:24.52 |    132295    |   152146
        9  | 33:48.47 |  4:08.49 |    152147    |   170795
       10  | 37:57.21 |  3:56.01 |    170796    |   188496

Range status and errors

Selected range

     Filename C:\Users\Meijin\Desktop\Lossless Galaxy ALLexxess\Sammy Hagar\1981 Standing Hampton (Mini LP SHM-CD Universal Japan 2013)\Sammy Hagar - Standing Hampton.wav

     Peak level 100.0 %
     Extraction speed 6.8 X
     Range quality 100.0 %
     Test CRC D17B28FA
     Copy CRC D17B28FA
     Copy OK

No errors occurred

AccurateRip summary

Track  1  not present in database
Track  2  not present in database
Track  3  not present in database
Track  4  not present in database
Track  5  not present in database
Track  6  not present in database
Track  7  not present in database
Track  8  not present in database
Track  9  not present in database
Track 10  not present in database

None of the tracks are present in the AccurateRip database

End of status report

==== Log checksum 4C567F200998242CFEBA8829DAB349D69ED12B84651A1CC1001E04B7718E0FF5 ====

Код:
Код:
-----------------------

DON'T MODIFY THIS FILE

-----------------------

PERFORMER: auCDtect Task Manager, ver. 1.6.0 RC1 build 1.6.0.1
Copyright (c) 2008-2010 y-soft. All rights reserved
http:/y-soft.org

ANALYZER: auCDtect: CD records authenticity detector, version 0.8.2
Copyright (c) 2004 Oleg Berngardt. All rights reserved.
Copyright (c) 2004 Alexander Djourik. All rights reserved.

FILE: Sammy Hagar - Standing Hampton.flac
  Size: 297624411 Hash: C44513A2942DDEF7403636B2FA5BD7C4 Accuracy: -m8
  Conclusion: CDDA 100%
  Signature: 58326D8715CC960C460CE10CE95881EC94C3D098


Official DR value: DR11
Продолжительность: 00:39:07
Треклист:
01. Three Lock Box (3:21)
02. Remote Love (3:58)
03. Remember The Heroes (6:00)
04. Your Love Is Driving Me Crazy (3:31)
05. In The Room (3:44)
06. Rise Of The Animal (5:29)
07. I Wouldn't Change A Thing (3:21)
08. Growing Up (3:18)
09. Never Give Up (3:15)
10. I Don't Need Love (3:09)
REM GENRE "Rock / Hard Rock"
REM DATE 1982
REM DISCID 71092A0A
REM COMMENT "ExactAudioCopy v1.0b3"
PERFORMER "Sammy Hagar"
TITLE "Three Lock Box"
FILE "Sammy Hagar - Three Lock Box.flac" WAVE
TRACK 01 AUDIO
TITLE "Three Lock Box"
PERFORMER "Sammy Hagar"
INDEX 01 00:00:00
TRACK 02 AUDIO
TITLE "Remote Love"
PERFORMER "Sammy Hagar"
INDEX 01 03:21:35
TRACK 03 AUDIO
TITLE "Remember The Heroes"
PERFORMER "Sammy Hagar"
INDEX 01 07:19:34
TRACK 04 AUDIO
TITLE "Your Love Is Driving Me Crazy"
PERFORMER "Sammy Hagar"
INDEX 01 13:19:30
TRACK 05 AUDIO
TITLE "In The Room"
PERFORMER "Sammy Hagar"
INDEX 01 16:50:23
TRACK 06 AUDIO
TITLE "Rise Of The Animal"
PERFORMER "Sammy Hagar"
INDEX 01 20:33:70
TRACK 07 AUDIO
TITLE "I Wouldn't Change A Thing"
PERFORMER "Sammy Hagar"
INDEX 01 26:03:20
TRACK 08 AUDIO
TITLE "Growing Up"
PERFORMER "Sammy Hagar"
INDEX 00 29:22:61
INDEX 01 29:24:05
TRACK 09 AUDIO
TITLE "Never Give Up"
PERFORMER "Sammy Hagar"
INDEX 01 32:41:58
TRACK 10 AUDIO
TITLE "I Don't Need Love"
PERFORMER "Sammy Hagar"
INDEX 01 35:57:18
Код:
Код:
Exact Audio Copy V1.0 beta 3 from 29. August 2011

EAC extraction logfile from 23. July 2013, 16:49

Sammy Hagar / Three Lock Box

Used drive  : PLEXTOR BD-R  PX-B950SA   Adapter: 6  ID: 0

Read mode               : Secure
Utilize accurate stream : Yes
Defeat audio cache      : Yes
Make use of C2 pointers : No

Read offset correction                      : 6
Overread into Lead-In and Lead-Out          : No
Fill up missing offset samples with silence : Yes
Delete leading and trailing silent blocks   : No
Null samples used in CRC calculations       : Yes
Used interface                              : Native Win32 interface for Win NT & 2000

Used output format : Internal WAV Routines
Sample format      : 44.100 Hz; 16 Bit; Stereo

TOC of the extracted CD

     Track |   Start  |  Length  | Start sector | End sector
    ---------------------------------------------------------
        1  |  0:00.00 |  3:21.35 |         0    |    15109
        2  |  3:21.35 |  3:57.74 |     15110    |    32958
        3  |  7:19.34 |  5:59.71 |     32959    |    59954
        4  | 13:19.30 |  3:30.68 |     59955    |    75772
        5  | 16:50.23 |  3:43.47 |     75773    |    92544
        6  | 20:33.70 |  5:29.25 |     92545    |   117244
        7  | 26:03.20 |  3:20.60 |    117245    |   132304
        8  | 29:24.05 |  3:17.53 |    132305    |   147132
        9  | 32:41.58 |  3:15.35 |    147133    |   161792
       10  | 35:57.18 |  3:09.34 |    161793    |   176001

Range status and errors

Selected range

     Filename C:\Users\Meijin\Desktop\Lossless Galaxy ALLexxess\Sammy Hagar\1982 Three Lock Box (Mini LP SHM-CD Universal Japan 2013)\Sammy Hagar - Three Lock Box.wav

     Peak level 100.0 %
     Extraction speed 6.7 X
     Range quality 100.0 %
     Test CRC E8746A5D
     Copy CRC E8746A5D
     Copy OK

No errors occurred

AccurateRip summary

Track  1  not present in database
Track  2  not present in database
Track  3  not present in database
Track  4  not present in database
Track  5  not present in database
Track  6  not present in database
Track  7  not present in database
Track  8  not present in database
Track  9  not present in database
Track 10  not present in database

None of the tracks are present in the AccurateRip database

End of status report

==== Log checksum 781EE95EE48816AAE22BA79CFB7CBACB40ECE4596520A638B7125CFC823E0CB2 ====

Код:
Код:
-----------------------

DON'T MODIFY THIS FILE

-----------------------

PERFORMER: auCDtect Task Manager, ver. 1.6.0 RC1 build 1.6.0.1
Copyright (c) 2008-2010 y-soft. All rights reserved
http:/y-soft.org

ANALYZER: auCDtect: CD records authenticity detector, version 0.8.2
Copyright (c) 2004 Oleg Berngardt. All rights reserved.
Copyright (c) 2004 Alexander Djourik. All rights reserved.

FILE: Sammy Hagar - Three Lock Box.flac
  Size: 269540377 Hash: 4F7C19814DAFF4E58E94023EEE05D4ED Accuracy: -m8
  Conclusion: CDDA 100%
  Signature: 88095677A99C94FCE31D485A34A567281F77FC45


Official DR value: DR13
Продолжительность: 00:36:48
Треклист:
01. I Can't Drive 55 (4:14)
02. Swept Away (5:38)
03. Rock Is In My Blood (4:31)
04. Two Sides Of Love (3:45)
05. Dick In The Dirt (4:22)
06. VOA (4:34)
07. Don't Make Me Wait (4:09)
08. Burnin' Down The City (5:34)
REM GENRE "Rock / Hard Rock"
REM DATE 1984
REM DISCID 7208A008
REM COMMENT "ExactAudioCopy v1.0b3"
PERFORMER "Sammy Hagar"
TITLE "VOA"
FILE "Sammy Hagar - VOA.flac" WAVE
TRACK 01 AUDIO
TITLE "I Can't Drive 55"
PERFORMER "Sammy Hagar"
INDEX 01 00:00:00
TRACK 02 AUDIO
TITLE "Swept Away"
PERFORMER "Sammy Hagar"
INDEX 00 04:12:42
INDEX 01 04:14:32
TRACK 03 AUDIO
TITLE "Rock Is In My Blood"
PERFORMER "Sammy Hagar"
INDEX 00 09:51:46
INDEX 01 09:52:67
TRACK 04 AUDIO
TITLE "Two Sides Of Love"
PERFORMER "Sammy Hagar"
INDEX 00 14:23:28
INDEX 01 14:24:23
TRACK 05 AUDIO
TITLE "Dick In The Dirt"
PERFORMER "Sammy Hagar"
INDEX 00 18:08:02
INDEX 01 18:09:02
TRACK 06 AUDIO
TITLE "VOA"
PERFORMER "Sammy Hagar"
INDEX 00 22:29:01
INDEX 01 22:31:35
TRACK 07 AUDIO
TITLE "Don't Make Me Wait"
PERFORMER "Sammy Hagar"
INDEX 00 27:03:05
INDEX 01 27:05:36
TRACK 08 AUDIO
TITLE "Burnin' Down The City"
PERFORMER "Sammy Hagar"
INDEX 00 31:12:38
INDEX 01 31:14:19
Код:
Код:
Exact Audio Copy V1.0 beta 3 from 29. August 2011

EAC extraction logfile from 23. July 2013, 16:20

Sammy Hagar / VOA

Used drive  : PLEXTOR BD-R  PX-B950SA   Adapter: 6  ID: 0

Read mode               : Secure
Utilize accurate stream : Yes
Defeat audio cache      : Yes
Make use of C2 pointers : No

Read offset correction                      : 6
Overread into Lead-In and Lead-Out          : No
Fill up missing offset samples with silence : Yes
Delete leading and trailing silent blocks   : No
Null samples used in CRC calculations       : Yes
Used interface                              : Native Win32 interface for Win NT & 2000

Used output format : Internal WAV Routines
Sample format      : 44.100 Hz; 16 Bit; Stereo

TOC of the extracted CD

     Track |   Start  |  Length  | Start sector | End sector
    ---------------------------------------------------------
        1  |  0:00.00 |  4:14.32 |         0    |    19081
        2  |  4:14.32 |  5:38.35 |     19082    |    44466
        3  |  9:52.67 |  4:31.31 |     44467    |    64822
        4  | 14:24.23 |  3:44.54 |     64823    |    81676
        5  | 18:09.02 |  4:22.33 |     81677    |   101359
        6  | 22:31.35 |  4:34.01 |    101360    |   121910
        7  | 27:05.36 |  4:08.58 |    121911    |   140568
        8  | 31:14.19 |  5:33.58 |    140569    |   165601

Range status and errors

Selected range

     Filename C:\Users\Meijin\Desktop\Lossless Galaxy ALLexxess\Sammy Hagar\1984 VOA (Mini LP SHM-CD Universal Japan 2013)\Sammy Hagar - VOA.wav

     Peak level 100.0 %
     Extraction speed 6.6 X
     Range quality 100.0 %
     Test CRC B2FE4A6F
     Copy CRC B2FE4A6F
     Copy OK

No errors occurred

AccurateRip summary

Track  1  not present in database
Track  2  not present in database
Track  3  not present in database
Track  4  not present in database
Track  5  not present in database
Track  6  not present in database
Track  7  not present in database
Track  8  not present in database

None of the tracks are present in the AccurateRip database

End of status report

==== Log checksum 3BDF39667E46772BFA29CFA978306F5614DE7AB18D13DFB96F9F45AE1BA61CB3 ====

Код:
Код:
-----------------------

DON'T MODIFY THIS FILE

-----------------------

PERFORMER: auCDtect Task Manager, ver. 1.6.0 RC1 build 1.6.0.1
Copyright (c) 2008-2010 y-soft. All rights reserved
http:/y-soft.org

ANALYZER: auCDtect: CD records authenticity detector, version 0.8.2
Copyright (c) 2004 Oleg Berngardt. All rights reserved.
Copyright (c) 2004 Alexander Djourik. All rights reserved.

FILE: Sammy Hagar - VOA.flac
  Size: 264739881 Hash: 7CCDAA51925CA8C6CA2B3C3CBB2C9003 Accuracy: -m8
  Conclusion: CDDA 100%
  Signature: C621013CD0CD6E342536584CAD11EABD0CD3EE6F


Official DR value: DR12
Продолжительность: 00:45:35
Треклист:
01. When The Hammer Falls (4:10)
02. Hands And Knees (4:50)
03. Give To Live (4:24)
04. Boys' Night Out (3:19)
05. Returning Home (6:20)
06. Standin' At The Same Old Crossroads (1:46)
07. Privacy (5:23)
08. Back Into You (5:14)
09. Eagles Fly (5:00)
10. What They Gonna Say Now (5:09)
REM GENRE "Rock / Hard Rock"
REM DATE 1987
REM DISCID 740AAE0A
REM COMMENT "ExactAudioCopy v1.0b3"
PERFORMER "Sammy Hagar"
TITLE "I Never Said Goodbye"
FILE "Sammy Hagar - I Never Said Goodbye.flac" WAVE
TRACK 01 AUDIO
TITLE "When The Hammer Falls"
PERFORMER "Sammy Hagar"
INDEX 01 00:00:00
TRACK 02 AUDIO
TITLE "Hands And Knees"
PERFORMER "Sammy Hagar"
INDEX 01 04:09:59
TRACK 03 AUDIO
TITLE "Give To Live"
PERFORMER "Sammy Hagar"
INDEX 01 08:59:60
TRACK 04 AUDIO
TITLE "Boys' Night Out"
PERFORMER "Sammy Hagar"
INDEX 01 13:23:26
TRACK 05 AUDIO
TITLE "Returning Home"
PERFORMER "Sammy Hagar"
INDEX 01 16:42:04
TRACK 06 AUDIO
TITLE "Standin' At The Same Old Crossroads"
PERFORMER "Sammy Hagar"
INDEX 00 23:01:25
INDEX 01 23:02:25
TRACK 07 AUDIO
TITLE "Privacy"
PERFORMER "Sammy Hagar"
INDEX 01 24:47:73
TRACK 08 AUDIO
TITLE "Back Into You"
PERFORMER "Sammy Hagar"
INDEX 00 30:09:51
INDEX 01 30:11:32
TRACK 09 AUDIO
TITLE "Eagles Fly"
PERFORMER "Sammy Hagar"
INDEX 01 35:25:40
TRACK 10 AUDIO
TITLE "What They Gonna Say Now"
PERFORMER "Sammy Hagar"
INDEX 01 40:25:61
Код:
Код:
Exact Audio Copy V1.0 beta 3 from 29. August 2011

EAC extraction logfile from 22. July 2013, 20:46

Sammy Hagar / I Never Said Goodbye

Used drive  : PLEXTOR BD-R  PX-B950SA   Adapter: 6  ID: 0

Read mode               : Secure
Utilize accurate stream : Yes
Defeat audio cache      : Yes
Make use of C2 pointers : No

Read offset correction                      : 6
Overread into Lead-In and Lead-Out          : No
Fill up missing offset samples with silence : Yes
Delete leading and trailing silent blocks   : No
Null samples used in CRC calculations       : Yes
Used interface                              : Native Win32 interface for Win NT & 2000

Used output format : Internal WAV Routines
Sample format      : 44.100 Hz; 16 Bit; Stereo

TOC of the extracted CD

     Track |   Start  |  Length  | Start sector | End sector
    ---------------------------------------------------------
        1  |  0:00.00 |  4:09.59 |         0    |    18733
        2  |  4:09.59 |  4:50.01 |     18734    |    40484
        3  |  8:59.60 |  4:23.41 |     40485    |    60250
        4  | 13:23.26 |  3:18.53 |     60251    |    75153
        5  | 16:42.04 |  6:20.21 |     75154    |   103674
        6  | 23:02.25 |  1:45.48 |    103675    |   111597
        7  | 24:47.73 |  5:23.34 |    111598    |   135856
        8  | 30:11.32 |  5:14.08 |    135857    |   159414
        9  | 35:25.40 |  5:00.21 |    159415    |   181935
       10  | 40:25.61 |  5:08.65 |    181936    |   205100

Range status and errors

Selected range

     Filename C:\Users\Meijin\Desktop\Lossless Galaxy ALLexxess\Sammy Hagar\1987 I Never Said Goodbye (Mini LP SHM-CD Universal Japan 2013)\Sammy Hagar - I Never Said Goodbye.wav

     Peak level 100.0 %
     Extraction speed 6.8 X
     Range quality 99.9 %
     Test CRC 7139059A
     Copy CRC 7139059A
     Copy OK

No errors occurred

AccurateRip summary

Track  1  not present in database
Track  2  not present in database
Track  3  not present in database
Track  4  not present in database
Track  5  not present in database
Track  6  not present in database
Track  7  not present in database
Track  8  not present in database
Track  9  not present in database
Track 10  not present in database

None of the tracks are present in the AccurateRip database

End of status report

==== Log checksum 230E4E95D790F03FCF450CBD7B2FB6DAC1DF771C6827A6C0A042A2895B3BEEAB ====

Код:
Код:
-----------------------

DON'T MODIFY THIS FILE

-----------------------

PERFORMER: auCDtect Task Manager, ver. 1.6.0 RC1 build 1.6.0.1
Copyright (c) 2008-2010 y-soft. All rights reserved
http:/y-soft.org

ANALYZER: auCDtect: CD records authenticity detector, version 0.8.2
Copyright (c) 2004 Oleg Berngardt. All rights reserved.
Copyright (c) 2004 Alexander Djourik. All rights reserved.

FILE: Sammy Hagar - I Never Said Goodbye.flac
  Size: 319213703 Hash: 856FA4605A2C472F6A9A77A7573B22FA Accuracy: -m8
  Conclusion: CDDA 100%
  Signature: C090DAFFC16CA14A120740EE5B079E8CFBA55AD8

Правила, инструкции, FAQ!!!
Торрент  Добавлен [28 июл 2013, 13:20] Скачать торрент Магнет ссылка
Скачать торрент
[ Размер 32.08 КБ / Просмотров 71 ]

Статус  
 
Размер  1.83 ГБ
Приватный: Нет (DHT включён)
.torrent скачан  4
 


     Отправить личное сообщение
   
Страница 1 из 1
Показать сообщения за:  Поле сортировки  
Начать новую тему Ответить на тему


Сейчас этот форум просматривают: нет зарегистрированных пользователей и гости: 0


Вы не можете начинать темы
Вы не можете отвечать на сообщения
Вы не можете редактировать свои сообщения
Вы не можете удалять свои сообщения
Вы не можете добавлять вложения

Перейти:  
cron