Начать новую тему Ответить на тему
Статистика раздачи
Размер: 337.84 МБ | Добавлен: 16 мар 2014, 00:04 | Скачали: 24
Сидеров: 7  [0 байт/сек]    Личеров: 4  [0 байт/сек]
Пред. тема | След. тема 

Автор
Сообщение

СообщениеДобавлено: 16 мар 2014, 00:04 

Ответить с цитатой 

Sam Brown - Stop! (1988)

Год: 1988
Издание: A&M Records (Germany)
Каталог№: 395 195-2
Жанр: Rock
Источник(Релизёр): Bigbeer(собственный диск)
Сканы: Есть
Продолжительность: 00:54:46

Кодек: FLAC
Тип рипа: Image+.cue
Метод сжатия: Lossless
DR14
Треклист:
01. Walking Back To Me (3:44)
02. Your Love Is All (4:10)
03. Stop (4:56)
04. It Makes Me Wonder (4:36)
05. This Feeling (3:17)
06. Tea (0:46)
07. Piece Of My Luck (2:57)
08. Ball And Chain (4:37)
09. Wrap Me Up (3:14)
10. I'll Be In Love (5:16)
11. Merry Go Round (3:09)
12. Sometimes (3:08)
13. Can I Get A Witness (3:02)
14. High As A Kite (3:27)
15. Nutbush City Limits (4:28)

Описание:
Sam Brown (Сэм Браун, настоящее имя — Саманта Браун, 7 октября 1964, Лондон, Великобритания) — английская певица, автор текстов песен. Она — дочь известного британского исполнителя рок-н-ролла Джо Брауна и певицы Вики Браун (Vicki Brown). Браун известна своей экспрессивной манерой исполнения и способностью легко смешивать различные музыкальные стили. Наиболее известна её песня «Stop!» (сингл 1988 года). В том же году она выпустила одноимённый альбом; было продано более 2 миллионов копий во всём мире. Во второй альбом April Moon (Апрельская луна, 1990) вошли хиты «With A Little Love» и «Kissing Gate», показавшие рост вокального и поэтического мастерства Браун.

Браун говорила, что с тех самых пор, как к ней пришёл сценический успех, для неё не представляло интереса быть «звездой»; она предпочитала создавать музыку для себя и своих слушателей. Хотя в работе над двумя первыми альбомами Саманте это только помогало, впоследствии (и особенно сегодня) её бескомпромиссность создавала определённые препятствия Браун в работе со звукозаписывающими компаниями.

Третий альбом С.Браун, 43 Minutes, — мрачная, по всей очевидности, глубоко личная работа, написанная в то время, когда её мать умирала от рака. A&M Records, лейбл Браун в то время, был несколько разочарован альбомом и хотел добавить туда несколько потенциальных хитов, но Браун воспротивилась этому, выкупила мастер-диски и издала очень небольшой тираж альбома через свой собственный лейбл Pod Music. Хотя впоследствии (в 2004) альбом был переиздан, его очень сложно найти, и он является объектом охоты коллекционеров.

В 1995 Браун спела дуэтом с исполнителем Fish; песня «Just Good Friends» заняла высокие места в чартах (см. ниже). В 1997 году она выпустила альбом Box, выпущенный независимым лейблом Demon Records. Песни этого альбома были написаны в сотрудничестве с Марией МакКи (en:Maria McKee).

В 2000 году Саманта Браун выпустила альбом ReBoot.

Помимо сольной, она сделала успешную карьеру в качестве бэк-вокалистки, а также объединяясь с другими музыкантами. Среди прочего, она работала вместе с Pink Floyd, Deep Purple и многими другими.

В 2003 году она начала работать с Дэйвом Роверэй ((англ.) Dave Rotheray) из ансамбля The Beautiful South; на текущий момент (декабрь 2008) они выпустили два альбома.

В конце 2006 года она совершила турне по Великобритании в качестве специального гостя на шоу её отца.

В 2007 году она выпустила новый сольный альбом Of The Moment. В октябре того же года она вернулась в десятку лучших, когда её песня «Valentine Moon», включённая в альбом Best of Friends группы Jools Holland, стала девятой.
Код:
Код:
REM GENRE Rock
REM DATE 1988
REM DISCID CD0CD50F
REM COMMENT "ExactAudioCopy v1.0b3"
CATALOG 0082839519526
PERFORMER "Sam Brown"
TITLE "Stop!"
FILE "Sam Brown - Stop!.flac" WAVE
  TRACK 01 AUDIO
    TITLE "Walking Back To Me"
    PERFORMER "Sam Brown"
    INDEX 00 00:00:00
    INDEX 01 00:00:33
  TRACK 02 AUDIO
    TITLE "Your Love Is All"
    PERFORMER "Sam Brown"
    INDEX 00 03:44:48
    INDEX 01 03:44:50
  TRACK 03 AUDIO
    TITLE "Stop"
    PERFORMER "Sam Brown"
    INDEX 01 07:54:13
  TRACK 04 AUDIO
    TITLE "It Makes Me Wonder"
    PERFORMER "Sam Brown"
    INDEX 00 12:50:05
    INDEX 01 12:50:43
  TRACK 05 AUDIO
    TITLE "This Feeling"
    PERFORMER "Sam Brown"
    INDEX 00 17:26:53
    INDEX 01 17:26:55
  TRACK 06 AUDIO
    TITLE "Tea"
    PERFORMER "Sam Brown"
    INDEX 00 20:42:33
    INDEX 01 20:43:60
  TRACK 07 AUDIO
    TITLE "Piece Of My Luck"
    PERFORMER "Sam Brown"
    INDEX 00 21:26:30
    INDEX 01 21:29:25
  TRACK 08 AUDIO
    TITLE "Ball And Chain"
    PERFORMER "Sam Brown"
    INDEX 01 24:26:45
  TRACK 09 AUDIO
    TITLE "Wrap Me Up"
    PERFORMER "Sam Brown"
    INDEX 00 29:01:65
    INDEX 01 29:03:10
  TRACK 10 AUDIO
    TITLE "I'll Be In Love"
    PERFORMER "Sam Brown"
    INDEX 00 32:15:10
    INDEX 01 32:16:50
  TRACK 11 AUDIO
    TITLE "Merry Go Round"
    PERFORMER "Sam Brown"
    INDEX 01 37:32:43
  TRACK 12 AUDIO
    TITLE "Sometimes"
    PERFORMER "Sam Brown"
    INDEX 00 40:40:28
    INDEX 01 40:41:35
  TRACK 13 AUDIO
    TITLE "Can I Get A Witness"
    PERFORMER "Sam Brown"
    INDEX 00 43:47:23
    INDEX 01 43:49:50
  TRACK 14 AUDIO
    TITLE "High As A Kite"
    PERFORMER "Sam Brown"
    INDEX 01 46:51:20
    INDEX 02 50:17:51
  TRACK 15 AUDIO
    TITLE "Nutbush City Limits"
    PERFORMER "Sam Brown"
    INDEX 00 50:17:65
    INDEX 01 50:17:68

Код:
Код:
Exact Audio Copy V1.0 beta 3 from 29. August 2011

EAC extraction logfile from 13. February 2014, 19:32

Sam Brown / Stop!

Used drive  : HL-DT-STDVDRAM GT31N   Adapter: 0  ID: 0

Read mode               : Secure
Utilize accurate stream : Yes
Defeat audio cache      : Yes
Make use of C2 pointers : No

Read offset correction                      : 103
Overread into Lead-In and Lead-Out          : No
Fill up missing offset samples with silence : Yes
Delete leading and trailing silent blocks   : No
Null samples used in CRC calculations       : Yes
Used interface                              : Native Win32 interface for Win NT & 2000

Used output format              : User Defined Encoder
Selected bitrate                : 1024 kBit/s
Quality                         : High
Add ID3 tag                     : No
Command line compressor         : C:\Program Files (x86)\Exact Audio Copy\Flac\flac.exe
Additional command line options : -8 -V -T "ARTIST=%artist%" -T "TITLE=%title%" -T "ALBUM=%albumtitle%" -T "DATE=%year%" -T "TRACKNUMBER=%tracknr1%" -T "GENRE=%genre%" -T "PERFORMER=%albuminterpret%" -T "COMPOSER=%composer%" %haslyrics%--tag-from-file=LYRICS="%lyricsfile%"%haslyrics% -T "ALBUMARTIST=%albumartist%" -T "DISCNUMBER=%cdnumber%" -T "TOTALDISCS=%totalcds%" -T "TOTALTRACKS=%numtracks%" -T "COMMENT=%comment%" %source% -o %dest%

TOC of the extracted CD

     Track |   Start  |  Length  | Start sector | End sector
    ---------------------------------------------------------
        1  |  0:00.33 |  3:44.17 |        33    |    16849
        2  |  3:44.50 |  4:09.38 |     16850    |    35562
        3  |  7:54.13 |  4:56.30 |     35563    |    57792
        4  | 12:50.43 |  4:36.12 |     57793    |    78504
        5  | 17:26.55 |  3:17.05 |     78505    |    93284
        6  | 20:43.60 |  0:45.40 |     93285    |    96699
        7  | 21:29.25 |  2:57.20 |     96700    |   109994
        8  | 24:26.45 |  4:36.40 |    109995    |   130734
        9  | 29:03.10 |  3:13.40 |    130735    |   145249
       10  | 32:16.50 |  5:15.68 |    145250    |   168942
       11  | 37:32.43 |  3:08.67 |    168943    |   183109
       12  | 40:41.35 |  3:08.15 |    183110    |   197224
       13  | 43:49.50 |  3:01.45 |    197225    |   210844
       14  | 46:51.20 |  3:26.48 |    210845    |   226342
       15  | 50:17.68 |  4:27.67 |    226343    |   246434

Range status and errors

Selected range

     Filename C:\Sam Brown - Stop!\Sam Brown - Stop!.wav

     Peak level 100.0 %
     Extraction speed 2.0 X
     Range quality 99.9 %
     Test CRC EE70ED39
     Copy CRC EE70ED39
     Copy OK

No errors occurred

AccurateRip summary

Track  1  accurately ripped (confidence 28)  [3D085849]  (AR v2)
Track  2  accurately ripped (confidence 29)  [BE8848FC]  (AR v2)
Track  3  accurately ripped (confidence 28)  [F547E250]  (AR v2)
Track  4  accurately ripped (confidence 29)  [8D87B3E4]  (AR v2)
Track  5  accurately ripped (confidence 29)  [0B532DD7]  (AR v2)
Track  6  accurately ripped (confidence 29)  [524ECEBA]  (AR v2)
Track  7  accurately ripped (confidence 29)  [E8CB25AE]  (AR v2)
Track  8  accurately ripped (confidence 29)  [44047DD4]  (AR v2)
Track  9  accurately ripped (confidence 29)  [45FAA569]  (AR v2)
Track 10  accurately ripped (confidence 29)  [980EBA14]  (AR v2)
Track 11  accurately ripped (confidence 29)  [28C0FDA5]  (AR v2)
Track 12  accurately ripped (confidence 29)  [9FACC5A0]  (AR v2)
Track 13  accurately ripped (confidence 29)  [66FCBA0E]  (AR v2)
Track 14  accurately ripped (confidence 29)  [49525ACA]  (AR v2)
Track 15  accurately ripped (confidence 28)  [A3679F40]  (AR v2)

All tracks accurately ripped

End of status report

---- CUETools DB Plugin V2.1.3

[CTDB TOCID: pY4zzF9eOMavnGv9r9AJtPSN5UY-] found, Submit result: discs with pregaps not supported in this protocol version
[a6fe3ca7] (003/129) Differs in 32427 samples @00:00:13-00:00:42
[c9527281] (126/129) Differs in 32402 samples @00:00:12-00:00:42,36:48:00
You can use CUETools to repair this rip.

==== Log checksum 4C3D4933CE111E1FF3DE9D15BC08F097D4FE8703ED749DE13F8F8E16D9C7C812 ====

Код:
Код:
-----------------------

DON'T MODIFY THIS FILE

-----------------------

PERFORMER: auCDtect Task Manager, ver. 1.6.0 RC1 build 1.6.0.1
Copyright (c) 2008-2010 y-soft. All rights reserved
http:/y-soft.org

ANALYZER: auCDtect: CD records authenticity detector, version 0.8.2
Copyright (c) 2004 Oleg Berngardt. All rights reserved.
Copyright (c) 2004 Alexander Djourik. All rights reserved.

FILE: Sam Brown - Stop!.flac
  Size: 353533816 Hash: DE6AA6328C5315F619F4AFAD4056F8E2 Accuracy: -m0
  Conclusion: CDDA 100%
  Signature: E03CC6AF33650B3554A7AF23716DE38B5497A1C3

Правила, инструкции, FAQ!!!
Торрент  Добавлен [16 мар 2014, 00:04] Скачать торрент Магнет ссылка
Скачать торрент
[ Размер 14.22 КБ / Просмотров 324 ]

Статус  
 
Размер  337.84 МБ
Приватный: Нет (DHT включён)
.torrent скачан  24
 


     Отправить личное сообщение
   
Страница 1 из 1
Показать сообщения за:  Поле сортировки  
Начать новую тему Ответить на тему


Сейчас этот форум просматривают: нет зарегистрированных пользователей и гости: 1


Вы не можете начинать темы
Вы не можете отвечать на сообщения
Вы не можете редактировать свои сообщения
Вы не можете удалять свои сообщения
Вы не можете добавлять вложения

Перейти:  
cron