Начать новую тему Ответить на тему
Статистика раздачи
Размер: 3.04 ГБ | Добавлен: 05 дек 2013, 10:38 | Скачали: 1
Сидеров: 2  [0 байт/сек]    Личеров: 5  [0 байт/сек]
Пред. тема | След. тема 

Автор
Сообщение

СообщениеДобавлено: 05 дек 2013, 10:38 

Ответить с цитатой 


Rush – The Studio Albums • 1989-2007 (2013)
7 CD Box Set

Год: 2013
Жанр: Progressive Rock, Rock, Hard Rock
Продолжительность: 06:05:30
Формат: 7 CD Box Set
Страна-производитель: EU
Издатель: Rhino Entertainment, Warner International
Номер по каталогу: 8122796508 (CD: 8122796508-1~7)
Кодек: FLAC
Битрейт: Lossless
Тип рипа: image + cue
Наличие сканов: да
Источник: ALLexxess

Описание:
Дата релиза Бокс Сета - 1 октября 2013, в нем 7 студийных альбомов Rush, записанные на Atlantic / Rhino в период с 1989 по 2007 годы. Отмечу ремиксованые версии Vapor Trails (2002) - One Little Victory и Earthshine. Автор ремиксов, Дэвид Боттрилл (David Bottrill), наконец, принес определенную справедливость и ясность звучания этим трекам, заслуживающим воплощения нашей работы, - говорит Гедди Ли.
"Каждой песне была дана новая жизнь, от огненных One Little Victory, Secret Touch и Ceiling Unlimited до музыкально мелодичных Sweet Miracle и How It Is... Эти песни были духовно спасены. Спасибо, Дэвид!"



Содержание:
#777Треклист:
01. Show Don't Tell (5:01)
02. Chain Lightning (4:33)
03. The Pass (4:51)
04. War Paint (5:25)
05. Scars (4:07)
06. Presto (5:46)
07. Superconductor (4:47)
08. Anagram (For Mongo) (4:00)
09. Red Tide (4:30)
10. Hand Over Fist (4:11)
11. Available Light (5:03)

Продолжительноcть: 00:52:14
Код:
Код:
Exact Audio Copy V1.0 beta 3 from 29. August 2011

EAC extraction logfile from 27. October 2013, 13:10

Rush / Presto

Used drive  : PLEXTOR BD-R  PX-B950SA   Adapter: 6  ID: 0

Read mode               : Secure
Utilize accurate stream : Yes
Defeat audio cache      : Yes
Make use of C2 pointers : No

Read offset correction                      : 6
Overread into Lead-In and Lead-Out          : No
Fill up missing offset samples with silence : Yes
Delete leading and trailing silent blocks   : No
Null samples used in CRC calculations       : Yes
Used interface                              : Native Win32 interface for Win NT & 2000

Used output format : Internal WAV Routines
Sample format      : 44.100 Hz; 16 Bit; Stereo

TOC of the extracted CD

     Track |   Start  |  Length  | Start sector | End sector
    ---------------------------------------------------------
        1  |  0:00.00 |  5:01.15 |         0    |    22589
        2  |  5:01.15 |  4:33.09 |     22590    |    43073
        3  |  9:34.24 |  4:50.51 |     43074    |    64874
        4  | 14:25.00 |  5:24.38 |     64875    |    89212
        5  | 19:49.38 |  4:07.23 |     89213    |   107760
        6  | 23:56.61 |  5:45.74 |    107761    |   133709
        7  | 29:42.60 |  4:47.32 |    133710    |   155266
        8  | 34:30.17 |  3:59.40 |    155267    |   173231
        9  | 38:29.57 |  4:30.36 |    173232    |   193517
       10  | 43:00.18 |  4:11.06 |    193518    |   212348
       11  | 47:11.24 |  5:03.64 |    212349    |   235137

Range status and errors

Selected range

     Filename C:\Users\Meijin\Desktop\Lossless Galaxy ALLexxess\Rush\2013 The Studio Albums 1989-2007 (7CD Box Set Rhino Records)\1989 Presto\Rush - Presto.wav

     Peak level 99.9 %
     Extraction speed 7.1 X
     Range quality 100.0 %
     Test CRC 054D2ED3
     Copy CRC 054D2ED3
     Copy OK

No errors occurred

AccurateRip summary

Track  1  not present in database
Track  2  not present in database
Track  3  not present in database
Track  4  not present in database
Track  5  not present in database
Track  6  not present in database
Track  7  not present in database
Track  8  not present in database
Track  9  not present in database
Track 10  not present in database
Track 11  not present in database

None of the tracks are present in the AccurateRip database

End of status report

==== Log checksum A41B45EE1FE16A9C54F1F16C2E973CF6F89DF942A5129F5539E236269365DEE1 ====
Код:
Код:
-----------------------

DON'T MODIFY THIS FILE

-----------------------

PERFORMER: auCDtect Task Manager, ver. 1.5.1RC4 build 1.5.1.5
Copyright (c) 2008-2010 y-soft. All rights reserved
http:/y-soft.org

ANALYZER: auCDtect: CD records authenticity detector, version 0.8.2
Copyright (c) 2004 Oleg Berngardt. All rights reserved.
Copyright (c) 2004 Alexander Djourik. All rights reserved.

FILE: Rush - Presto.flac
  Size: 381620160 Hash: 52DBD6F3A62A76F54D3FF83DE44C620B Accuracy: -m0
  Conclusion: MPEG 95%
  Signature: A6AE321042AA2406B7449222A78620AC63E6ECD3
#777Треклист:
01. Dreamline (4:37)
02. Bravado (4:36)
03. Roll The Bones (5:30)
04. Face Up (3:54)
05. Where's My Thing? (Part IV, 'Gangster Of Boats' Trilogy) (3:51)
06. The Big Wheel (5:13)
07. Heresy (5:26)
08. Ghost Of A Chance (5:19)
09. Neurotica (4:40)
10. You Bet Your Life (4:59)

Продолжительноcть: 00:43:06
Код:
Код:
Exact Audio Copy V1.0 beta 3 from 29. August 2011

EAC extraction logfile from 27. October 2013, 12:44

Rush / Roll The Bones

Used drive  : PLEXTOR BD-R  PX-B950SA   Adapter: 6  ID: 0

Read mode               : Secure
Utilize accurate stream : Yes
Defeat audio cache      : Yes
Make use of C2 pointers : No

Read offset correction                      : 6
Overread into Lead-In and Lead-Out          : No
Fill up missing offset samples with silence : Yes
Delete leading and trailing silent blocks   : No
Null samples used in CRC calculations       : Yes
Used interface                              : Native Win32 interface for Win NT & 2000

Used output format : Internal WAV Routines
Sample format      : 44.100 Hz; 16 Bit; Stereo

TOC of the extracted CD

     Track |   Start  |  Length  | Start sector | End sector
    ---------------------------------------------------------
        1  |  0:00.00 |  4:37.09 |         0    |    20783
        2  |  4:37.09 |  4:35.62 |     20784    |    41470
        3  |  9:12.71 |  5:30.17 |     41471    |    66237
        4  | 14:43.13 |  3:54.00 |     66238    |    83787
        5  | 18:37.13 |  3:50.51 |     83788    |   101088
        6  | 22:27.64 |  5:13.24 |    101089    |   124587
        7  | 27:41.13 |  5:25.43 |    124588    |   149005
        8  | 33:06.56 |  5:18.73 |    149006    |   172928
        9  | 38:25.54 |  4:39.72 |    172929    |   193925
       10  | 43:05.51 |  4:59.61 |    193926    |   216411

Range status and errors

Selected range

     Filename C:\Users\Meijin\Desktop\Lossless Galaxy ALLexxess\Rush\2013 The Studio Albums 1989-2007 (7CD Box Set Rhino Records)\1991 Roll The Bones\Rush - Roll The Bones.wav

     Peak level 99.9 %
     Extraction speed 7.0 X
     Range quality 100.0 %
     Test CRC A8E8C1F8
     Copy CRC A8E8C1F8
     Copy OK

No errors occurred

AccurateRip summary

Track  1  not present in database
Track  2  not present in database
Track  3  not present in database
Track  4  not present in database
Track  5  not present in database
Track  6  not present in database
Track  7  not present in database
Track  8  not present in database
Track  9  not present in database
Track 10  not present in database

None of the tracks are present in the AccurateRip database

End of status report

==== Log checksum 79E15F153941C826828D9998041A27596448FC57A35A0411550F8BC5293DA33C ====
Код:
Код:
-----------------------

DON'T MODIFY THIS FILE

-----------------------

PERFORMER: auCDtect Task Manager, ver. 1.5.1RC4 build 1.5.1.5
Copyright (c) 2008-2010 y-soft. All rights reserved
http:/y-soft.org

ANALYZER: auCDtect: CD records authenticity detector, version 0.8.2
Copyright (c) 2004 Oleg Berngardt. All rights reserved.
Copyright (c) 2004 Alexander Djourik. All rights reserved.

FILE: Rush - Roll The Bones.flac
  Size: 353566949 Hash: C6548E07E9F19A76C087515735FC9D7D Accuracy: -m0
  Conclusion: CDDA 99%
  Signature: 135F2A102CDE8C350216F94B1787AEDBC030E861
#777Треклист:
01. Animate (6:04)
02. Stick It Out (4:31)
03. Cut To The Chase (4:49)
04. Nobody's Hero (4:56)
05. Between Sun & Moon (4:38)
06. Alien Shore (5:48)
07. The Speed Of Love (5:03)
08. Double Agent (4:53)
09. Leave That Thing Alone (4:06)
10. Cold Fire (4:27)
11. Everyday Glory (5:11)

Продолжительноcть: 00:54:23
Код:
Код:
Exact Audio Copy V1.0 beta 3 from 29. August 2011

EAC extraction logfile from 27. October 2013, 12:18

Rush / Counterparts

Used drive  : PLEXTOR BD-R  PX-B950SA   Adapter: 6  ID: 0

Read mode               : Secure
Utilize accurate stream : Yes
Defeat audio cache      : Yes
Make use of C2 pointers : No

Read offset correction                      : 6
Overread into Lead-In and Lead-Out          : No
Fill up missing offset samples with silence : Yes
Delete leading and trailing silent blocks   : No
Null samples used in CRC calculations       : Yes
Used interface                              : Native Win32 interface for Win NT & 2000

Used output format : Internal WAV Routines
Sample format      : 44.100 Hz; 16 Bit; Stereo

TOC of the extracted CD

     Track |   Start  |  Length  | Start sector | End sector
    ---------------------------------------------------------
        1  |  0:00.00 |  6:03.39 |         0    |    27263
        2  |  6:03.39 |  4:30.70 |     27264    |    47583
        3  | 10:34.34 |  4:48.53 |     47584    |    69236
        4  | 15:23.12 |  4:55.41 |     69237    |    91402
        5  | 20:18.53 |  4:37.61 |     91403    |   112238
        6  | 24:56.39 |  5:47.39 |    112239    |   138302
        7  | 30:44.03 |  5:02.62 |    138303    |   161014
        8  | 35:46.65 |  4:52.40 |    161015    |   182954
        9  | 40:39.30 |  4:05.61 |    182955    |   201390
       10  | 44:45.16 |  4:27.11 |    201391    |   221426
       11  | 49:12.27 |  5:11.08 |    221427    |   244759

Range status and errors

Selected range

     Filename C:\Users\Meijin\Desktop\Lossless Galaxy ALLexxess\Rush\2013 The Studio Albums 1989-2007 (7CD Box Set Rhino Records)\1993 Counterparts\Rush - Counterparts.wav

     Peak level 96.6 %
     Extraction speed 7.2 X
     Range quality 100.0 %
     Test CRC F06E485E
     Copy CRC F06E485E
     Copy OK

No errors occurred

AccurateRip summary

Track  1  not present in database
Track  2  not present in database
Track  3  not present in database
Track  4  not present in database
Track  5  not present in database
Track  6  not present in database
Track  7  not present in database
Track  8  not present in database
Track  9  not present in database
Track 10  not present in database
Track 11  not present in database

None of the tracks are present in the AccurateRip database

End of status report

==== Log checksum 23C6713EA5A115B06A2389D65DC2880C219A934745CDD33A7927CF0F4771902A ====
Код:
Код:
-----------------------

DON'T MODIFY THIS FILE

-----------------------

PERFORMER: auCDtect Task Manager, ver. 1.5.1RC4 build 1.5.1.5
Copyright (c) 2008-2010 y-soft. All rights reserved
http:/y-soft.org

ANALYZER: auCDtect: CD records authenticity detector, version 0.8.2
Copyright (c) 2004 Oleg Berngardt. All rights reserved.
Copyright (c) 2004 Alexander Djourik. All rights reserved.

FILE: Rush - Counterparts.flac
  Size: 399705955 Hash: EEBFF7A9086CD3DD3E63C02ECC42E078 Accuracy: -m0
  Conclusion: CDDA 100%
  Signature: 944954BEB8868901BA346A7A45E04577597B5AAF
#777Треклист:
01. Test For Echo (5:56)
02. Driven (4:27)
03. Half The World (3:43)
04. The Color Of Right (4:49)
05. Time And Motion (5:01)
06. Totem (4:59)
07. Dog Years (4:55)
08. Virtuality (5:44)
09. Resist (4:23)
10. Limbo (5:29)
11. Carve Away The Stone (4:07)

Продолжительноcть: 00:53:33
Код:
Код:
Exact Audio Copy V1.0 beta 3 from 29. August 2011

EAC extraction logfile from 27. October 2013, 11:46

Rush / Test For Echo

Used drive  : PLEXTOR BD-R  PX-B950SA   Adapter: 6  ID: 0

Read mode               : Secure
Utilize accurate stream : Yes
Defeat audio cache      : Yes
Make use of C2 pointers : No

Read offset correction                      : 6
Overread into Lead-In and Lead-Out          : No
Fill up missing offset samples with silence : Yes
Delete leading and trailing silent blocks   : No
Null samples used in CRC calculations       : Yes
Used interface                              : Native Win32 interface for Win NT & 2000

Used output format : Internal WAV Routines
Sample format      : 44.100 Hz; 16 Bit; Stereo

TOC of the extracted CD

     Track |   Start  |  Length  | Start sector | End sector
    ---------------------------------------------------------
        1  |  0:00.00 |  5:56.14 |         0    |    26713
        2  |  5:56.14 |  4:27.22 |     26714    |    46760
        3  | 10:23.36 |  3:42.55 |     46761    |    63465
        4  | 14:06.16 |  4:48.44 |     63466    |    85109
        5  | 18:54.60 |  5:01.28 |     85110    |   107712
        6  | 23:56.13 |  4:58.41 |    107713    |   130103
        7  | 28:54.54 |  4:55.05 |    130104    |   152233
        8  | 33:49.59 |  5:43.56 |    152234    |   178014
        9  | 39:33.40 |  4:23.13 |    178015    |   197752
       10  | 43:56.53 |  5:28.73 |    197753    |   222425
       11  | 49:25.51 |  4:07.30 |    222426    |   240980

Range status and errors

Selected range

     Filename C:\Users\Meijin\Desktop\Lossless Galaxy ALLexxess\Rush\2013 The Studio Albums 1989-2007 (7CD Box Set Rhino Records)\1996 Test For Echo\Rush - Test For Echo.wav

     Peak level 96.6 %
     Extraction speed 7.1 X
     Range quality 99.9 %
     Test CRC 6A5140C9
     Copy CRC 6A5140C9
     Copy OK

No errors occurred

AccurateRip summary

Track  1  not present in database
Track  2  not present in database
Track  3  not present in database
Track  4  not present in database
Track  5  not present in database
Track  6  not present in database
Track  7  not present in database
Track  8  not present in database
Track  9  not present in database
Track 10  not present in database
Track 11  not present in database

None of the tracks are present in the AccurateRip database

End of status report

==== Log checksum 1211DC9CC14CA6C999BBAE2E856C7AA1562F739C7228C8E501A70377E1264179 ====
Код:
Код:
-----------------------

DON'T MODIFY THIS FILE

-----------------------

PERFORMER: auCDtect Task Manager, ver. 1.5.1RC4 build 1.5.1.5
Copyright (c) 2008-2010 y-soft. All rights reserved
http:/y-soft.org

ANALYZER: auCDtect: CD records authenticity detector, version 0.8.2
Copyright (c) 2004 Oleg Berngardt. All rights reserved.
Copyright (c) 2004 Alexander Djourik. All rights reserved.

FILE: Rush - Test For Echo.flac
  Size: 400308663 Hash: C5D0C5B19FE4FE09F24BCF052D593841 Accuracy: -m0
  Conclusion: CDDA 100%
  Signature: 044032F42BCF039657B1BA1E3FDA60C8E310B4D3
#777Треклист:
01. One Little Victory (5:09)
02. Ceiling Unlimited (5:28)
03. Ghost Rider (5:41)
04. Peaceable Kingdom (5:24)
05. The Stars Look Down (4:28)
06. How It Is (4:05)
07. Vapor Trail (4:58)
08. Secret Touch (6:35)
09. Earthshine (5:38)
10. Sweet Miracle (3:41)
11. Nocturne (4:49)
12. Freeze (Part IV Of 'Fear') (6:21)
13. Out Of The Cradle (5:03)

Продолжительноcть: 01:07:19
Код:
Код:
Exact Audio Copy V1.0 beta 3 from 29. August 2011

EAC extraction logfile from 27. October 2013, 11:10

Rush / Vapor Trails (Remixed)

Used drive  : PLEXTOR BD-R  PX-B950SA   Adapter: 6  ID: 0

Read mode               : Secure
Utilize accurate stream : Yes
Defeat audio cache      : Yes
Make use of C2 pointers : No

Read offset correction                      : 6
Overread into Lead-In and Lead-Out          : No
Fill up missing offset samples with silence : Yes
Delete leading and trailing silent blocks   : No
Null samples used in CRC calculations       : Yes
Used interface                              : Native Win32 interface for Win NT & 2000

Used output format : Internal WAV Routines
Sample format      : 44.100 Hz; 16 Bit; Stereo

TOC of the extracted CD

     Track |   Start  |  Length  | Start sector | End sector
    ---------------------------------------------------------
        1  |  0:00.00 |  5:08.42 |         0    |    23141
        2  |  5:08.42 |  5:28.05 |     23142    |    47746
        3  | 10:36.47 |  5:40.56 |     47747    |    73302
        4  | 16:17.28 |  5:23.38 |     73303    |    97565
        5  | 21:40.66 |  4:28.35 |     97566    |   117700
        6  | 26:09.26 |  4:05.06 |    117701    |   136081
        7  | 30:14.32 |  4:57.63 |    136082    |   158419
        8  | 35:12.20 |  6:34.38 |    158420    |   188007
        9  | 41:46.58 |  5:38.02 |    188008    |   213359
       10  | 47:24.60 |  3:40.39 |    213360    |   229898
       11  | 51:05.24 |  4:49.18 |    229899    |   251591
       12  | 55:54.42 |  6:21.08 |    251592    |   280174
       13  | 62:15.50 |  5:03.72 |    280175    |   302971

Range status and errors

Selected range

     Filename C:\Users\Meijin\Desktop\Lossless Galaxy ALLexxess\Rush\2013 The Studio Albums 1989-2007 (7CD Box Set Rhino Records)\2002 Vapor Trails\Rush - Vapor Trails (Remixed).wav

     Peak level 96.6 %
     Extraction speed 8.4 X
     Range quality 100.0 %
     Test CRC DA9ADDD7
     Copy CRC DA9ADDD7
     Copy OK

No errors occurred

AccurateRip summary

Track  1  cannot be verified as accurate (confidence 5)  [BB7E8EC0], AccurateRip returned [21E9F5B7]  (AR v2)
Track  2  cannot be verified as accurate (confidence 5)  [007E4DF0], AccurateRip returned [392FD3E4]  (AR v2)
Track  3  cannot be verified as accurate (confidence 5)  [ECCCD570], AccurateRip returned [9F5D5291]  (AR v2)
Track  4  cannot be verified as accurate (confidence 5)  [6D341C33], AccurateRip returned [A7F30B53]  (AR v2)
Track  5  cannot be verified as accurate (confidence 5)  [60486E3C], AccurateRip returned [1AA9A6F9]  (AR v2)
Track  6  cannot be verified as accurate (confidence 5)  [73081EE5], AccurateRip returned [D1A6CC61]  (AR v2)
Track  7  cannot be verified as accurate (confidence 5)  [FA2AA6AA], AccurateRip returned [49288512]  (AR v2)
Track  8  cannot be verified as accurate (confidence 5)  [31533C08], AccurateRip returned [3467B316]  (AR v2)
Track  9  cannot be verified as accurate (confidence 5)  [A8D488C9], AccurateRip returned [41995D2F]  (AR v2)
Track 10  cannot be verified as accurate (confidence 5)  [99D14C62], AccurateRip returned [78A034E3]  (AR v2)
Track 11  cannot be verified as accurate (confidence 5)  [C7D1073C], AccurateRip returned [56DF5FFC]  (AR v2)
Track 12  cannot be verified as accurate (confidence 5)  [A418EE49], AccurateRip returned [09E8CBFB]  (AR v2)
Track 13  cannot be verified as accurate (confidence 5)  [6EAB9EC9], AccurateRip returned [2B065B0C]  (AR v2)

No tracks could be verified as accurate
You may have a different pressing from the one(s) in the database

End of status report

==== Log checksum 042ED8CA7A42AD7AD422F37312F3C847A1107FF4AEA73847BDF2A979FEAED6EB ====
Код:
Код:
-----------------------

DON'T MODIFY THIS FILE

-----------------------

PERFORMER: auCDtect Task Manager, ver. 1.5.1RC4 build 1.5.1.5
Copyright (c) 2008-2010 y-soft. All rights reserved
http:/y-soft.org

ANALYZER: auCDtect: CD records authenticity detector, version 0.8.2
Copyright (c) 2004 Oleg Berngardt. All rights reserved.
Copyright (c) 2004 Alexander Djourik. All rights reserved.

FILE: Rush - Vapor Trails (Remixed).flac
  Size: 506125040 Hash: A03E93862621B0DF1B903F22CFD41252 Accuracy: -m0
  Conclusion: CDDA 99%
  Signature: D8F3297DB0FDC848189B5738FB7215172EF76764
#777Треклист:
01. Summertime Blues (3:51)
02. Heart Full Of Soul (2:52)
03. For What It's Worth (3:30)
04. The Seeker (3:25)
05. Mr. Soul (3:49)
06. Seven And Seven Is (2:53)
07. Shapes Of Things (3:15)
08. Crossroads (3:28)

Продолжительноcть: 00:27:04
Код:
Код:
Exact Audio Copy V1.0 beta 3 from 29. August 2011

EAC extraction logfile from 27. October 2013, 10:34

Rush / Feedback

Used drive  : PLEXTOR BD-R  PX-B950SA   Adapter: 6  ID: 0

Read mode               : Secure
Utilize accurate stream : Yes
Defeat audio cache      : Yes
Make use of C2 pointers : No

Read offset correction                      : 6
Overread into Lead-In and Lead-Out          : No
Fill up missing offset samples with silence : Yes
Delete leading and trailing silent blocks   : No
Null samples used in CRC calculations       : Yes
Used interface                              : Native Win32 interface for Win NT & 2000

Used output format : Internal WAV Routines
Sample format      : 44.100 Hz; 16 Bit; Stereo

TOC of the extracted CD

     Track |   Start  |  Length  | Start sector | End sector
    ---------------------------------------------------------
        1  |  0:00.00 |  3:51.16 |         0    |    17340
        2  |  3:51.16 |  2:52.02 |     17341    |    30242
        3  |  6:43.18 |  3:30.27 |     30243    |    46019
        4  | 10:13.45 |  3:25.36 |     46020    |    61430
        5  | 13:39.06 |  3:49.20 |     61431    |    78625
        6  | 17:28.26 |  2:52.55 |     78626    |    91580
        7  | 20:21.06 |  3:15.31 |     91581    |   106236
        8  | 23:36.37 |  3:28.73 |    106237    |   121909

Range status and errors

Selected range

     Filename C:\Users\Meijin\Desktop\Lossless Galaxy ALLexxess\Rush\2013 The Studio Albums 1989-2007 (7CD Box Set Rhino Records)\2004 Feedback\Rush - Feedback.wav

     Peak level 100.0 %
     Extraction speed 5.9 X
     Range quality 99.9 %
     Test CRC 3CFAF450
     Copy CRC 3CFAF450
     Copy OK

No errors occurred

AccurateRip summary

Track  1  not present in database
Track  2  not present in database
Track  3  not present in database
Track  4  not present in database
Track  5  not present in database
Track  6  not present in database
Track  7  not present in database
Track  8  not present in database

None of the tracks are present in the AccurateRip database

End of status report

==== Log checksum 6E2EF429137C35AB04EA57BE18B660BED08188C747B731FA98AD23517DA17879 ====
Код:
Код:
-----------------------

DON'T MODIFY THIS FILE

-----------------------

PERFORMER: auCDtect Task Manager, ver. 1.5.1RC4 build 1.5.1.5
Copyright (c) 2008-2010 y-soft. All rights reserved
http:/y-soft.org

ANALYZER: auCDtect: CD records authenticity detector, version 0.8.2
Copyright (c) 2004 Oleg Berngardt. All rights reserved.
Copyright (c) 2004 Alexander Djourik. All rights reserved.

FILE: Rush - Feedback.flac
  Size: 204525143 Hash: BA8BEAB9DAD7A2276DA891521FFE1F1F Accuracy: -m0
  Conclusion: CDDA 100%
  Signature: 6675B914A5EBBC872552A6A56B1A4A794D02FCB2
#777Треклист:
01. Far Cry (5:19)
02. Armor And Sword (6:36)
03. Workin. Them Agents (4:47)
04. The Larger Bowl (4:09)
05. Spindrift (5:22)
06. The Main Monkey Business (6:02)
07. The Way The Wind Blows (6:28)
08. Hope (2:02)
09. Faithless (5:31)
10. Bravest Face (5:11)
11. Good News First (4:53)
12. Malignant Narcissism (2:17)
13. We Hold On (4:12)

Продолжительноcть: 01:02:48
Код:
Код:
Exact Audio Copy V1.0 beta 3 from 29. August 2011

EAC extraction logfile from 27. October 2013, 10:05

Rush / Snakes & Arrows

Used drive  : PLEXTOR BD-R  PX-B950SA   Adapter: 6  ID: 0

Read mode               : Secure
Utilize accurate stream : Yes
Defeat audio cache      : Yes
Make use of C2 pointers : No

Read offset correction                      : 6
Overread into Lead-In and Lead-Out          : No
Fill up missing offset samples with silence : Yes
Delete leading and trailing silent blocks   : No
Null samples used in CRC calculations       : Yes
Used interface                              : Native Win32 interface for Win NT & 2000

Used output format : Internal WAV Routines
Sample format      : 44.100 Hz; 16 Bit; Stereo

TOC of the extracted CD

     Track |   Start  |  Length  | Start sector | End sector
    ---------------------------------------------------------
        1  |  0:00.00 |  5:19.00 |         0    |    23924
        2  |  5:19.00 |  6:35.63 |     23925    |    53612
        3  | 11:54.63 |  4:46.61 |     53613    |    75123
        4  | 16:41.49 |  4:08.44 |     75124    |    93767
        5  | 20:50.18 |  5:21.49 |     93768    |   117891
        6  | 26:11.67 |  6:01.60 |    117892    |   145026
        7  | 32:13.52 |  6:28.01 |    145027    |   174127
        8  | 38:41.53 |  2:02.28 |    174128    |   183305
        9  | 40:44.06 |  5:30.73 |    183306    |   208128
       10  | 46:15.04 |  5:10.42 |    208129    |   231420
       11  | 51:25.46 |  4:52.45 |    231421    |   253365
       12  | 56:18.16 |  2:17.23 |    253366    |   263663
       13  | 58:35.39 |  4:12.12 |    263664    |   282575

Range status and errors

Selected range

     Filename C:\Users\Meijin\Desktop\Lossless Galaxy ALLexxess\Rush\2013 The Studio Albums 1989-2007 (7CD Box Set Rhino Records)\2007 Snakes & Arrows\Rush - Snakes & Arrows.wav

     Peak level 96.6 %
     Extraction speed 8.2 X
     Range quality 100.0 %
     Test CRC 386BF4DF
     Copy CRC 386BF4DF
     Copy OK

No errors occurred

AccurateRip summary

Track  1  not present in database
Track  2  not present in database
Track  3  not present in database
Track  4  not present in database
Track  5  not present in database
Track  6  not present in database
Track  7  not present in database
Track  8  not present in database
Track  9  not present in database
Track 10  not present in database
Track 11  not present in database
Track 12  not present in database
Track 13  not present in database

None of the tracks are present in the AccurateRip database

End of status report

==== Log checksum 15E80B26CCDCBD4C33AC0E8F5466C5B41463EA7DF2005167BDB9227F3450BE4C ====
Код:
Код:
-----------------------

DON'T MODIFY THIS FILE

-----------------------

PERFORMER: auCDtect Task Manager, ver. 1.5.1RC4 build 1.5.1.5
Copyright (c) 2008-2010 y-soft. All rights reserved
http:/y-soft.org

ANALYZER: auCDtect: CD records authenticity detector, version 0.8.2
Copyright (c) 2004 Oleg Berngardt. All rights reserved.
Copyright (c) 2004 Alexander Djourik. All rights reserved.

FILE: Rush - Snakes & Arrows.flac
  Size: 498134543 Hash: 1979821B9375AE2E664E37946C7BC0A8 Accuracy: -m0
  Conclusion: CDDA 100%
  Signature: 0502F033A98DE5747411178E79E00D8CB7BF1AA8
Правила, инструкции, FAQ!!!
Торрент  Добавлен [05 дек 2013, 10:38] Скачать торрент Магнет ссылка
Скачать торрент
[ Размер 22.82 КБ / Просмотров 31 ]

Статус  
 
Размер  3.04 ГБ
Приватный: Нет (DHT включён)
.torrent скачан  1
 


     Отправить личное сообщение
   
Страница 1 из 1
Показать сообщения за:  Поле сортировки  
Начать новую тему Ответить на тему


Сейчас этот форум просматривают: нет зарегистрированных пользователей и гости: 0


Вы не можете начинать темы
Вы не можете отвечать на сообщения
Вы не можете редактировать свои сообщения
Вы не можете удалять свои сообщения
Вы не можете добавлять вложения

Перейти:  
cron