Начать новую тему Ответить на тему
Статистика раздачи
Размер: 620.16 МБ | Добавлен: 16 мар 2014, 00:01 | Скачали: 4
Сидеров: 9  [0 байт/сек]    Личеров: 1  [0 байт/сек]
Пред. тема | След. тема 

Автор
Сообщение

СообщениеДобавлено: 16 мар 2014, 00:01 

Ответить с цитатой 

Roy Orbison - Greatest Hits - Gold (2008)

Год: 2008
Жанр: Rock'n'Roll, Ballads
Продолжительность: 01:39:15
Лейбл: Sony/BMG
Каталог: 88697340212

Кодек: FLAC (image+.cue + log)
Битрейт: Lossless
#777Трек лист:
01. Oh, Pretty Woman (3:01)
02. Twinkle Toes (2:37)
03. Only The Lonely (Know The Way I Feel) (2:26)
04. In Dreams (2:52)
05. Blue Bayou (2:32)
06. Mean Little Mama (1:58)
07. Lana (2:19)
08. Running Scared (2:14)
09. Falling (2:23)
10. Leah (2:42)
11. Indian Wedding (3:05)
12. Blue Angel (2:53)
Продолжительность – 00:31:01
Код:
Код:
Exact Audio Copy V0.99 prebeta 4 from 23. January 2008

Отчёт EAC об извлечении, выполненном 23. января 2009, 0:34

Roy Orbison / Roy Orbison Greatest Hits CD 1

Дисковод: PLEXTOR DVDR   PX-716A   Adapter: 0  ID: 0

Режим чтения                 : Достоверность
Использование точного потока : Да
Отключение кэша аудио        : Да
Использование указателей C2  : Нет

Коррекция смещения при чтении                     : 30
Способность читать области Lead-in и Lead-out     : Нет
Заполнение пропущенных сэмплов тишиной            : Да
Удаление блоков с тишиной в начале и конце        : Нет
При вычислениях CRC использовались нулевые сэмплы : Да
Интерфейс                                         : Встроенный Win32-интерфейс для Win NT/2000

Выходной формат          : Пользовательский кодировщик
Выбранный битрейт        : 128 kBit/s
Качество                 : Высокий
Добавление ID3-тэга      : Нет
Утилита сжатия           : C:\Program Files\FLAC\flac.exe
Дополнительные параметры : -8 -V -T "ARTIST=%a" -T "TITLE=%t" -T "ALBUM=%g" -T "DATE=%y" -T "TRACKNUMBER=%n" -T "GENRE=%m" -T "COMMENT=EAC FLAC -8" %s

TOC извлечённого CD

     Трек |   Старт  | Длительность | Начальный сектор | Конечный сектор
    ---------------------------------------------------------------------
       1  |  0:00.00 |    3:00.50   |           0      |      13549
       2  |  3:00.50 |    2:36.63   |       13550      |      25312
       3  |  5:37.38 |    2:26.30   |       25313      |      36292
       4  |  8:03.68 |    2:51.58   |       36293      |      49175
       5  | 10:55.51 |    2:31.41   |       49176      |      60541
       6  | 13:27.17 |    1:57.70   |       60542      |      69386
       7  | 15:25.12 |    2:18.55   |       69387      |      79791
       8  | 17:43.67 |    2:13.48   |       79792      |      89814
       9  | 19:57.40 |    2:23.13   |       89815      |     100552
      10  | 22:20.53 |    2:41.49   |      100553      |     112676
      11  | 25:02.27 |    3:05.23   |      112677      |     126574
      12  | 28:07.50 |    2:52.70   |      126575      |     139544

Характеристики диапазона извлечения и сообщения об ошибках

Выбранный диапазон

     Имя файла E:\EAC rip\Roy Orbison-Greatest Hits 3CD\CD1\Roy Orbison - Roy Orbison Greatest Hits CD 1.wav

     Пиковый уровень 100.0 %
     Качество диапазона 100.0 %
     CRC теста F68948A6
     CRC копии F68948A6
     Копирование... OK

Ошибок не произошло

AccurateRip: сводка

Трек  1  нет в базе данных
Трек  2  нет в базе данных
Трек  3  нет в базе данных
Трек  4  нет в базе данных
Трек  5  нет в базе данных
Трек  6  нет в базе данных
Трек  7  нет в базе данных
Трек  8  нет в базе данных
Трек  9  нет в базе данных
Трек 10  нет в базе данных
Трек 11  нет в базе данных
Трек 12  нет в базе данных

Ни одного трека нет в базе AccurateRip

Конец отчёта
 
Код:
Код:
-----------------------

DON'T MODIFY THIS FILE

-----------------------

PERFORMER: auCDtect Task Manager, ver. 1.6.0 RC1 build 1.6.0.1
Copyright (c) 2008-2010 y-soft. All rights reserved
http:/y-soft.org

ANALYZER: auCDtect: CD records authenticity detector, version 0.8.2
Copyright (c) 2004 Oleg Berngardt. All rights reserved.
Copyright (c) 2004 Alexander Djourik. All rights reserved.

FILE: Roy Orbison - Roy Orbison Greatest Hits CD 1.flac
  Size: 203367074 Hash: FFECB8B30C360BBD6B9A771D6D71F4AA Accuracy: -m8
  Conclusion: CDDA 99%
  Signature: 19B0E390DDDE31BBB43F5442CC717382481CD5C6
#777Трек лист:
01. Pretty One (2:21)
02. Crying (2:48)
03. Workin' For The Man (2:27)
04. (No) I'll Never Get Over You (2:10)
05. Claudette (2:34)
06. Heartache (3:14)
07. (Say) You're My Girl (2:49)
08. Almost Eighteen (2:06)
09. Communication Breakdown (3:01)
10. I'm Hurtin' (2:46)
11. Crawling Back (3:15)
12. Ride Away (3:30)
Продолжительность – 00:33:00
Код:
Код:
Exact Audio Copy V0.99 prebeta 4 from 23. January 2008

Отчёт EAC об извлечении, выполненном 23. января 2009, 1:16

Roy Orbison / Roy Orbison Greatest Hits CD 2

Дисковод: PLEXTOR DVDR   PX-716A   Adapter: 0  ID: 0

Режим чтения                 : Достоверность
Использование точного потока : Да
Отключение кэша аудио        : Да
Использование указателей C2  : Нет

Коррекция смещения при чтении                     : 30
Способность читать области Lead-in и Lead-out     : Нет
Заполнение пропущенных сэмплов тишиной            : Да
Удаление блоков с тишиной в начале и конце        : Нет
При вычислениях CRC использовались нулевые сэмплы : Да
Интерфейс                                         : Встроенный Win32-интерфейс для Win NT/2000

Выходной формат          : Пользовательский кодировщик
Выбранный битрейт        : 128 kBit/s
Качество                 : Высокий
Добавление ID3-тэга      : Нет
Утилита сжатия           : C:\Program Files\FLAC\flac.exe
Дополнительные параметры : -8 -V -T "ARTIST=%a" -T "TITLE=%t" -T "ALBUM=%g" -T "DATE=%y" -T "TRACKNUMBER=%n" -T "GENRE=%m" -T "COMMENT=EAC FLAC -8" %s

TOC извлечённого CD

     Трек |   Старт  | Длительность | Начальный сектор | Конечный сектор
    ---------------------------------------------------------------------
       1  |  0:00.00 |    2:20.40   |           0      |      10539
       2  |  2:20.40 |    2:48.11   |       10540      |      23150
       3  |  5:08.51 |    2:27.01   |       23151      |      34176
       4  |  7:35.52 |    2:09.54   |       34177      |      43905
       5  |  9:45.31 |    2:34.35   |       43906      |      55490
       6  | 12:19.66 |    3:14.27   |       55491      |      70067
       7  | 15:34.18 |    2:48.55   |       70068      |      82722
       8  | 18:22.73 |    2:05.50   |       82723      |      92147
       9  | 20:28.48 |    3:00.71   |       92148      |     105718
      10  | 23:29.44 |    2:45.44   |      105719      |     118137
      11  | 26:15.13 |    3:15.02   |      118138      |     132764
      12  | 29:30.15 |    3:29.54   |      132765      |     148493

Характеристики диапазона извлечения и сообщения об ошибках

Выбранный диапазон

     Имя файла E:\EAC rip\Roy Orbison-Greatest Hits 3CD\CD2\Roy Orbison - Roy Orbison Greatest Hits CD 2.wav

     Пиковый уровень 100.0 %
     Качество диапазона 100.0 %
     CRC теста 88B81D39
     CRC копии 88B81D39
     Копирование... OK

Ошибок не произошло

AccurateRip: сводка

Трек  1  нет в базе данных
Трек  2  нет в базе данных
Трек  3  нет в базе данных
Трек  4  нет в базе данных
Трек  5  нет в базе данных
Трек  6  нет в базе данных
Трек  7  нет в базе данных
Трек  8  нет в базе данных
Трек  9  нет в базе данных
Трек 10  нет в базе данных
Трек 11  нет в базе данных
Трек 12  нет в базе данных

Ни одного трека нет в базе AccurateRip

Конец отчёта
 
Код:
Код:
-----------------------

DON'T MODIFY THIS FILE

-----------------------

PERFORMER: auCDtect Task Manager, ver. 1.6.0 RC1 build 1.6.0.1
Copyright (c) 2008-2010 y-soft. All rights reserved
http:/y-soft.org

ANALYZER: auCDtect: CD records authenticity detector, version 0.8.2
Copyright (c) 2004 Oleg Berngardt. All rights reserved.
Copyright (c) 2004 Alexander Djourik. All rights reserved.

FILE: Roy Orbison - Roy Orbison Greatest Hits CD 2.flac
  Size: 214718102 Hash: 80861140BA2F0082F9EBBE896CFB2D83 Accuracy: -m8
  Conclusion: CDDA 100%
  Signature: A70E0F4EE2F5138C0328813CC0B4B1EAE3B164B4
 
#777Трек лист:
01. Walk On (2:54)
02. (They Call You) Gigolette (2:37)
03. Goodnight (2:30)
04. God Love You (2:55)
05. The Only One (3:56)
06. You'll Never Be Sixteen Again (2:49)
07. Go, Go, Go, (Down The Line) (2:08)
08. After The Love Has Gone (4:41)
09. A Love So Beautiful (3:34)
10. You Fool You (2:11)
11. Breakin' Up Is Breakin' My Heart (2:08)
12. It's Over (2:51)
Продолжительность – 00:35:14
Код:
Код:
Exact Audio Copy V0.99 prebeta 4 from 23. January 2008

Отчёт EAC об извлечении, выполненном 23. января 2009, 2:02

Roy Orbison / Roy Orbison Greatest Hits CD 3

Дисковод: PLEXTOR DVDR   PX-716A   Adapter: 0  ID: 0

Режим чтения                 : Достоверность
Использование точного потока : Да
Отключение кэша аудио        : Да
Использование указателей C2  : Нет

Коррекция смещения при чтении                     : 30
Способность читать области Lead-in и Lead-out     : Нет
Заполнение пропущенных сэмплов тишиной            : Да
Удаление блоков с тишиной в начале и конце        : Нет
При вычислениях CRC использовались нулевые сэмплы : Да
Интерфейс                                         : Встроенный Win32-интерфейс для Win NT/2000

Выходной формат          : Пользовательский кодировщик
Выбранный битрейт        : 128 kBit/s
Качество                 : Высокий
Добавление ID3-тэга      : Нет
Утилита сжатия           : C:\Program Files\FLAC\flac.exe
Дополнительные параметры : -8 -V -T "ARTIST=%a" -T "TITLE=%t" -T "ALBUM=%g" -T "DATE=%y" -T "TRACKNUMBER=%n" -T "GENRE=%m" -T "COMMENT=EAC FLAC -8" %s

TOC извлечённого CD

     Трек |   Старт  | Длительность | Начальный сектор | Конечный сектор
    ---------------------------------------------------------------------
       1  |  0:00.00 |    2:54.21   |           0      |      13070
       2  |  2:54.21 |    2:37.20   |       13071      |      24865
       3  |  5:31.41 |    2:30.07   |       24866      |      36122
       4  |  8:01.48 |    2:54.39   |       36123      |      49211
       5  | 10:56.12 |    3:55.43   |       49212      |      66879
       6  | 14:51.55 |    2:48.45   |       66880      |      79524
       7  | 17:40.25 |    2:08.37   |       79525      |      89161
       8  | 19:48.62 |    4:40.70   |       89162      |     110231
       9  | 24:29.57 |    3:34.18   |      110232      |     126299
      10  | 28:04.00 |    2:10.55   |      126300      |     136104
      11  | 30:14.55 |    2:08.21   |      136105      |     145725
      12  | 32:23.01 |    2:50.61   |      145726      |     158536

Характеристики диапазона извлечения и сообщения об ошибках

Выбранный диапазон

     Имя файла E:\EAC rip\Roy Orbison-Greatest Hits 3CD\CD3\Roy Orbison - Roy Orbison Greatest Hits CD 3.wav

     Пиковый уровень 100.0 %
     Качество диапазона 100.0 %
     CRC теста 5E7C2E5A
     CRC копии 5E7C2E5A
     Копирование... OK

Ошибок не произошло

AccurateRip: сводка

Трек  1  нет в базе данных
Трек  2  нет в базе данных
Трек  3  нет в базе данных
Трек  4  нет в базе данных
Трек  5  нет в базе данных
Трек  6  нет в базе данных
Трек  7  нет в базе данных
Трек  8  нет в базе данных
Трек  9  нет в базе данных
Трек 10  нет в базе данных
Трек 11  нет в базе данных
Трек 12  нет в базе данных

Ни одного трека нет в базе AccurateRip

Конец отчёта
 
Код:
Код:
-----------------------

DON'T MODIFY THIS FILE

-----------------------

PERFORMER: auCDtect Task Manager, ver. 1.6.0 RC1 build 1.6.0.1
Copyright (c) 2008-2010 y-soft. All rights reserved
http:/y-soft.org

ANALYZER: auCDtect: CD records authenticity detector, version 0.8.2
Copyright (c) 2004 Oleg Berngardt. All rights reserved.
Copyright (c) 2004 Alexander Djourik. All rights reserved.

FILE: Roy Orbison - Roy Orbison Greatest Hits CD 3.flac
  Size: 214976093 Hash: 214C029A26EAD16723B1C5A72FAE4189 Accuracy: -m8
  Conclusion: CDDA 100%
  Signature: F51BE843AED9A58D19B9772B8701723B57DB16EE
Правила, инструкции, FAQ!!!
Торрент  Добавлен [16 мар 2014, 00:01] Скачать торрент Магнет ссылка
Скачать торрент
[ Размер 14.8 КБ / Просмотров 75 ]

Статус  
 
Размер  620.16 МБ
Приватный: Нет (DHT включён)
.torrent скачан  4
 


     Отправить личное сообщение
   
Страница 1 из 1
Показать сообщения за:  Поле сортировки  
Начать новую тему Ответить на тему


Сейчас этот форум просматривают: нет зарегистрированных пользователей и гости: 0


Вы не можете начинать темы
Вы не можете отвечать на сообщения
Вы не можете редактировать свои сообщения
Вы не можете удалять свои сообщения
Вы не можете добавлять вложения

Перейти:  
cron
cron