Начать новую тему Ответить на тему
Статистика раздачи
Размер: 369.26 МБ | Добавлен: 16 мар 2014, 00:21 | Скачали: 0
Сидеров: 0  [0 байт/сек]    Личеров: 1  [0 байт/сек]
Пред. тема | След. тема 

Автор
Сообщение

СообщениеДобавлено: 16 мар 2014, 00:21 

Ответить с цитатой 

Roger Waters - Flickering Flame (2003)

Год: 2003
Жанр: Prog Rock
Продолжительность: 01:10:25

Кодек: APE
Битрейт: Lossless

Треклист:
01.Knockin' On Heaven's Door (04:06)
02.Too Much Rope (05:12)
03.The Tide Is Turning (05:24)
04.Perfect Sense Part I & II (07:22)
05.Three Wishes (06:49)
06.5:06 AM (Every Stranger's Eyes) (04:47)
07.Who Needs Information (05:55)
08.Each Small Candle (08:34)
09.Flickering Flame (demo) (06:44)
10.Towers Of Faith (06:52)
11.Radio Waves (04:31)
12.Lost Boys Calling (demo) (04:04)
Код:
Код:
REM GENRE Rock
REM DATE 2002
REM DISCID BB10810C
REM COMMENT "ExactAudioCopy v0.99pb4"
PERFORMER "Roger Waters"
TITLE "Flickering Flame"
FILE "Roger Waters - Flickering Flame.ape" WAVE
  TRACK 01 AUDIO
    TITLE "Knockin' On Heaven's Door"
    PERFORMER "Roger Waters"
    FLAGS DCP
    INDEX 01 00:00:00
  TRACK 02 AUDIO
    TITLE "Too Much Rope"
    PERFORMER "Roger Waters"
    FLAGS DCP
    INDEX 01 04:06:50
  TRACK 03 AUDIO
    TITLE "The Tide Is Turning"
    PERFORMER "Roger Waters"
    FLAGS DCP
    INDEX 01 09:18:56
  TRACK 04 AUDIO
    TITLE "Perfect Sense Part I & II"
    PERFORMER "Roger Waters"
    FLAGS DCP
    INDEX 01 14:43:29
  TRACK 05 AUDIO
    TITLE "Three Wishes"
    PERFORMER "Roger Waters"
    FLAGS DCP
    INDEX 01 22:05:50
  TRACK 06 AUDIO
    TITLE "5:06 AM (Every Stranger's Eyes)"
    PERFORMER "Roger Waters"
    FLAGS DCP
    INDEX 01 28:54:74
  TRACK 07 AUDIO
    TITLE "Who Needs Information"
    PERFORMER "Roger Waters"
    FLAGS DCP
    INDEX 01 33:42:41
  TRACK 08 AUDIO
    TITLE "Each Small Candle"
    PERFORMER "Roger Waters"
    FLAGS DCP
    INDEX 01 39:37:53
  TRACK 09 AUDIO
    TITLE "Flickering Flame (demo)"
    PERFORMER "Roger Waters"
    FLAGS DCP
    INDEX 01 48:12:28
  TRACK 10 AUDIO
    TITLE "Towers Of Faith"
    PERFORMER "Roger Waters"
    FLAGS DCP
    INDEX 01 54:57:18
  TRACK 11 AUDIO
    TITLE "Radio Waves"
    PERFORMER "Roger Waters"
    FLAGS DCP
    INDEX 01 61:49:44
  TRACK 12 AUDIO
    TITLE "Lost Boys Calling (demo)"
    PERFORMER "Roger Waters"
    FLAGS DCP
    INDEX 01 66:20:54
Код:
Код:
Exact Audio Copy V0.99 prebeta 4 from 23. January 2008

Отчёт EAC об извлечении, выполненном 8. декабря 2008, 14:58

Roger Waters / Flickering Flame

Дисковод: ASUS    DRW-1608P2S   Adapter: 0  ID: 0

Режим чтения                 : Достоверность
Использование точного потока : Да
Отключение кэша аудио        : Да
Использование указателей C2  : Нет

Коррекция смещения при чтении                     : 48
Способность читать области Lead-in и Lead-out     : Нет
Заполнение пропущенных сэмплов тишиной            : Да
Удаление блоков с тишиной в начале и конце        : Нет
При вычислениях CRC использовались нулевые сэмплы : Да
Интерфейс                                         : Установленный внешний ASPI-интерфейс

Выходной формат : Внутренние WAV-операции
Формат сэмплов  : 44.100 Гц; 16 бит; стерео

TOC извлечённого CD

     Трек |   Старт  | Длительность | Начальный сектор | Конечный сектор
    ---------------------------------------------------------------------
       1  |  0:00.00 |    4:06.50   |           0      |      18499
       2  |  4:06.50 |    5:12.06   |       18500      |      41905
       3  |  9:18.56 |    5:24.48   |       41906      |      66253
       4  | 14:43.29 |    7:22.21   |       66254      |      99424
       5  | 22:05.50 |    6:49.24   |       99425      |     130123
       6  | 28:54.74 |    4:47.42   |      130124      |     151690
       7  | 33:42.41 |    5:55.12   |      151691      |     178327
       8  | 39:37.53 |    8:34.50   |      178328      |     216927
       9  | 48:12.28 |    6:44.65   |      216928      |     247292
      10  | 54:57.18 |    6:52.26   |      247293      |     278218
      11  | 61:49.44 |    4:31.10   |      278219      |     298553
      12  | 66:20.54 |    4:04.37   |      298554      |     316890

Характеристики диапазона извлечения и сообщения об ошибках

Выбранный диапазон

     Имя файла F:\Roger Waters - Flickering Flame.wav

     Пиковый уровень 100.0 %
     Качество диапазона 99.9 %
     CRC копии 218F9645
     Копирование... OK

Ошибок не произошло

Конец отчёта
Код:
Код:
DON'T MODIFY THIS FILE

-----------------------

PERFORMER: auCDtect Task Manager, ver. 1.5.1RC6 build 1.5.1.7
Copyright (c) 2008-2010 y-soft. All rights reserved
http:/y-soft.org

ANALYZER: auCDtect: CD records authenticity detector, version 0.8.2
Copyright (c) 2004 Oleg Berngardt. All rights reserved.
Copyright (c) 2004 Alexander Djourik. All rights reserved.

FILE: Roger Waters - Flickering Flame.ape
  Size: 373477884 Hash: 6A269DBCD244877B157E68CE3C93CFE0 Accuracy: -m0
  Conclusion: CDDA 100%
  Signature: F1209D6967D14689EEAEDC061E0B891C31200829
Правила, инструкции, FAQ!!!
Торрент  Добавлен [16 мар 2014, 00:21] Скачать торрент Магнет ссылка
Скачать торрент
[ Размер 15.87 КБ / Просмотров 43 ]

Статус  
 
Размер  369.26 МБ
Приватный: Нет (DHT включён)
.torrent скачан  0
 


     Отправить личное сообщение
   
Страница 1 из 1
Показать сообщения за:  Поле сортировки  
Начать новую тему Ответить на тему


Сейчас этот форум просматривают: нет зарегистрированных пользователей и гости: 0


Вы не можете начинать темы
Вы не можете отвечать на сообщения
Вы не можете редактировать свои сообщения
Вы не можете удалять свои сообщения
Вы не можете добавлять вложения

Перейти:  
cron