Начать новую тему Ответить на тему
Статистика раздачи
Размер: 4.63 ГБ | Добавлен: 14 янв 2014, 14:00 | Скачали: 3
Сидеров: 4  [0 байт/сек]    Личеров: 2  [0 байт/сек]
Пред. тема | След. тема 

Автор
Сообщение

СообщениеДобавлено: 14 янв 2014, 14:00 

Ответить с цитатой 

Roger Taylor (ex. QUEEN) - The Lot (2013)

Год издания:
2013
Страна: England
Издатель: Nightjar, Virgin, EMI, Universal
Каталог: 00602537537143
Страна-производитель диска: EU, Germany
Жанр: Rock
Продолжительность: 11:58:33

Кодек: FLAC
Битрейт: Lossless
Тип рипа: image +.cue +.log
Наличие сканов: да (JPG, 600dpi)
rip by gerrV спасибо

Треклист:
#777
Продолжительноcть:
00:40:25
Трек лист:
01. No Violins - 4:33
02. Laugh Or Cry - 3:07
03. Future Management - 2:58
04. Let's Get Crazy - 3:43
05. My Country I & II - 6:58
06. Good Times Are Now - 3:30
07. Magic Is Loose - 3:25
08. Interlude In Constantinople - 2:05
09. Airheads - 3:42
10. Fun In Space - 6:25
Код:
Код:
Exact Audio Copy V1.0 beta 3 from 29. August 2011

EAC extraction logfile from 10. January 2014, 20:54

Roger Taylor / Fun In Space

Used drive  : ATAPI   iHAS124   B   Adapter: 2  ID: 0

Read mode               : Secure
Utilize accurate stream : Yes
Defeat audio cache      : Yes
Make use of C2 pointers : No

Read offset correction                      : 6
Overread into Lead-In and Lead-Out          : No
Fill up missing offset samples with silence : Yes
Delete leading and trailing silent blocks   : No
Null samples used in CRC calculations       : Yes
Used interface                              : Native Win32 interface for Win NT & 2000

Used output format              : User Defined Encoder
Selected bitrate                : 1024 kBit/s
Quality                         : High
Add ID3 tag                     : No
Command line compressor         : C:\Program Files (x86)\Exact Audio Copy\FLAC\FLAC.EXE
Additional command line options : -8 -V -T "ARTIST=%artist%" -T "TITLE=%title%" -T "ALBUM=%albumtitle%" -T "DATE=%year%" -T "TRACKNUMBER=%tracknr%" -T "GENRE=%genre%" -T "PERFORMER=%albuminterpret%" -T "COMPOSER=%composer%" %haslyrics%--tag-from-file=LYRICS="%lyricsfile%"%haslyrics% -T "ALBUMARTIST=%albumartist%" -T "DISCNUMBER=%cdnumber%" -T "TOTALDISCS=%totalcds%" -T "TOTALTRACKS=%numtracks%" -T "COMMENT=%comment%" %source% -o %dest%

TOC of the extracted CD

     Track |   Start  |  Length  | Start sector | End sector
    ---------------------------------------------------------
        1  |  0:00.00 |  4:33.00 |         0    |    20474
        2  |  4:33.00 |  3:07.15 |     20475    |    34514
        3  |  7:40.15 |  2:58.23 |     34515    |    47887
        4  | 10:38.38 |  3:42.52 |     47888    |    64589
        5  | 14:21.15 |  6:58.11 |     64590    |    95950
        6  | 21:19.26 |  3:29.49 |     95951    |   111674
        7  | 24:49.00 |  3:24.41 |    111675    |   127015
        8  | 28:13.41 |  2:04.42 |    127016    |   136357
        9  | 30:18.08 |  3:41.48 |    136358    |   152980
       10  | 33:59.56 |  6:25.35 |    152981    |   181890

Range status and errors

Selected range

     Filename G:\CD\Roger Taylor - Fun In Space.wav

     Peak level 98.9 %
     Extraction speed 5.4 X
     Range quality 100.0 %
     Test CRC 6F152902
     Copy CRC 6F152902
     Copy OK

No errors occurred

AccurateRip summary

Track  1  accurately ripped (confidence 2)  [D5294FF7]  (AR v2)
Track  2  accurately ripped (confidence 2)  [AE4FB610]  (AR v2)
Track  3  accurately ripped (confidence 2)  [E39FA38F]  (AR v2)
Track  4  accurately ripped (confidence 2)  [FDE2C642]  (AR v2)
Track  5  accurately ripped (confidence 2)  [2B1AF571]  (AR v2)
Track  6  accurately ripped (confidence 2)  [8E90AA2E]  (AR v2)
Track  7  accurately ripped (confidence 2)  [25E5B2BE]  (AR v2)
Track  8  accurately ripped (confidence 2)  [508DCAC8]  (AR v2)
Track  9  accurately ripped (confidence 2)  [7BD327B5]  (AR v2)
Track 10  accurately ripped (confidence 2)  [9CD1974A]  (AR v2)

All tracks accurately ripped

End of status report

==== Log checksum 480054086289C1A90CE45927160F372F1D945B2B52A85DBC674CDABE589CA9DC ====
Код:
Код:
-----------------------

DON'T MODIFY THIS FILE

-----------------------

PERFORMER: auCDtect Task Manager, ver. 1.6.0 RC1 build 1.6.0.1
Copyright (c) 2008-2010 y-soft. All rights reserved
http:/y-soft.org

ANALYZER: auCDtect: CD records authenticity detector, version 0.8.2
Copyright (c) 2004 Oleg Berngardt. All rights reserved.
Copyright (c) 2004 Alexander Djourik. All rights reserved.

FILE: Roger Taylor - Fun In Space.flac
  Size: 283663069 Hash: 93C7963D44678E3BE774BE77C5A5F1DC Accuracy: -m0
  Conclusion: CDDA 100%
  Signature: BA90E9C8FCDAD8E5F8B9A520D4D07FD059E5D7DE
#777
Продолжительноcть:
00:42:05
Трек лист:
01. Strange Frontier - 4:17
02. Beautiful Dreams - 4:25
03. Man On Fire - 4:06
04. Racing In The Streets - 4:28
05. Masters Of War - 3:50
06. Killing Time - 4:59
07. Abandonfire - 4:14
08. Young Love - 3:23
09. It's An Illusion - 4:03
10. I Cry For You - 4:22
Код:
Код:
Exact Audio Copy V1.0 beta 3 from 29. August 2011

EAC extraction logfile from 10. January 2014, 21:12

Roger Taylor / Strange Frontier

Used drive  : ATAPI   iHAS124   B   Adapter: 2  ID: 0

Read mode               : Secure
Utilize accurate stream : Yes
Defeat audio cache      : Yes
Make use of C2 pointers : No

Read offset correction                      : 6
Overread into Lead-In and Lead-Out          : No
Fill up missing offset samples with silence : Yes
Delete leading and trailing silent blocks   : No
Null samples used in CRC calculations       : Yes
Used interface                              : Native Win32 interface for Win NT & 2000

Used output format              : User Defined Encoder
Selected bitrate                : 1024 kBit/s
Quality                         : High
Add ID3 tag                     : No
Command line compressor         : C:\Program Files (x86)\Exact Audio Copy\FLAC\FLAC.EXE
Additional command line options : -8 -V -T "ARTIST=%artist%" -T "TITLE=%title%" -T "ALBUM=%albumtitle%" -T "DATE=%year%" -T "TRACKNUMBER=%tracknr%" -T "GENRE=%genre%" -T "PERFORMER=%albuminterpret%" -T "COMPOSER=%composer%" %haslyrics%--tag-from-file=LYRICS="%lyricsfile%"%haslyrics% -T "ALBUMARTIST=%albumartist%" -T "DISCNUMBER=%cdnumber%" -T "TOTALDISCS=%totalcds%" -T "TOTALTRACKS=%numtracks%" -T "COMMENT=%comment%" %source% -o %dest%

TOC of the extracted CD

     Track |   Start  |  Length  | Start sector | End sector
    ---------------------------------------------------------
        1  |  0:00.00 |  4:16.63 |         0    |    19262
        2  |  4:16.63 |  4:24.59 |     19263    |    39121
        3  |  8:41.47 |  4:05.73 |     39122    |    57569
        4  | 12:47.45 |  4:27.45 |     57570    |    77639
        5  | 17:15.15 |  3:49.63 |     77640    |    94877
        6  | 21:05.03 |  4:58.65 |     94878    |   117292
        7  | 26:03.68 |  4:13.40 |    117293    |   136307
        8  | 30:17.33 |  3:23.05 |    136308    |   151537
        9  | 33:40.38 |  4:02.50 |    151538    |   169737
       10  | 37:43.13 |  4:21.56 |    169738    |   189368

Range status and errors

Selected range

     Filename G:\CD\Roger Taylor - Strange Frontier.wav

     Peak level 98.7 %
     Extraction speed 5.4 X
     Range quality 100.0 %
     Test CRC 9E7271B2
     Copy CRC 9E7271B2
     Copy OK

No errors occurred

AccurateRip summary

Track  1  accurately ripped (confidence 2)  [9FCFA708]  (AR v2)
Track  2  accurately ripped (confidence 2)  [0E480D8E]  (AR v2)
Track  3  accurately ripped (confidence 2)  [7B6AED39]  (AR v2)
Track  4  accurately ripped (confidence 2)  [33575921]  (AR v2)
Track  5  accurately ripped (confidence 2)  [54BCC138]  (AR v2)
Track  6  accurately ripped (confidence 2)  [2621C005]  (AR v2)
Track  7  accurately ripped (confidence 2)  [1B8C8959]  (AR v2)
Track  8  accurately ripped (confidence 2)  [4A787786]  (AR v2)
Track  9  accurately ripped (confidence 2)  [143334A3]  (AR v2)
Track 10  accurately ripped (confidence 2)  [5244048E]  (AR v2)

All tracks accurately ripped

End of status report

==== Log checksum ECD9DE4831638FD205ED82A91BE3084092C459DF0920A429EE173A2AA5EA287A ====
Код:
Код:
-----------------------

DON'T MODIFY THIS FILE

-----------------------

PERFORMER: auCDtect Task Manager, ver. 1.6.0 RC1 build 1.6.0.1
Copyright (c) 2008-2010 y-soft. All rights reserved
http:/y-soft.org

ANALYZER: auCDtect: CD records authenticity detector, version 0.8.2
Copyright (c) 2004 Oleg Berngardt. All rights reserved.
Copyright (c) 2004 Alexander Djourik. All rights reserved.

FILE: Roger Taylor - Strange Frontier.flac
  Size: 298151339 Hash: 45FC3AD1FB729809D8001CDD1B400038 Accuracy: -m0
  Conclusion: CDDA 100%
  Signature: 4F39ABE62A5EB16D8222EF68C08C7A4CDF750620
#777
Продолжительноcть:
00:41:58
Трек лист:

01. Shove It - 3:28
02. Cowboys And Indians - 5:55
03. Contact - 4:52
04. Heaven For Everyone - 4:55
05. Stand Up For Love - 4:23
06. Love On A Tightrope - 4:49
07. Love Lies Bleeding - 4:26
08. Rough Justice - 3:22
Session Out-Takes:
09. Shove It (the 2nd shelf mix - reprise) - 5:49
Код:
Код:
Exact Audio Copy V1.0 beta 3 from 29. August 2011

EAC extraction logfile from 10. January 2014, 21:32

The Cross / Shove It

Used drive  : ATAPI   iHAS124   B   Adapter: 2  ID: 0

Read mode               : Secure
Utilize accurate stream : Yes
Defeat audio cache      : Yes
Make use of C2 pointers : No

Read offset correction                      : 6
Overread into Lead-In and Lead-Out          : No
Fill up missing offset samples with silence : Yes
Delete leading and trailing silent blocks   : No
Null samples used in CRC calculations       : Yes
Used interface                              : Native Win32 interface for Win NT & 2000

Used output format              : User Defined Encoder
Selected bitrate                : 1024 kBit/s
Quality                         : High
Add ID3 tag                     : No
Command line compressor         : C:\Program Files (x86)\Exact Audio Copy\FLAC\FLAC.EXE
Additional command line options : -8 -V -T "ARTIST=%artist%" -T "TITLE=%title%" -T "ALBUM=%albumtitle%" -T "DATE=%year%" -T "TRACKNUMBER=%tracknr%" -T "GENRE=%genre%" -T "PERFORMER=%albuminterpret%" -T "COMPOSER=%composer%" %haslyrics%--tag-from-file=LYRICS="%lyricsfile%"%haslyrics% -T "ALBUMARTIST=%albumartist%" -T "DISCNUMBER=%cdnumber%" -T "TOTALDISCS=%totalcds%" -T "TOTALTRACKS=%numtracks%" -T "COMMENT=%comment%" %source% -o %dest%

TOC of the extracted CD

     Track |   Start  |  Length  | Start sector | End sector
    ---------------------------------------------------------
        1  |  0:00.00 |  3:27.68 |         0    |    15592
        2  |  3:27.68 |  5:54.50 |     15593    |    42192
        3  |  9:22.43 |  4:51.50 |     42193    |    64067
        4  | 14:14.18 |  4:54.61 |     64068    |    86178
        5  | 19:09.04 |  4:23.04 |     86179    |   105907
        6  | 23:32.08 |  4:49.14 |    105908    |   127596
        7  | 28:21.22 |  4:25.41 |    127597    |   147512
        8  | 32:46.63 |  3:22.28 |    147513    |   162690
        9  | 36:09.16 |  5:48.56 |    162691    |   188846

Range status and errors

Selected range

     Filename G:\CD\The Cross - Shove It.wav

     Peak level 98.9 %
     Extraction speed 5.4 X
     Range quality 100.0 %
     Test CRC C216048F
     Copy CRC C216048F
     Copy OK

No errors occurred

AccurateRip summary

Track  1  accurately ripped (confidence 2)  [7F36E8B3]  (AR v2)
Track  2  accurately ripped (confidence 2)  [B1FDB1B6]  (AR v2)
Track  3  accurately ripped (confidence 2)  [2909D6A4]  (AR v2)
Track  4  accurately ripped (confidence 2)  [18828E74]  (AR v2)
Track  5  accurately ripped (confidence 2)  [86FFA391]  (AR v2)
Track  6  accurately ripped (confidence 2)  [0FD9846A]  (AR v2)
Track  7  accurately ripped (confidence 2)  [8F2FE5CB]  (AR v2)
Track  8  accurately ripped (confidence 2)  [F5585ABC]  (AR v2)
Track  9  accurately ripped (confidence 2)  [C43C306F]  (AR v2)

All tracks accurately ripped

End of status report

==== Log checksum 01EF7004B6A7809001AEF94D166E1C54B2C16BD82BDA58B343C6FFECF4B1471D ====
Код:
Код:
-----------------------

DON'T MODIFY THIS FILE

-----------------------

PERFORMER: auCDtect Task Manager, ver. 1.6.0 RC1 build 1.6.0.1
Copyright (c) 2008-2010 y-soft. All rights reserved
http:/y-soft.org

ANALYZER: auCDtect: CD records authenticity detector, version 0.8.2
Copyright (c) 2004 Oleg Berngardt. All rights reserved.
Copyright (c) 2004 Alexander Djourik. All rights reserved.

FILE: The Cross - Shove It.flac
  Size: 291424494 Hash: 95807054088FCAC69AE6020491A4D0DF Accuracy: -m0
  Conclusion: CDDA 100%
  Signature: C1B933F384D5FFAF6D3A677232E5B446CB45B9E0
#777Продолжительноcть: 00:44:30
Трек лист:
01. Top Of The World Ma - 3:32
02. Liar - 4:29
03. Closer To You - 3:13
04. Breakdown - 3:54
05. Penetration Guru - 3:46
06. Power To Love - 4:02
07. Sister Blue - 4:15
08. Foxy Lady - 3:27
09. Better Things - 2:46
10. Passion For Trash - 2:35
11. Old Men (Lay Down) - 4:55
12. Final Destination - 3:35
Код:
Код:
Exact Audio Copy V1.0 beta 3 from 29. August 2011

EAC extraction logfile from 10. January 2014, 22:48

The Cross / Mad, Bad, And Dangerous To Know

Used drive  : ATAPI   iHAS124   B   Adapter: 2  ID: 0

Read mode               : Secure
Utilize accurate stream : Yes
Defeat audio cache      : Yes
Make use of C2 pointers : No

Read offset correction                      : 6
Overread into Lead-In and Lead-Out          : No
Fill up missing offset samples with silence : Yes
Delete leading and trailing silent blocks   : No
Null samples used in CRC calculations       : Yes
Used interface                              : Native Win32 interface for Win NT & 2000

Used output format              : User Defined Encoder
Selected bitrate                : 1024 kBit/s
Quality                         : High
Add ID3 tag                     : No
Command line compressor         : C:\Program Files (x86)\Exact Audio Copy\FLAC\FLAC.EXE
Additional command line options : -8 -V -T "ARTIST=%artist%" -T "TITLE=%title%" -T "ALBUM=%albumtitle%" -T "DATE=%year%" -T "TRACKNUMBER=%tracknr%" -T "GENRE=%genre%" -T "PERFORMER=%albuminterpret%" -T "COMPOSER=%composer%" %haslyrics%--tag-from-file=LYRICS="%lyricsfile%"%haslyrics% -T "ALBUMARTIST=%albumartist%" -T "DISCNUMBER=%cdnumber%" -T "TOTALDISCS=%totalcds%" -T "TOTALTRACKS=%numtracks%" -T "COMMENT=%comment%" %source% -o %dest%

TOC of the extracted CD

     Track |   Start  |  Length  | Start sector | End sector
    ---------------------------------------------------------
        1  |  0:00.00 |  3:31.65 |         0    |    15889
        2  |  3:31.65 |  4:28.60 |     15890    |    36049
        3  |  8:00.50 |  3:12.73 |     36050    |    50522
        4  | 11:13.48 |  3:53.56 |     50523    |    68053
        5  | 15:07.29 |  3:45.69 |     68054    |    84997
        6  | 18:53.23 |  4:02.14 |     84998    |   103161
        7  | 22:55.37 |  4:15.32 |    103162    |   122318
        8  | 27:10.69 |  3:27.17 |    122319    |   137860
        9  | 30:38.11 |  2:46.19 |    137861    |   150329
       10  | 33:24.30 |  2:34.58 |    150330    |   161937
       11  | 35:59.13 |  4:55.05 |    161938    |   184067
       12  | 40:54.18 |  3:35.28 |    184068    |   200220

Range status and errors

Selected range

     Filename G:\CD\The Cross - Mad, Bad, And Dangerous To Know.wav

     Peak level 98.9 %
     Extraction speed 5.4 X
     Range quality 99.9 %
     Test CRC F213CE68
     Copy CRC F213CE68
     Copy OK

No errors occurred

AccurateRip summary

Track  1  accurately ripped (confidence 2)  [E720EE98]  (AR v2)
Track  2  accurately ripped (confidence 2)  [D350DF89]  (AR v2)
Track  3  accurately ripped (confidence 2)  [5EBD1F2E]  (AR v2)
Track  4  accurately ripped (confidence 2)  [0DC0784C]  (AR v2)
Track  5  accurately ripped (confidence 2)  [8FFDB24B]  (AR v2)
Track  6  accurately ripped (confidence 2)  [B5375501]  (AR v2)
Track  7  accurately ripped (confidence 2)  [810E76E4]  (AR v2)
Track  8  accurately ripped (confidence 2)  [70734F25]  (AR v2)
Track  9  accurately ripped (confidence 2)  [D7A9ECF6]  (AR v2)
Track 10  accurately ripped (confidence 2)  [6296A5CA]  (AR v2)
Track 11  accurately ripped (confidence 2)  [C151C917]  (AR v2)
Track 12  accurately ripped (confidence 2)  [4C9B7896]  (AR v2)

All tracks accurately ripped

End of status report

==== Log checksum 2929B69D5F84068768293F38EB3DF0DCBBC3351CED3E5B568DBBEA3C2963BE76 ====
Код:
Код:
-----------------------

DON'T MODIFY THIS FILE

-----------------------

PERFORMER: auCDtect Task Manager, ver. 1.6.0 RC1 build 1.6.0.1
Copyright (c) 2008-2010 y-soft. All rights reserved
http:/y-soft.org

ANALYZER: auCDtect: CD records authenticity detector, version 0.8.2
Copyright (c) 2004 Oleg Berngardt. All rights reserved.
Copyright (c) 2004 Alexander Djourik. All rights reserved.

FILE: The Cross - Mad, Bad, And Dangerous To Know.flac
  Size: 303160753 Hash: 4C015CA7375A630F718D945E3BEFF7EB Accuracy: -m0
  Conclusion: CDDA 100%
  Signature: 7116DC779A791D7DC8B7D47B44BEDB1836346E66
#777
Продолжительноcть:
00:45:07
Трек лист:
01. Bad Attitude - 4:45
02. New Dark Ages - 4:58
03. Dirty Mind - 3:31
04. Baby It's Alright - 4:06
05. Ain't Put Nothin Down - 4:31
06. The Also Rans - 5:28
07. Millionaire - 3:43
08. Put It All Down To Love - 3:35
09. Hand Of Fools - 4:35
10. Life Changes - 5:54
Код:
Код:
Exact Audio Copy V1.0 beta 3 from 29. August 2011

EAC extraction logfile from 10. January 2014, 22:14

The Cross / Blue Rock

Used drive  : ATAPI   iHAS124   B   Adapter: 2  ID: 0

Read mode               : Secure
Utilize accurate stream : Yes
Defeat audio cache      : Yes
Make use of C2 pointers : No

Read offset correction                      : 6
Overread into Lead-In and Lead-Out          : No
Fill up missing offset samples with silence : Yes
Delete leading and trailing silent blocks   : No
Null samples used in CRC calculations       : Yes
Used interface                              : Native Win32 interface for Win NT & 2000

Used output format              : User Defined Encoder
Selected bitrate                : 1024 kBit/s
Quality                         : High
Add ID3 tag                     : No
Command line compressor         : C:\Program Files (x86)\Exact Audio Copy\FLAC\FLAC.EXE
Additional command line options : -8 -V -T "ARTIST=%artist%" -T "TITLE=%title%" -T "ALBUM=%albumtitle%" -T "DATE=%year%" -T "TRACKNUMBER=%tracknr%" -T "GENRE=%genre%" -T "PERFORMER=%albuminterpret%" -T "COMPOSER=%composer%" %haslyrics%--tag-from-file=LYRICS="%lyricsfile%"%haslyrics% -T "ALBUMARTIST=%albumartist%" -T "DISCNUMBER=%cdnumber%" -T "TOTALDISCS=%totalcds%" -T "TOTALTRACKS=%numtracks%" -T "COMMENT=%comment%" %source% -o %dest%

TOC of the extracted CD

     Track |   Start  |  Length  | Start sector | End sector
    ---------------------------------------------------------
        1  |  0:00.00 |  4:45.37 |         0    |    21411
        2  |  4:45.37 |  4:57.41 |     21412    |    43727
        3  |  9:43.03 |  3:30.62 |     43728    |    59539
        4  | 13:13.65 |  4:06.22 |     59540    |    78011
        5  | 17:20.12 |  4:31.18 |     78012    |    98354
        6  | 21:51.30 |  5:28.06 |     98355    |   122960
        7  | 27:19.36 |  3:43.19 |    122961    |   139704
        8  | 31:02.55 |  3:35.07 |    139705    |   155836
        9  | 34:37.62 |  4:34.73 |    155837    |   176459
       10  | 39:12.60 |  5:54.36 |    176460    |   203045

Range status and errors

Selected range

     Filename G:\CD\The Cross - Blue Rock.wav

     Peak level 98.9 %
     Extraction speed 3.0 X
     Range quality 100.0 %
     Test CRC 94246D6C
     Copy CRC 94246D6C
     Copy OK

No errors occurred

AccurateRip summary

Track  1  accurately ripped (confidence 2)  [28674955]  (AR v2)
Track  2  accurately ripped (confidence 2)  [DDF05734]  (AR v2)
Track  3  accurately ripped (confidence 2)  [4266C1D4]  (AR v2)
Track  4  accurately ripped (confidence 2)  [94C5AB29]  (AR v2)
Track  5  accurately ripped (confidence 2)  [4725915D]  (AR v2)
Track  6  accurately ripped (confidence 2)  [0068866B]  (AR v2)
Track  7  accurately ripped (confidence 2)  [153B686E]  (AR v2)
Track  8  accurately ripped (confidence 2)  [C30566CB]  (AR v2)
Track  9  accurately ripped (confidence 2)  [9EF9D390]  (AR v2)
Track 10  accurately ripped (confidence 2)  [51621D20]  (AR v2)

All tracks accurately ripped

End of status report

==== Log checksum 90B27EF3E8625F8857F34EFC7F84410B2A3871114EED305070463E0BE5B1EFDD ====
Код:
Код:
-----------------------

DON'T MODIFY THIS FILE

-----------------------

PERFORMER: auCDtect Task Manager, ver. 1.6.0 RC1 build 1.6.0.1
Copyright (c) 2008-2010 y-soft. All rights reserved
http:/y-soft.org

ANALYZER: auCDtect: CD records authenticity detector, version 0.8.2
Copyright (c) 2004 Oleg Berngardt. All rights reserved.
Copyright (c) 2004 Alexander Djourik. All rights reserved.

FILE: The Cross - Blue Rock.flac
  Size: 334738293 Hash: 021CE2AFFA31082F39E1072684815900 Accuracy: -m0
  Conclusion: CDDA 100%
  Signature: F9C4B98F0813CFF414D0B48A2120A59278A1CBDA
#777
Продолжительноcть:
00:49:05
Трек лист:

01. Nazis 1994 - 2:39
02. Happiness - 3:26
03. Revelations - 3:53
04. Touch the Sky - 5:06
05. Foreign Sand - 6:52
06. Freedom Train - 6:17
07. ‘You Had to Be There’ - 2:58
08. The Key - 4:24
09. Everybody Hurts Sometime - 3:03
10. Loneliness... - 2:25
11. Dear Mr Murdoch - 4:28
12. Old Friends - 3:34
Код:
Код:
Exact Audio Copy V1.0 beta 3 from 29. August 2011

EAC extraction logfile from 10. January 2014, 23:19

Roger Taylor / Happiness?

Used drive  : ATAPI   iHAS124   B   Adapter: 2  ID: 0

Read mode               : Secure
Utilize accurate stream : Yes
Defeat audio cache      : Yes
Make use of C2 pointers : No

Read offset correction                      : 6
Overread into Lead-In and Lead-Out          : No
Fill up missing offset samples with silence : Yes
Delete leading and trailing silent blocks   : No
Null samples used in CRC calculations       : Yes
Used interface                              : Native Win32 interface for Win NT & 2000

Used output format              : User Defined Encoder
Selected bitrate                : 1024 kBit/s
Quality                         : High
Add ID3 tag                     : No
Command line compressor         : C:\Program Files (x86)\Exact Audio Copy\FLAC\FLAC.EXE
Additional command line options : -8 -V -T "ARTIST=%artist%" -T "TITLE=%title%" -T "ALBUM=%albumtitle%" -T "DATE=%year%" -T "TRACKNUMBER=%tracknr%" -T "GENRE=%genre%" -T "PERFORMER=%albuminterpret%" -T "COMPOSER=%composer%" %haslyrics%--tag-from-file=LYRICS="%lyricsfile%"%haslyrics% -T "ALBUMARTIST=%albumartist%" -T "DISCNUMBER=%cdnumber%" -T "TOTALDISCS=%totalcds%" -T "TOTALTRACKS=%numtracks%" -T "COMMENT=%comment%" %source% -o %dest%

TOC of the extracted CD

     Track |   Start  |  Length  | Start sector | End sector
    ---------------------------------------------------------
        1  |  0:00.00 |  2:38.42 |         0    |    11891
        2  |  2:38.42 |  3:26.15 |     11892    |    27356
        3  |  6:04.57 |  3:52.44 |     27357    |    44800
        4  |  9:57.26 |  5:05.74 |     44801    |    67749
        5  | 15:03.25 |  6:52.34 |     67750    |    98683
        6  | 21:55.59 |  6:16.43 |     98684    |   126926
        7  | 28:12.27 |  2:58.10 |    126927    |   140286
        8  | 31:10.37 |  4:24.21 |    140287    |   160107
        9  | 35:34.58 |  3:02.64 |    160108    |   173821
       10  | 38:37.47 |  2:25.34 |    173822    |   184730
       11  | 41:03.06 |  4:27.59 |    184731    |   204814
       12  | 45:30.65 |  3:34.04 |    204815    |   220868

Range status and errors

Selected range

     Filename G:\CD\Roger Taylor - Happiness.wav

     Peak level 98.9 %
     Extraction speed 5.7 X
     Range quality 100.0 %
     Test CRC FB989CE9
     Copy CRC FB989CE9
     Copy OK

No errors occurred

AccurateRip summary

Track  1  accurately ripped (confidence 2)  [3B5B39B6]  (AR v2)
Track  2  accurately ripped (confidence 2)  [E55E0773]  (AR v2)
Track  3  accurately ripped (confidence 2)  [D54A4A62]  (AR v2)
Track  4  accurately ripped (confidence 2)  [2CD3BE1E]  (AR v2)
Track  5  accurately ripped (confidence 2)  [4296A9E8]  (AR v2)
Track  6  accurately ripped (confidence 2)  [41655DE0]  (AR v2)
Track  7  accurately ripped (confidence 2)  [5306E075]  (AR v2)
Track  8  accurately ripped (confidence 2)  [D28BF2BC]  (AR v2)
Track  9  accurately ripped (confidence 2)  [355C29FB]  (AR v2)
Track 10  accurately ripped (confidence 2)  [C2B942C4]  (AR v2)
Track 11  accurately ripped (confidence 2)  [355EBE9E]  (AR v2)
Track 12  accurately ripped (confidence 2)  [5E2071F1]  (AR v2)

All tracks accurately ripped

End of status report

==== Log checksum 75309301D6952098E03BACF0AD5CE54AF68025C4B4C61D3AB10D2D553CC722A4 ====
Код:
Код:
-----------------------

DON'T MODIFY THIS FILE

-----------------------

PERFORMER: auCDtect Task Manager, ver. 1.6.0 RC1 build 1.6.0.1
Copyright (c) 2008-2010 y-soft. All rights reserved
http:/y-soft.org

ANALYZER: auCDtect: CD records authenticity detector, version 0.8.2
Copyright (c) 2004 Oleg Berngardt. All rights reserved.
Copyright (c) 2004 Alexander Djourik. All rights reserved.

FILE: Roger Taylor - Happiness.flac
  Size: 328251582 Hash: 1AB522DAE68D38EF1ED608DB8D2A4959 Accuracy: -m0
  Conclusion: CDDA 100%
  Signature: 5455E8FCBE8069AF92ABA2BDB16527EB8D9183C3
#777
Продолжительноcть:
00:56:04
Трек лист:
01. Pressure On - 5:00
02. A Nation Of Haircuts - 3:34
03. Believe In Yourself - 5:09
04. Surrender - 3:40
05. People On The Streets - 4:16
06. The Whisperers - 6:09
07. Is It Me ? - 3:29
08. No More Fun - 4:22
09. Tonight - 3:48
10. Where Are You Now ? - 4:52
11. Working Class Hero - 4:44
12. London Town - C`mon Down - 7:02
Код:
Код:
Exact Audio Copy V1.0 beta 3 from 29. August 2011

EAC extraction logfile from 10. January 2014, 23:48

Roger Taylor / Electric Fire

Used drive  : ATAPI   iHAS124   B   Adapter: 2  ID: 0

Read mode               : Secure
Utilize accurate stream : Yes
Defeat audio cache      : Yes
Make use of C2 pointers : No

Read offset correction                      : 6
Overread into Lead-In and Lead-Out          : No
Fill up missing offset samples with silence : Yes
Delete leading and trailing silent blocks   : No
Null samples used in CRC calculations       : Yes
Used interface                              : Native Win32 interface for Win NT & 2000

Used output format              : User Defined Encoder
Selected bitrate                : 1024 kBit/s
Quality                         : High
Add ID3 tag                     : No
Command line compressor         : C:\Program Files (x86)\Exact Audio Copy\FLAC\FLAC.EXE
Additional command line options : -8 -V -T "ARTIST=%artist%" -T "TITLE=%title%" -T "ALBUM=%albumtitle%" -T "DATE=%year%" -T "TRACKNUMBER=%tracknr%" -T "GENRE=%genre%" -T "PERFORMER=%albuminterpret%" -T "COMPOSER=%composer%" %haslyrics%--tag-from-file=LYRICS="%lyricsfile%"%haslyrics% -T "ALBUMARTIST=%albumartist%" -T "DISCNUMBER=%cdnumber%" -T "TOTALDISCS=%totalcds%" -T "TOTALTRACKS=%numtracks%" -T "COMMENT=%comment%" %source% -o %dest%

TOC of the extracted CD

     Track |   Start  |  Length  | Start sector | End sector
    ---------------------------------------------------------
        1  |  0:00.00 |  5:00.03 |         0    |    22502
        2  |  5:00.03 |  3:33.48 |     22503    |    38525
        3  |  8:33.51 |  5:08.42 |     38526    |    61667
        4  | 13:42.18 |  3:39.73 |     61668    |    78165
        5  | 17:22.16 |  4:16.11 |     78166    |    97376
        6  | 21:38.27 |  6:09.12 |     97377    |   125063
        7  | 27:47.39 |  3:28.52 |    125064    |   140715
        8  | 31:16.16 |  4:22.19 |    140716    |   160384
        9  | 35:38.35 |  3:47.42 |    160385    |   177451
       10  | 39:26.02 |  4:51.41 |    177452    |   199317
       11  | 44:17.43 |  4:44.00 |    199318    |   220617
       12  | 49:01.43 |  7:02.24 |    220618    |   252291

Range status and errors

Selected range

     Filename G:\CD\Roger Taylor - Electric Fire.wav

     Peak level 98.9 %
     Extraction speed 5.8 X
     Range quality 100.0 %
     Test CRC 5AC960A1
     Copy CRC 5AC960A1
     Copy OK

No errors occurred

AccurateRip summary

Track  1  accurately ripped (confidence 2)  [ECE9FB62]  (AR v2)
Track  2  accurately ripped (confidence 2)  [308DB7DB]  (AR v2)
Track  3  accurately ripped (confidence 2)  [4DCF2A5C]  (AR v2)
Track  4  accurately ripped (confidence 2)  [41EA1EA1]  (AR v2)
Track  5  accurately ripped (confidence 2)  [C171F708]  (AR v2)
Track  6  accurately ripped (confidence 2)  [B978B947]  (AR v2)
Track  7  accurately ripped (confidence 2)  [6467A1E7]  (AR v2)
Track  8  accurately ripped (confidence 2)  [70CD9D3C]  (AR v2)
Track  9  accurately ripped (confidence 2)  [E5584C39]  (AR v2)
Track 10  accurately ripped (confidence 2)  [478221C3]  (AR v2)
Track 11  accurately ripped (confidence 2)  [8BABC9F0]  (AR v2)
Track 12  accurately ripped (confidence 2)  [7364A711]  (AR v2)

All tracks accurately ripped

End of status report

==== Log checksum C5D0B2279046DE98073337BDD3289523282114C5626D21D495CA747915745002 ====
Код:
Код:
-----------------------

DON'T MODIFY THIS FILE

-----------------------

PERFORMER: auCDtect Task Manager, ver. 1.6.0 RC1 build 1.6.0.1
Copyright (c) 2008-2010 y-soft. All rights reserved
http:/y-soft.org

ANALYZER: auCDtect: CD records authenticity detector, version 0.8.2
Copyright (c) 2004 Oleg Berngardt. All rights reserved.
Copyright (c) 2004 Alexander Djourik. All rights reserved.

FILE: Roger Taylor - Electric Fire.flac
  Size: 403618472 Hash: 4993FFCBEC83F9890C8A4EBEA463BC5B Accuracy: -m0
  Conclusion: CDDA 100%
  Signature: 302C3B2AC633C6BF55C52B3AAAE3C23ED8A641EE
#777
Продолжительноcть:
00:53:45
Трек лист:
01. One Night Stand - 4:22
02. Fight Club - 3:02
03. Be With You - 3:10
04. Quality Street - 4:25
05. I Don't Care - 3:24
06. Sunny Day - 3:38
07. Be My Gal (My Brightest Spark) - 2:45
08. I Am the Drummer (In a Rock N' Roll Band) - 2:47
09. Small - 3:51
10. Say It's Not True (Feat. Jeff Beck) - 4:58
11. The Unblinking Eye (Everything Is Broken) (Abridged Version) - 4:54
12. Up - 3:10
13. Smile - 3:02
14. Whole House rockin' - 3:01
15. Dear Mr. Murdoch (nude mix) - 3:17
Код:
Код:
Exact Audio Copy V1.0 beta 3 from 29. August 2011

EAC extraction logfile from 11. January 2014, 0:21

Roger Taylor / Fun On Earth (box st version)

Used drive  : ATAPI   iHAS124   B   Adapter: 2  ID: 0

Read mode               : Secure
Utilize accurate stream : Yes
Defeat audio cache      : Yes
Make use of C2 pointers : No

Read offset correction                      : 6
Overread into Lead-In and Lead-Out          : No
Fill up missing offset samples with silence : Yes
Delete leading and trailing silent blocks   : No
Null samples used in CRC calculations       : Yes
Used interface                              : Native Win32 interface for Win NT & 2000

Used output format              : User Defined Encoder
Selected bitrate                : 1024 kBit/s
Quality                         : High
Add ID3 tag                     : No
Command line compressor         : C:\Program Files (x86)\Exact Audio Copy\FLAC\FLAC.EXE
Additional command line options : -8 -V -T "ARTIST=%artist%" -T "TITLE=%title%" -T "ALBUM=%albumtitle%" -T "DATE=%year%" -T "TRACKNUMBER=%tracknr%" -T "GENRE=%genre%" -T "PERFORMER=%albuminterpret%" -T "COMPOSER=%composer%" %haslyrics%--tag-from-file=LYRICS="%lyricsfile%"%haslyrics% -T "ALBUMARTIST=%albumartist%" -T "DISCNUMBER=%cdnumber%" -T "TOTALDISCS=%totalcds%" -T "TOTALTRACKS=%numtracks%" -T "COMMENT=%comment%" %source% -o %dest%

TOC of the extracted CD

     Track |   Start  |  Length  | Start sector | End sector
    ---------------------------------------------------------
        1  |  0:00.00 |  4:21.59 |         0    |    19633
        2  |  4:21.59 |  3:02.08 |     19634    |    33291
        3  |  7:23.67 |  3:09.38 |     33292    |    47504
        4  | 10:33.30 |  4:24.61 |     47505    |    67365
        5  | 14:58.16 |  3:24.23 |     67366    |    82688
        6  | 18:22.39 |  3:37.66 |     82689    |    99029
        7  | 22:00.30 |  2:44.69 |     99030    |   111398
        8  | 24:45.24 |  2:46.42 |    111399    |   123890
        9  | 27:31.66 |  3:50.51 |    123891    |   141191
       10  | 31:22.42 |  4:58.09 |    141192    |   163550
       11  | 36:20.51 |  4:54.33 |    163551    |   185633
       12  | 41:15.09 |  3:09.48 |    185634    |   199856
       13  | 44:24.57 |  3:01.58 |    199857    |   213489
       14  | 47:26.40 |  3:00.74 |    213490    |   227063
       15  | 50:27.39 |  3:16.74 |    227064    |   241837

Range status and errors

Selected range

     Filename G:\CD\Roger Taylor - Fun On Earth (box st version).wav

     Peak level 98.9 %
     Extraction speed 5.6 X
     Range quality 100.0 %
     Test CRC 486DA21A
     Copy CRC 486DA21A
     Copy OK

No errors occurred

AccurateRip summary

Track  1  accurately ripped (confidence 4)  [2214A8EF]  (AR v2)
Track  2  accurately ripped (confidence 4)  [0DDC30D6]  (AR v2)
Track  3  accurately ripped (confidence 4)  [97F7386C]  (AR v2)
Track  4  accurately ripped (confidence 4)  [DAFC5B98]  (AR v2)
Track  5  accurately ripped (confidence 4)  [95ED8BD3]  (AR v2)
Track  6  accurately ripped (confidence 4)  [0BA4E156]  (AR v2)
Track  7  accurately ripped (confidence 4)  [E6DB28A6]  (AR v2)
Track  8  accurately ripped (confidence 4)  [78FFA3DF]  (AR v2)
Track  9  accurately ripped (confidence 4)  [47DC9EB0]  (AR v2)
Track 10  accurately ripped (confidence 4)  [345DDDB2]  (AR v2)
Track 11  accurately ripped (confidence 4)  [CF826AF7]  (AR v2)
Track 12  accurately ripped (confidence 4)  [2D119634]  (AR v2)
Track 13  accurately ripped (confidence 4)  [0AFCD621]  (AR v2)
Track 14  accurately ripped (confidence 4)  [71FD61B8]  (AR v2)
Track 15  accurately ripped (confidence 4)  [CBFB60EF]  (AR v2)

All tracks accurately ripped

End of status report

==== Log checksum EE9CE00FF76369A078D81131D2FF5CA0AD0F8DEBA251C3973B8358A2C1EB755E ====
Код:
Код:
-----------------------

DON'T MODIFY THIS FILE

-----------------------

PERFORMER: auCDtect Task Manager, ver. 1.6.0 RC1 build 1.6.0.1
Copyright (c) 2008-2010 y-soft. All rights reserved
http:/y-soft.org

ANALYZER: auCDtect: CD records authenticity detector, version 0.8.2
Copyright (c) 2004 Oleg Berngardt. All rights reserved.
Copyright (c) 2004 Alexander Djourik. All rights reserved.

FILE: Roger Taylor - Fun On Earth (box st version).flac
  Size: 342067523 Hash: 706697462B771E400305E8EF5A0BC560 Accuracy: -m0
  Conclusion: CDDA 100%
  Signature: 2B619727B45BC7DB2B7E4A63D7EBB16FA7F541E5
#777
Продолжительноcть:
01:17:44
Трек лист:
01. I Wanna Testify - 3:48
02. Turn On The TV - 3:28
03. My Country (single edit) - 3:53
04. Man On Fire (extended version) - 6:09
05. I Cry For You (single remix) - 4:10
06. Strange Frontier (extended mix) - 8:37
07. I Cry For You (extended mix) - 6:27
08. Two Sharp Pencils - 3:27
09. Nazis 1994 (radio mix) - 3:27
10. Nazis 1994 (kick mix) - 4:27
11. Nazis 1994 (Schindler's mix - extended) - 4:23
12. Nazis 1994 (Makita mix - extended) - 3:57
13. Nazis 1994 (big science mix) - 4:03
14. Foreign Sand (single version) - 4:35
15. Final Destination - 5:31
16. Everybody Hurts Sometime (live in London 1994) - 4:03
17. Old Friends (live in London 1994) - 3:19
Код:
Код:
Exact Audio Copy V1.0 beta 3 from 29. August 2011

EAC extraction logfile from 11. January 2014, 6:06

Roger Taylor / Solo Singles 1

Used drive  : ATAPI   iHAS124   B   Adapter: 2  ID: 0

Read mode               : Secure
Utilize accurate stream : Yes
Defeat audio cache      : Yes
Make use of C2 pointers : No

Read offset correction                      : 6
Overread into Lead-In and Lead-Out          : No
Fill up missing offset samples with silence : Yes
Delete leading and trailing silent blocks   : No
Null samples used in CRC calculations       : Yes
Used interface                              : Native Win32 interface for Win NT & 2000

Used output format              : User Defined Encoder
Selected bitrate                : 1024 kBit/s
Quality                         : High
Add ID3 tag                     : No
Command line compressor         : C:\Program Files (x86)\Exact Audio Copy\FLAC\FLAC.EXE
Additional command line options : -8 -V -T "ARTIST=%artist%" -T "TITLE=%title%" -T "ALBUM=%albumtitle%" -T "DATE=%year%" -T "TRACKNUMBER=%tracknr%" -T "GENRE=%genre%" -T "PERFORMER=%albuminterpret%" -T "COMPOSER=%composer%" %haslyrics%--tag-from-file=LYRICS="%lyricsfile%"%haslyrics% -T "ALBUMARTIST=%albumartist%" -T "DISCNUMBER=%cdnumber%" -T "TOTALDISCS=%totalcds%" -T "TOTALTRACKS=%numtracks%" -T "COMMENT=%comment%" %source% -o %dest%

TOC of the extracted CD

     Track |   Start  |  Length  | Start sector | End sector
    ---------------------------------------------------------
        1  |  0:00.00 |  3:47.69 |         0    |    17093
        2  |  3:47.69 |  3:28.34 |     17094    |    32727
        3  |  7:16.28 |  3:52.64 |     32728    |    50191
        4  | 11:09.17 |  6:08.38 |     50192    |    77829
        5  | 17:17.55 |  4:10.16 |     77830    |    96595
        6  | 21:27.71 |  8:36.49 |     96596    |   135344
        7  | 30:04.45 |  6:27.09 |    135345    |   164378
        8  | 36:31.54 |  3:26.57 |    164379    |   179885
        9  | 39:58.36 |  3:27.03 |    179886    |   195413
       10  | 43:25.39 |  4:27.09 |    195414    |   215447
       11  | 47:52.48 |  4:23.14 |    215448    |   235186
       12  | 52:15.62 |  3:56.39 |    235187    |   252925
       13  | 56:12.26 |  4:03.37 |    252926    |   271187
       14  | 60:15.63 |  4:35.02 |    271188    |   291814
       15  | 64:50.65 |  5:31.13 |    291815    |   316652
       16  | 70:22.03 |  4:03.12 |    316653    |   334889
       17  | 74:25.15 |  3:18.45 |    334890    |   349784

Range status and errors

Selected range

     Filename G:\CD\Roger Taylor - Solo Singles 1.wav

     Peak level 98.9 %
     Extraction speed 6.5 X
     Range quality 100.0 %
     Test CRC 3EF6A7AA
     Copy CRC 3EF6A7AA
     Copy OK

No errors occurred

AccurateRip summary

Track  1  accurately ripped (confidence 2)  [D85C725B]  (AR v2)
Track  2  accurately ripped (confidence 2)  [50FF5A47]  (AR v2)
Track  3  accurately ripped (confidence 2)  [C57EAFED]  (AR v2)
Track  4  accurately ripped (confidence 2)  [A1EAD238]  (AR v2)
Track  5  accurately ripped (confidence 2)  [DF19F154]  (AR v2)
Track  6  accurately ripped (confidence 2)  [3A2D6BAF]  (AR v2)
Track  7  accurately ripped (confidence 2)  [5C5FA1A6]  (AR v2)
Track  8  accurately ripped (confidence 2)  [7E481AD9]  (AR v2)
Track  9  accurately ripped (confidence 2)  [A0F13281]  (AR v2)
Track 10  accurately ripped (confidence 2)  [FFB010AE]  (AR v2)
Track 11  accurately ripped (confidence 2)  [EA3267CE]  (AR v2)
Track 12  accurately ripped (confidence 2)  [0CA3C07C]  (AR v2)
Track 13  accurately ripped (confidence 2)  [CB96BC31]  (AR v2)
Track 14  accurately ripped (confidence 2)  [B0C9F9D6]  (AR v2)
Track 15  accurately ripped (confidence 2)  [9686FAC1]  (AR v2)
Track 16  accurately ripped (confidence 2)  [9715E7C9]  (AR v2)
Track 17  accurately ripped (confidence 2)  [AB5B8F6A]  (AR v2)

All tracks accurately ripped

End of status report

==== Log checksum 105E8D426B4F7D10925374C457D055C761C3E46F1CF9E55CB230F0C742164220 ====
Код:
Код:
-----------------------

DON'T MODIFY THIS FILE

-----------------------

PERFORMER: auCDtect Task Manager, ver. 1.6.0 RC1 build 1.6.0.1
Copyright (c) 2008-2010 y-soft. All rights reserved
http:/y-soft.org

ANALYZER: auCDtect: CD records authenticity detector, version 0.8.2
Copyright (c) 2004 Oleg Berngardt. All rights reserved.
Copyright (c) 2004 Alexander Djourik. All rights reserved.

FILE: Roger Taylor - Solo Singles 1.flac
  Size: 545673388 Hash: 957CBE21A6A461130BA97AD2DD2B4F60 Accuracy: -m0
  Conclusion: CDDA 100%
  Signature: 0E7AA1D42D3AB956C96019ACB796B6CAE86CFDB2
#777
Продолжительноcть:
01:13:06
Трек лист:
01. Pressure On (single edit) - 3:25
02. People On Streets (mashed) - 3:33
03. Tonight (dub sangria) - 3:51
04. Keep A Knockin' - 3:17
05. Surrender (radio mix) - 3:39
06. A Nation Of Haircuts (club cut) - 3:44
07. London Town - C'mon Down (single edit) - 3:24
08. Surrender (live in Surrey 1998) - 4:11
09. No More Fun (live in Surrey 1998) - 4:24
10. Tonight (live in Surrey 1998) - 4:22
11. One Night Stand - 3:54
12. Woman You're So Beautiful - 3:57
13. Woman You're So Beautiful (mad mix) - 6:04
14. Woman You're So Beautiful (dance hall mix) - 5:37
15. The Unblinking Eye - 6:14
16. The Unblinking Eye (almost completely nude mix) - 6:12
17. Dear Mr Murdoch (nude mix) - 3:17
Код:
Код:
Exact Audio Copy V1.0 beta 3 from 29. August 2011

EAC extraction logfile from 11. January 2014, 9:08

Roger Taylor / Solo Singles 2

Used drive  : ATAPI   iHAS124   B   Adapter: 2  ID: 0

Read mode               : Secure
Utilize accurate stream : Yes
Defeat audio cache      : Yes
Make use of C2 pointers : No

Read offset correction                      : 6
Overread into Lead-In and Lead-Out          : No
Fill up missing offset samples with silence : Yes
Delete leading and trailing silent blocks   : No
Null samples used in CRC calculations       : Yes
Used interface                              : Native Win32 interface for Win NT & 2000

Used output format              : User Defined Encoder
Selected bitrate                : 1024 kBit/s
Quality                         : High
Add ID3 tag                     : No
Command line compressor         : C:\Program Files (x86)\Exact Audio Copy\FLAC\FLAC.EXE
Additional command line options : -8 -V -T "ARTIST=%artist%" -T "TITLE=%title%" -T "ALBUM=%albumtitle%" -T "DATE=%year%" -T "TRACKNUMBER=%tracknr%" -T "GENRE=%genre%" -T "PERFORMER=%albuminterpret%" -T "COMPOSER=%composer%" %haslyrics%--tag-from-file=LYRICS="%lyricsfile%"%haslyrics% -T "ALBUMARTIST=%albumartist%" -T "DISCNUMBER=%cdnumber%" -T "TOTALDISCS=%totalcds%" -T "TOTALTRACKS=%numtracks%" -T "COMMENT=%comment%" %source% -o %dest%

TOC of the extracted CD

     Track |   Start  |  Length  | Start sector | End sector
    ---------------------------------------------------------
        1  |  0:00.00 |  3:25.23 |         0    |    15397
        2  |  3:25.23 |  3:33.35 |     15398    |    31407
        3  |  6:58.58 |  3:51.08 |     31408    |    48740
        4  | 10:49.66 |  3:17.01 |     48741    |    63516
        5  | 14:06.67 |  3:39.26 |     63517    |    79967
        6  | 17:46.18 |  3:43.53 |     79968    |    96745
        7  | 21:29.71 |  3:23.49 |     96746    |   112019
        8  | 24:53.45 |  4:10.40 |    112020    |   130809
        9  | 29:04.10 |  4:24.31 |    130810    |   150640
       10  | 33:28.41 |  4:22.35 |    150641    |   170325
       11  | 37:51.01 |  3:53.48 |    170326    |   187848
       12  | 41:44.49 |  3:57.28 |    187849    |   205651
       13  | 45:42.02 |  6:03.55 |    205652    |   232931
       14  | 51:45.57 |  5:37.36 |    232932    |   258242
       15  | 57:23.18 |  6:13.46 |    258243    |   286263
       16  | 63:36.64 |  6:12.21 |    286264    |   314184
       17  | 69:49.10 |  3:16.74 |    314185    |   328958

Range status and errors

Selected range

     Filename G:\CD\Roger Taylor - Solo Singles 2.wav

     Peak level 98.9 %
     Extraction speed 6.3 X
     Range quality 100.0 %
     Test CRC 297AF8C4
     Copy CRC 297AF8C4
     Copy OK

No errors occurred

AccurateRip summary

Track  1  accurately ripped (confidence 2)  [B3DF3085]  (AR v2)
Track  2  accurately ripped (confidence 2)  [9A472B63]  (AR v2)
Track  3  accurately ripped (confidence 2)  [BEDC8F1E]  (AR v2)
Track  4  accurately ripped (confidence 2)  [CC1B082A]  (AR v2)
Track  5  accurately ripped (confidence 2)  [6ECA5520]  (AR v2)
Track  6  accurately ripped (confidence 2)  [347B0A01]  (AR v2)
Track  7  accurately ripped (confidence 2)  [3039F665]  (AR v2)
Track  8  accurately ripped (confidence 2)  [C898A4AD]  (AR v2)
Track  9  accurately ripped (confidence 2)  [24B899CC]  (AR v2)
Track 10  accurately ripped (confidence 2)  [D4DE4719]  (AR v2)
Track 11  accurately ripped (confidence 2)  [1B9E5623]  (AR v2)
Track 12  accurately ripped (confidence 2)  [90AFA31A]  (AR v2)
Track 13  accurately ripped (confidence 2)  [9317D861]  (AR v2)
Track 14  accurately ripped (confidence 2)  [25FCE1F7]  (AR v2)
Track 15  accurately ripped (confidence 2)  [5F318226]  (AR v2)
Track 16  accurately ripped (confidence 2)  [4D12A648]  (AR v2)
Track 17  accurately ripped (confidence 2)  [D952ED9A]  (AR v2)

All tracks accurately ripped

End of status report

==== Log checksum 37A53B77B01E5A896FF9588A69191E66ADA3C64788916C4943F4C0875D90D03C ====
Код:
Код:
-----------------------

DON'T MODIFY THIS FILE

-----------------------

PERFORMER: auCDtect Task Manager, ver. 1.6.0 RC1 build 1.6.0.1
Copyright (c) 2008-2010 y-soft. All rights reserved
http:/y-soft.org

ANALYZER: auCDtect: CD records authenticity detector, version 0.8.2
Copyright (c) 2004 Oleg Berngardt. All rights reserved.
Copyright (c) 2004 Alexander Djourik. All rights reserved.

FILE: Roger Taylor - Solo Singles 2.flac
  Size: 526835280 Hash: 31A13589333114C727E0EC4F3DB02D79 Accuracy: -m0
  Conclusion: CDDA 100%
  Signature: 6B08C30D03D7C2F0E80E6C42B131D9D84E4A5005
#777Продолжительноcть: 01:11:04
Трек лист:
01. Cowboys And Indians (7' Single Edit) - 4:34
02. Love Lies Bleeding (She's A Wicked, Wily Waitress) (Single Remix) - 4:16
03. Feel The Force - 3:48
04. Shove It (Extended Mix) - 5:54
05. Shove It (Metropolix) - 3:31
06. Shove It (Denniz Pop Remix) - 5:05
07. Heaven For Everyone (7' Version) (Roger Taylor Vocal) - 5:06
08. Heaven For Everyone (7' Version) (Freddie Mercury Vocal) - 4:55
09. Manipulator (Extended Version) - 4:16
10. Manipulator (Single Version) - 3:59
11. Power To Love (Extended Version) - 5:19
12. Power To Love (Single Version) - 3:28
13. In Charge Of My Heart (Single Version) - 2:18
14. Liar (12' Mix) - 6:32
15. In Charge Of My Heart (Extended Version) - 4:44
16. Liar (7' Version) - 3:19
Код:
Код:
Exact Audio Copy V1.0 beta 3 from 29. August 2011

EAC extraction logfile from 11. January 2014, 10:16

The Cross / Singles 1

Used drive  : ATAPI   iHAS124   B   Adapter: 2  ID: 0

Read mode               : Secure
Utilize accurate stream : Yes
Defeat audio cache      : Yes
Make use of C2 pointers : No

Read offset correction                      : 6
Overread into Lead-In and Lead-Out          : No
Fill up missing offset samples with silence : Yes
Delete leading and trailing silent blocks   : No
Null samples used in CRC calculations       : Yes
Used interface                              : Native Win32 interface for Win NT & 2000

Used output format              : User Defined Encoder
Selected bitrate                : 1024 kBit/s
Quality                         : High
Add ID3 tag                     : No
Command line compressor         : C:\Program Files (x86)\Exact Audio Copy\FLAC\FLAC.EXE
Additional command line options : -8 -V -T "ARTIST=%artist%" -T "TITLE=%title%" -T "ALBUM=%albumtitle%" -T "DATE=%year%" -T "TRACKNUMBER=%tracknr%" -T "GENRE=%genre%" -T "PERFORMER=%albuminterpret%" -T "COMPOSER=%composer%" %haslyrics%--tag-from-file=LYRICS="%lyricsfile%"%haslyrics% -T "ALBUMARTIST=%albumartist%" -T "DISCNUMBER=%cdnumber%" -T "TOTALDISCS=%totalcds%" -T "TOTALTRACKS=%numtracks%" -T "COMMENT=%comment%" %source% -o %dest%

TOC of the extracted CD

     Track |   Start  |  Length  | Start sector | End sector
    ---------------------------------------------------------
        1  |  0:00.00 |  4:34.03 |         0    |    20552
        2  |  4:34.03 |  4:15.55 |     20553    |    39732
        3  |  8:49.58 |  3:48.12 |     39733    |    56844
        4  | 12:37.70 |  5:53.65 |     56845    |    83384
        5  | 18:31.60 |  3:30.54 |     83385    |    99188
        6  | 22:02.39 |  5:04.58 |     99189    |   122046
        7  | 27:07.22 |  5:06.01 |    122047    |   144997
        8  | 32:13.23 |  4:55.15 |    144998    |   167137
        9  | 37:08.38 |  4:15.51 |    167138    |   186313
       10  | 41:24.14 |  3:58.57 |    186314    |   204220
       11  | 45:22.71 |  5:19.23 |    204221    |   228168
       12  | 50:42.19 |  3:27.63 |    228169    |   243756
       13  | 54:10.07 |  2:18.19 |    243757    |   254125
       14  | 56:28.26 |  6:32.06 |    254126    |   283531
       15  | 63:00.32 |  4:44.22 |    283532    |   304853
       16  | 67:44.54 |  3:18.68 |    304854    |   319771

Range status and errors

Selected range

     Filename G:\CD\The Cross - Singles 1.wav

     Peak level 98.9 %
     Extraction speed 3.3 X
     Range quality 100.0 %
     Test CRC E790750E
     Copy CRC E790750E
     Copy OK

No errors occurred

AccurateRip summary

Track  1  accurately ripped (confidence 2)  [4DDD6EAB]  (AR v2)
Track  2  accurately ripped (confidence 2)  [864D5B47]  (AR v2)
Track  3  accurately ripped (confidence 2)  [9FD82F35]  (AR v2)
Track  4  accurately ripped (confidence 2)  [072378A3]  (AR v2)
Track  5  accurately ripped (confidence 2)  [BFC80F40]  (AR v2)
Track  6  accurately ripped (confidence 2)  [3704C454]  (AR v2)
Track  7  accurately ripped (confidence 2)  [A561AF05]  (AR v2)
Track  8  accurately ripped (confidence 2)  [CC607564]  (AR v2)
Track  9  accurately ripped (confidence 2)  [38E7289A]  (AR v2)
Track 10  accurately ripped (confidence 2)  [1BF58D29]  (AR v2)
Track 11  accurately ripped (confidence 2)  [62644EF5]  (AR v2)
Track 12  accurately ripped (confidence 2)  [7D4ACFD7]  (AR v2)
Track 13  accurately ripped (confidence 2)  [BF7657CC]  (AR v2)
Track 14  accurately ripped (confidence 2)  [C6CEA634]  (AR v2)
Track 15  accurately ripped (confidence 2)  [D8FED395]  (AR v2)
Track 16  accurately ripped (confidence 2)  [D79F41A3]  (AR v2)

All tracks accurately ripped

End of status report

==== Log checksum 831D90D7AE7F39FE19EFF3FBF2BA51BD68839C0C218853131706873EB31EF7C1 ====
Код:
Код:
-----------------------

DON'T MODIFY THIS FILE

-----------------------

PERFORMER: auCDtect Task Manager, ver. 1.6.0 RC1 build 1.6.0.1
Copyright (c) 2008-2010 y-soft. All rights reserved
http:/y-soft.org

ANALYZER: auCDtect: CD records authenticity detector, version 0.8.2
Copyright (c) 2004 Oleg Berngardt. All rights reserved.
Copyright (c) 2004 Alexander Djourik. All rights reserved.

FILE: The Cross - Singles 1.flac
  Size: 494945207 Hash: 9FB961491108FCDD5D5DEF7AE59768D0 Accuracy: -m0
  Conclusion: CDDA 100%
  Signature: 4389D06CEC73697ADE2EEAC2EC4285A26A430478
#777Продолжительноcть: 00:47:43
Трек лист:
01. New Dark Ages (single edit) - 3:28
02. Ain't Put Nothing Down (long version) - 4:55
03. Man On Fire (live in Germany 1988) - 5:09
04. Life Changes (single edit) - 3:55
05. Heartland - 4:47
06. Celebration (Jam Studios 1988) - 4:38
07. I Can Take You Higher (Jam Studios 1988) - 3:30
08. I Can't Get You Out Of My Head (Jam Studios 1988) - 3:38
09. Passion For Trash (Jam Studios 1988) - 2:51
10. Top Of The World Ma (extended mix) - 7:41
11. Shove It (US single edit) - 3:10
Код:
Код:
Exact Audio Copy V1.0 beta 3 from 29. August 2011

EAC extraction logfile from 11. January 2014, 10:46

The Cross / Singles 2

Used drive  : ATAPI   iHAS124   B   Adapter: 2  ID: 0

Read mode               : Secure
Utilize accurate stream : Yes
Defeat audio cache      : Yes
Make use of C2 pointers : No

Read offset correction                      : 6
Overread into Lead-In and Lead-Out          : No
Fill up missing offset samples with silence : Yes
Delete leading and trailing silent blocks   : No
Null samples used in CRC calculations       : Yes
Used interface                              : Native Win32 interface for Win NT & 2000

Used output format              : User Defined Encoder
Selected bitrate                : 1024 kBit/s
Quality                         : High
Add ID3 tag                     : No
Command line compressor         : C:\Program Files (x86)\Exact Audio Copy\FLAC\FLAC.EXE
Additional command line options : -8 -V -T "ARTIST=%artist%" -T "TITLE=%title%" -T "ALBUM=%albumtitle%" -T "DATE=%year%" -T "TRACKNUMBER=%tracknr%" -T "GENRE=%genre%" -T "PERFORMER=%albuminterpret%" -T "COMPOSER=%composer%" %haslyrics%--tag-from-file=LYRICS="%lyricsfile%"%haslyrics% -T "ALBUMARTIST=%albumartist%" -T "DISCNUMBER=%cdnumber%" -T "TOTALDISCS=%totalcds%" -T "TOTALTRACKS=%numtracks%" -T "COMMENT=%comment%" %source% -o %dest%

TOC of the extracted CD

     Track |   Start  |  Length  | Start sector | End sector
    ---------------------------------------------------------
        1  |  0:00.00 |  3:27.56 |         0    |    15580
        2  |  3:27.56 |  4:54.42 |     15581    |    37672
        3  |  8:22.23 |  5:08.73 |     37673    |    60845
        4  | 13:31.21 |  3:55.05 |     60846    |    78475
        5  | 17:26.26 |  4:47.29 |     78476    |   100029
        6  | 22:13.55 |  4:38.34 |    100030    |   120913
        7  | 26:52.14 |  3:30.36 |    120914    |   136699
        8  | 30:22.50 |  3:38.00 |    136700    |   153049
        9  | 34:00.50 |  2:51.01 |    153050    |   165875
       10  | 36:51.51 |  7:41.08 |    165876    |   200458
       11  | 44:32.59 |  3:10.25 |    200459    |   214733

Range status and errors

Selected range

     Filename G:\CD\The Cross - Singles 2.wav

     Peak level 98.9 %
     Extraction speed 5.7 X
     Range quality 100.0 %
     Test CRC 84316FE8
     Copy CRC 84316FE8
     Copy OK

No errors occurred

AccurateRip summary

Track  1  accurately ripped (confidence 2)  [89D735A1]  (AR v2)
Track  2  accurately ripped (confidence 2)  [7B55C6B1]  (AR v2)
Track  3  accurately ripped (confidence 2)  [8328DDE0]  (AR v2)
Track  4  accurately ripped (confidence 2)  [405F3E2D]  (AR v2)
Track  5  accurately ripped (confidence 2)  [09BD6F32]  (AR v2)
Track  6  accurately ripped (confidence 2)  [055319A9]  (AR v2)
Track  7  accurately ripped (confidence 2)  [61FC60F2]  (AR v2)
Track  8  accurately ripped (confidence 2)  [4D792333]  (AR v2)
Track  9  accurately ripped (confidence 2)  [50C8C60C]  (AR v2)
Track 10  accurately ripped (confidence 2)  [94BE9881]  (AR v2)
Track 11  accurately ripped (confidence 2)  [B327599A]  (AR v2)

All tracks accurately ripped

End of status report

==== Log checksum 2C95BDF8063431E83A133176823E170B240AA49A4074128DF8E8F3729193E0B7 ====
Код:
Код:
-----------------------

DON'T MODIFY THIS FILE

-----------------------

PERFORMER: auCDtect Task Manager, ver. 1.6.0 RC1 build 1.6.0.1
Copyright (c) 2008-2010 y-soft. All rights reserved
http:/y-soft.org

ANALYZER: auCDtect: CD records authenticity detector, version 0.8.2
Copyright (c) 2004 Oleg Berngardt. All rights reserved.
Copyright (c) 2004 Alexander Djourik. All rights reserved.

FILE: The Cross - Singles 2.flac
  Size: 346933396 Hash: 9DF90D40FBC254CA7B1914EE7E5E84CD Accuracy: -m0
  Conclusion: CDDA 100%
  Signature: 42F5A7540DA1327B55F9127110DAEB0CBCA09528
Правила, инструкции, FAQ!!!
Торрент  Добавлен [14 янв 2014, 14:00] Скачать торрент Магнет ссылка
Скачать торрент
[ Размер 34.23 КБ / Просмотров 63 ]

Статус  
 
Размер  4.63 ГБ
Приватный: Нет (DHT включён)
.torrent скачан  3
 


     Отправить личное сообщение
   
Страница 1 из 1
Показать сообщения за:  Поле сортировки  
Начать новую тему Ответить на тему


Сейчас этот форум просматривают: нет зарегистрированных пользователей и гости: 0


Вы не можете начинать темы
Вы не можете отвечать на сообщения
Вы не можете редактировать свои сообщения
Вы не можете удалять свои сообщения
Вы не можете добавлять вложения

Перейти:  
cron
cron