Начать новую тему Ответить на тему
Статистика раздачи
Размер: 284.31 МБ | Добавлен: 16 мар 2014, 00:24 | Скачали: 2
Сидеров: 2  [0 байт/сек]    Личеров: 0  [0 байт/сек]
Пред. тема | След. тема 

Автор
Сообщение

СообщениеДобавлено: 16 мар 2014, 00:24 

Ответить с цитатой 

Roger Taylor - Fun On Earth (2013)

Год: 2013
Издание: Virgin EMI
Каталог№: 0602537569984
Жанр: Rock
Источник (релизер): Nightjar
Сканы: Фронт
Продолжительность: 00:47:26

Кодек: FLAC
Тип рипа: Tracks+.cue
Метод сжатия: Lossless
Треклист:
01. One Night Stand (4:22)
02. Fight Club (3:02)
03. Be With You (3:10)
04. Quality Street (4:25)
05. I Don't Care (3:24)
06. Sunny Day (3:38)
07. Be My Gal (My Brightest Spark) (2:45)
08. I Am the Drummer (In A Rock N' Roll Band) (2:47)
09. Small (3:51)
10. Say It's Not True (Feat. Jeff Beck) (4:58)
11. The Unblinking Eye (Everything Is Broken) (Abridged) (4:54)
12. Up (3:10)
13. Smile (3:01)

Код:
Код:
REM DATE 2013
REM DISCID AC0B1D0D
REM COMMENT "ExactAudioCopy v1.0b3"
CATALOG 0602537569984
PERFORMER "Roger Taylor"
TITLE "Fun On Earth"
FILE "01 One Night Stand.wav" WAVE
  TRACK 01 AUDIO
    TITLE "One Night Stand"
    PERFORMER "Roger Taylor"
    ISRC GBUM71304891
    INDEX 01 00:00:00
FILE "02 Fight Club.wav" WAVE
  TRACK 02 AUDIO
    TITLE "Fight Club"
    PERFORMER "Roger Taylor"
    ISRC GBUM71304871
    INDEX 01 00:00:00
FILE "03 Be With You.wav" WAVE
  TRACK 03 AUDIO
    TITLE "Be With You "
    PERFORMER "Roger Taylor"
    ISRC GBUM71304872
    INDEX 01 00:00:00
FILE "04 Quality Street.wav" WAVE
  TRACK 04 AUDIO
    TITLE "Quality Street"
    PERFORMER "Roger Taylor"
    ISRC GBUM71304873
    INDEX 01 00:00:00
FILE "05 I Don't Care.wav" WAVE
  TRACK 05 AUDIO
    TITLE "I Don't Care"
    PERFORMER "Roger Taylor"
    ISRC GBUM71304874
    INDEX 01 00:00:00
FILE "06 Sunny Day.wav" WAVE
  TRACK 06 AUDIO
    TITLE "Sunny Day"
    PERFORMER "Roger Taylor"
    ISRC GBUM71304892
    INDEX 01 00:00:00
FILE "07 Be My Gal (My Brightest Spark).wav" WAVE
  TRACK 07 AUDIO
    TITLE "Be My Gal (My Brightest Spark) "
    PERFORMER "Roger Taylor"
    ISRC GBUM71304875
    INDEX 01 00:00:00
FILE "08 I Am the Drummer (In A Rock N' Roll Band).wav" WAVE
  TRACK 08 AUDIO
    TITLE "I Am the Drummer (In A Rock N' Roll Band) "
    PERFORMER "Roger Taylor"
    ISRC GBUM71304876
    INDEX 01 00:00:00
  TRACK 09 AUDIO
    TITLE "Small"
    PERFORMER "Roger Taylor"
    ISRC GBUM71304877
    INDEX 00 02:45:37
FILE "09 Small.wav" WAVE
    INDEX 01 00:00:00
FILE "10 Say It's Not True (Feat. Jeff Beck).wav" WAVE
  TRACK 10 AUDIO
    TITLE "Say It's Not True (Feat. Jeff Beck)"
    PERFORMER "Roger Taylor"
    ISRC GBUM71304878
    INDEX 01 00:00:00
FILE "11 The Unblinking Eye (Everything Is Broken) (Abridged).wav" WAVE
  TRACK 11 AUDIO
    TITLE "The Unblinking Eye (Everything Is Broken) (Abridged)"
    PERFORMER "Roger Taylor"
    ISRC GBUM71304879
    INDEX 01 00:00:00
FILE "12 Up.wav" WAVE
  TRACK 12 AUDIO
    TITLE "Up"
    PERFORMER "Roger Taylor"
    ISRC GBUM71304880
    INDEX 01 00:00:00
  TRACK 13 AUDIO
    TITLE "Smile"
    PERFORMER "Roger Taylor"
    ISRC GBUM71304881
    INDEX 00 03:08:14
FILE "13 Smile.wav" WAVE
    INDEX 01 00:00:00

Код:
Код:
Exact Audio Copy V1.0 beta 3 from 29. August 2011

EAC extraction logfile from 11. November 2013, 14:26

Roger Taylor / Fun On Earth

Used drive  : ATAPI   iHAP122   9   Adapter: 1  ID: 1

Read mode               : Secure
Utilize accurate stream : Yes
Defeat audio cache      : Yes
Make use of C2 pointers : No

Read offset correction                      : 6
Overread into Lead-In and Lead-Out          : No
Fill up missing offset samples with silence : Yes
Delete leading and trailing silent blocks   : No
Null samples used in CRC calculations       : Yes
Used interface                              : Native Win32 interface for Win NT & 2000
Gap handling                                : Appended to previous track

Used output format              : User Defined Encoder
Selected bitrate                : 1024 kBit/s
Quality                         : High
Add ID3 tag                     : No
Command line compressor         : C:\Program Files (x86)\FLAC\flac.exe
Additional command line options : -8 -V -T "ARTIST=%artist%" -T "TITLE=%title%" -T "ALBUM=%albumtitle%" -T "DATE=%year%" -T "TRACKNUMBER=%tracknr%" -T "GENRE=%genre%" -T "PERFORMER=%albuminterpret%" -T "COMPOSER=%composer%" %haslyrics%--tag-from-file=LYRICS="%lyricsfile%"%haslyrics% -T "ALBUMARTIST=%albumartist%" -T "DISCNUMBER=%cdnumber%" -T "TOTALDISCS=%totalcds%" -T "TOTALTRACKS=%numtracks%" -T "COMMENT=%comment%" %source% -o %dest%

TOC of the extracted CD

     Track |   Start  |  Length  | Start sector | End sector
    ---------------------------------------------------------
        1  |  0:00.00 |  4:21.59 |         0    |    19633
        2  |  4:21.59 |  3:02.08 |     19634    |    33291
        3  |  7:23.67 |  3:09.38 |     33292    |    47504
        4  | 10:33.30 |  4:24.61 |     47505    |    67365
        5  | 14:58.16 |  3:24.23 |     67366    |    82688
        6  | 18:22.39 |  3:37.66 |     82689    |    99029
        7  | 22:00.30 |  2:44.69 |     99030    |   111398
        8  | 24:45.24 |  2:46.42 |    111399    |   123890
        9  | 27:31.66 |  3:50.51 |    123891    |   141191
       10  | 31:22.42 |  4:58.09 |    141192    |   163550
       11  | 36:20.51 |  4:54.33 |    163551    |   185633
       12  | 41:15.09 |  3:09.48 |    185634    |   199856
       13  | 44:24.57 |  3:00.64 |    199857    |   213420

Track  1

     Filename C:\Users\Nightjar\Desktop\Roger Taylor - Fun On Earth (2013) [FLAC]\01 One Night Stand.wav

     Pre-gap length  0:00:02.00

     Peak level 98.4 %
     Extraction speed 1.9 X
     Track quality 100.0 %
     Test CRC 1F3136AF
     Copy CRC 1F3136AF
     Track not present in AccurateRip database
     Copy OK

Track  2

     Filename C:\Users\Nightjar\Desktop\Roger Taylor - Fun On Earth (2013) [FLAC]\02 Fight Club.wav

     Peak level 98.3 %
     Extraction speed 2.0 X
     Track quality 100.0 %
     Test CRC CE4C56D2
     Copy CRC CE4C56D2
     Track not present in AccurateRip database
     Copy OK

Track  3

     Filename C:\Users\Nightjar\Desktop\Roger Taylor - Fun On Earth (2013) [FLAC]\03 Be With You.wav

     Peak level 98.6 %
     Extraction speed 2.1 X
     Track quality 100.0 %
     Test CRC 803DCD75
     Copy CRC 803DCD75
     Track not present in AccurateRip database
     Copy OK

Track  4

     Filename C:\Users\Nightjar\Desktop\Roger Taylor - Fun On Earth (2013) [FLAC]\04 Quality Street.wav

     Peak level 98.4 %
     Extraction speed 2.4 X
     Track quality 100.0 %
     Test CRC D434DFE2
     Copy CRC D434DFE2
     Track not present in AccurateRip database
     Copy OK

Track  5

     Filename C:\Users\Nightjar\Desktop\Roger Taylor - Fun On Earth (2013) [FLAC]\05 I Don't Care.wav

     Peak level 98.4 %
     Extraction speed 2.5 X
     Track quality 100.0 %
     Test CRC A4748DE9
     Copy CRC A4748DE9
     Track not present in AccurateRip database
     Copy OK

Track  6

     Filename C:\Users\Nightjar\Desktop\Roger Taylor - Fun On Earth (2013) [FLAC]\06 Sunny Day.wav

     Peak level 98.4 %
     Extraction speed 2.6 X
     Track quality 100.0 %
     Test CRC F7CCBF3D
     Copy CRC F7CCBF3D
     Track not present in AccurateRip database
     Copy OK

Track  7

     Filename C:\Users\Nightjar\Desktop\Roger Taylor - Fun On Earth (2013) [FLAC]\07 Be My Gal (My Brightest Spark).wav

     Peak level 98.9 %
     Extraction speed 2.6 X
     Track quality 100.0 %
     Test CRC 1C61525D
     Copy CRC 1C61525D
     Track not present in AccurateRip database
     Copy OK

Track  8

     Filename C:\Users\Nightjar\Desktop\Roger Taylor - Fun On Earth (2013) [FLAC]\08 I Am the Drummer (In A Rock N' Roll Band).wav

     Peak level 98.9 %
     Extraction speed 2.7 X
     Track quality 100.0 %
     Test CRC 96199FD7
     Copy CRC 96199FD7
     Track not present in AccurateRip database
     Copy OK

Track  9

     Filename C:\Users\Nightjar\Desktop\Roger Taylor - Fun On Earth (2013) [FLAC]\09 Small.wav

     Pre-gap length  0:00:01.06

     Peak level 98.4 %
     Extraction speed 2.9 X
     Track quality 100.0 %
     Test CRC AF65C5D3
     Copy CRC AF65C5D3
     Track not present in AccurateRip database
     Copy OK

Track 10

     Filename C:\Users\Nightjar\Desktop\Roger Taylor - Fun On Earth (2013) [FLAC]\10 Say It's Not True (Feat. Jeff Beck).wav

     Peak level 98.4 %
     Extraction speed 2.5 X
     Track quality 99.9 %
     Test CRC 493D614B
     Copy CRC 493D614B
     Track not present in AccurateRip database
     Copy OK

Track 11

     Filename C:\Users\Nightjar\Desktop\Roger Taylor - Fun On Earth (2013) [FLAC]\11 The Unblinking Eye (Everything Is Broken) (Abridged).wav

     Peak level 98.4 %
     Extraction speed 2.6 X
     Track quality 99.9 %
     Test CRC ED4735DD
     Copy CRC ED4735DD
     Track not present in AccurateRip database
     Copy OK

Track 12

     Filename C:\Users\Nightjar\Desktop\Roger Taylor - Fun On Earth (2013) [FLAC]\12 Up.wav

     Peak level 98.4 %
     Extraction speed 3.2 X
     Track quality 100.0 %
     Test CRC 0B3C8AC6
     Copy CRC 0B3C8AC6
     Track not present in AccurateRip database
     Copy OK

Track 13

     Filename C:\Users\Nightjar\Desktop\Roger Taylor - Fun On Earth (2013) [FLAC]\13 Smile.wav

     Pre-gap length  0:00:01.45

     Peak level 98.4 %
     Extraction speed 3.3 X
     Track quality 100.0 %
     Test CRC FAE68AE8
     Copy CRC FAE68AE8
     Track not present in AccurateRip database
     Copy OK

None of the tracks are present in the AccurateRip database

No errors occurred

End of status report

---- CUETools DB Plugin V2.1.4

[CTDB TOCID: LMgsz7qaa4xcI9BhrPaTk4At8x8-] found
Submit result: LMgsz7qaa4xcI9BhrPaTk4At8x8- has been confirmed
Track | CTDB Status
  1   | (2/2) Accurately ripped
  2   | (2/2) Accurately ripped
  3   | (2/2) Accurately ripped
  4   | (2/2) Accurately ripped
  5   | (2/2) Accurately ripped
  6   | (2/2) Accurately ripped
  7   | (2/2) Accurately ripped
  8   | (2/2) Accurately ripped
  9   | (2/2) Accurately ripped
 10   | (2/2) Accurately ripped
 11   | (2/2) Accurately ripped
 12   | (2/2) Accurately ripped
 13   | (2/2) Accurately ripped

==== Log checksum 553676912907F4221C97ECD40FBA736B086129651ECBE9874F7D6049CD381F78 ====

Код:
Код:
-----------------------

DON'T MODIFY THIS FILE

-----------------------

PERFORMER: auCDtect Task Manager, ver. 1.6.0 RC1 build 1.6.0.1
Copyright (c) 2008-2010 y-soft. All rights reserved
http:/y-soft.org

ANALYZER: auCDtect: CD records authenticity detector, version 0.8.2
Copyright (c) 2004 Oleg Berngardt. All rights reserved.
Copyright (c) 2004 Alexander Djourik. All rights reserved.

FILE: 13 Smile.flac
  Size: 18447999 Hash: 553022D6AB164F4A97B1DD181459FC25 Accuracy: -m0
  Conclusion: CDDA 99%
  Signature: E64BE5A79C31929DFA132D9ECAA3D9D287ECDCE0
FILE: 12 Up.flac
  Size: 19214230 Hash: 45FF18FF8A4B4C2FA45891E438C34EDA Accuracy: -m0
  Conclusion: CDDA 100%
  Signature: A7D4EB444DDC058E6A4C9F4945A98BBB8035BA41
FILE: 11 The Unblinking Eye (Everything Is Broken) (Abridged).flac
  Size: 33060465 Hash: 9D5B80C0F3C26DD4B6E3B8D43E664FE9 Accuracy: -m0
  Conclusion: CDDA 100%
  Signature: E2015C59E1AD8B448657A3F2EFB69669C1A988A1
FILE: 10 Say It's Not True (Feat. Jeff Beck).flac
  Size: 27153992 Hash: C1F399BEF779BF4AA11641BE60EB11AF Accuracy: -m0
  Conclusion: CDDA 100%
  Signature: 1A7AA06E1F6203A8151F1678DD5D1303418369C5
FILE: 09 Small.flac
  Size: 23675376 Hash: 06A458E03F2E0AFA07BE2543CF2C1AB9 Accuracy: -m0
  Conclusion: CDDA 99%
  Signature: 62E21675FB1358548BF15BEB4C88CE703185043C
FILE: 08 I Am the Drummer (In A Rock N' Roll Band).flac
  Size: 19631613 Hash: B36FBBF6395F841C5E72AFB46311584C Accuracy: -m0
  Conclusion: CDDA 100%
  Signature: 36599A6B7209C425E21E1A8D37A60AA6DCD7AEF6
FILE: 07 Be My Gal (My Brightest Spark).flac
  Size: 15967234 Hash: B6860428A3A15ECBC6F435C5D0757A3C Accuracy: -m0
  Conclusion: CDDA 99%
  Signature: 5AED4E5F0645EEAB9E961A978E1897E651381F8E
FILE: 06 Sunny Day.flac
  Size: 24972032 Hash: 0235055719C7BE48B81A74300772F54A Accuracy: -m0
  Conclusion: CDDA 100%
  Signature: 522F48675AA807234C5D7FB697BDE02B5D4BF18D
FILE: 05 I Don't Care.flac
  Size: 21075374 Hash: 03B5D7D5617C545B7D6AA45749A54DFC Accuracy: -m0
  Conclusion: CDDA 100%
  Signature: 723B51FA4F4AEA945F28A525A01869F30DFEC44F
FILE: 04 Quality Street.flac
  Size: 25850704 Hash: 332E4ACFA7ADC2B861E76C9C55344625 Accuracy: -m0
  Conclusion: CDDA 100%
  Signature: 4FCF8E962768397F22377736F0B4D019D35F12FB
FILE: 03 Be With You.flac
  Size: 21986614 Hash: DFC2420EEEB70F7448A5394F7FC2DAF3 Accuracy: -m0
  Conclusion: CDDA 100%
  Signature: 68EDC684CE9681FE10F8F607DDC911DFF3842E61
FILE: 02 Fight Club.flac
  Size: 17182295 Hash: F5D7E0953FC45220D1CC2B8AB798A854 Accuracy: -m0
  Conclusion: CDDA 99%
  Signature: A6F2D938C75BE97831A5569AF6ECC742FAB15A0B
FILE: 01 One Night Stand.flac
  Size: 29817652 Hash: 43B5BD51702B98890D8EF67074CC930D Accuracy: -m0
  Conclusion: CDDA 100%
  Signature: 275337E2F34F16E8D5BA09FE2954D42E08C390FE

Правила, инструкции, FAQ!!!
Торрент  Добавлен [16 мар 2014, 00:24] Скачать торрент Магнет ссылка
Скачать торрент
[ Размер 12.73 КБ / Просмотров 33 ]

Статус  
 
Размер  284.31 МБ
Приватный: Нет (DHT включён)
.torrent скачан  2
 


     Отправить личное сообщение
   
Страница 1 из 1
Показать сообщения за:  Поле сортировки  
Начать новую тему Ответить на тему


Сейчас этот форум просматривают: нет зарегистрированных пользователей и гости: 0


Вы не можете начинать темы
Вы не можете отвечать на сообщения
Вы не можете редактировать свои сообщения
Вы не можете удалять свои сообщения
Вы не можете добавлять вложения

Перейти:  
cron