Начать новую тему Ответить на тему
Статистика раздачи
Размер: 408.68 МБ | Добавлен: 05 дек 2013, 10:35 | Скачали: 1
Сидеров: 4  [0 байт/сек]    Личеров: 2  [0 байт/сек]
Пред. тема | След. тема 

Автор
Сообщение

СообщениеДобавлено: 05 дек 2013, 10:35 

Ответить с цитатой 

Rockets - The Best (1996)


Год: 1996
Жанр: rock/electro rock
Продолжительность: 01.11.54

Кодек: FLAC + CUE
Битрейт: Lossless 1024 kBit/s

Трек лист:
01. Electric Delight [0:05:09.10]
02. Galactica [0:04:40.71]
03. Ballade sur Mars [0:02:18.55]
04. If You Drive [0:04:47.21]
05. On The Road Again [0:08:47.73]
06. Atlantis Town [0:04:14.73]
07. Future Game [0:04:49.63]
08. Synthetic Man [0:04:45.68]
09. Atomic [0:04:00.00]
10. Cosmic Rase [0:04:16.44]
11. Last Space Trian [0:03:07.42]
12. Astral World [0:04:26.23]
13. In the Black Hole [0:04:29.49]
14. Future Women [0:03:44.62]
15. One More Mission [0:04:11.25]
16. Back to Your Planet [0:04:01.40]
Exact Audio Copy V0.99 prebeta 5 from 4. May 2009

Отчёт EAC об извлечении, выполненном 19. сентября 2010, 10:53

Rockets / The Best

Дисковод: PIONEER DVD-RW DVR-112D Adapter: 2 ID: 1

Режим чтения : Достоверность
Использование точного потока : Да
Отключение кэша аудио : Да
Использование указателей C2 : Нет

Коррекция смещения при чтении : 48
Способность читать области Lead-in и Lead-out : Да
Заполнение пропущенных сэмплов тишиной : Да
Удаление блоков с тишиной в начале и конце : Нет
При вычислениях CRC использовались нулевые сэмплы : Нет
Интерфейс : Встроенный Win32-интерфейс для Win NT/2000

Выходной формат : Пользовательский кодировщик
Выбранный битрейт : 1024 kBit/s
Качество : Высокий
Добавление ID3-тэга : Да
Утилита сжатия : C:\Program Files\Exact Audio Copy\FLAC\FLAC.EXE
Дополнительные параметры : -6 -V -T "ARTIST=%a" -T "TITLE=%t" -T "ALBUM=%g" -T "DATE=%y" -T "TRACKNUMBER=%n" -T "GENRE=%m" -T "COMMENT=%e" %s -o %d

TOC извлечённого CD

Трек | Старт | Длительность | Начальный сектор | Конечный сектор
---------------------------------------------------------------------
1 | 0:00.30 | 5:09.10 | 30 | 23214
2 | 5:09.40 | 4:40.71 | 23215 | 44285
3 | 9:50.36 | 2:18.55 | 44286 | 54690
4 | 12:09.16 | 4:47.21 | 54691 | 76236
5 | 16:56.37 | 8:47.73 | 76237 | 115834
6 | 25:44.35 | 4:14.73 | 115835 | 134957
7 | 29:59.33 | 4:49.63 | 134958 | 156695
8 | 34:49.21 | 4:45.68 | 156696 | 178138
9 | 39:35.14 | 4:00.00 | 178139 | 196138
10 | 43:35.14 | 4:16.44 | 196139 | 215382
11 | 47:51.58 | 3:07.42 | 215383 | 229449
12 | 50:59.25 | 4:26.23 | 229450 | 249422
13 | 55:25.48 | 4:29.49 | 249423 | 269646
14 | 59:55.22 | 3:44.62 | 269647 | 286508
15 | 63:40.09 | 4:11.25 | 286509 | 305358
16 | 67:51.34 | 4:01.40 | 305359 | 323473

Характеристики диапазона извлечения и сообщения об ошибках

Выбранный диапазон

Имя файла C:\Users\Vlad67\Music\Копии дисков(EAC)\Rockets - The Best\Rockets - The Best.wav

Подозрительная позиция 1:11:52

Пиковый уровень 79.5 %
Качество диапазона 99.9 %
CRC теста BF83D195
CRC копии BF83D195
Копирование завершено

Были ошибки

AccurateRip: сводка

Трек 1 нет в базе данных
Трек 2 нет в базе данных
Трек 3 нет в базе данных
Трек 4 нет в базе данных
Трек 5 нет в базе данных
Трек 6 нет в базе данных
Трек 7 нет в базе данных
Трек 8 нет в базе данных
Трек 9 нет в базе данных
Трек 10 нет в базе данных
Трек 11 нет в базе данных
Трек 12 нет в базе данных
Трек 13 нет в базе данных
Трек 14 нет в базе данных
Трек 15 нет в базе данных
Трек 16 нет в базе данных

Ни одного трека нет в базе AccurateRip

Конец отчёта
AUDIOCHECKER v2.0 beta (build 457) - by Dester -
~~~~~~~~~~~~~~~~~~~~~~~~~~~~~~~~~~
-=== НЕ РЕДАКТИРУЙТЕ ЭТОТ ФАЙЛ! ===-

Путь: ...\Rockets - The Best

1 -=- Rockets - The Best.flac -=- CDDA (100%)

221390036
Правила, инструкции, FAQ!!!
Торрент  Добавлен [05 дек 2013, 10:35] Скачать торрент Магнет ссылка
Скачать торрент
[ Размер 16.94 КБ / Просмотров 75 ]

Статус  
 
Размер  408.68 МБ
Приватный: Нет (DHT включён)
.torrent скачан  1
 


     Отправить личное сообщение
   
Страница 1 из 1
Показать сообщения за:  Поле сортировки  
Начать новую тему Ответить на тему


Сейчас этот форум просматривают: нет зарегистрированных пользователей и гости: 0


Вы не можете начинать темы
Вы не можете отвечать на сообщения
Вы не можете редактировать свои сообщения
Вы не можете удалять свои сообщения
Вы не можете добавлять вложения

Перейти:  
cron
cron