Начать новую тему Ответить на тему
Статистика раздачи
Размер: 796.1 МБ | Добавлен: 24 авг 2016, 12:19 | Скачали: 2
Сидеров: 19  [0 байт/сек]    Личеров: 2  [0 байт/сек]
Пред. тема | След. тема 

Автор
Сообщение

СообщениеДобавлено: 24 авг 2016, 12:19 

Ответить с цитатой 

The Who - Live At Leeds

Жанр: Rock
Носитель: LP
Год выпуска: 1980
Лейбл: MCA
Страна-производитель: U.S
Аудио кодек: FLAC
Тип рипа: tracks+.cue
Формат записи: 32/192
Формат раздачи: 24/96
Продолжительность: 38.05 min
Треклист:
01. Young Man Blues
02. Substitute
03. Summertime Blues
04. Shakin' All Over
05. My Generation
06. Magic Bus

Источник оцифровки: автором раздачи
Код класса состояния винила: Ex+
Устройство воспроизведения: Электроника ЭП 017С
Головка звукоснимателя: Audio-Technica AT95
Предварительный усилитель: Бриг-001
АЦП: VIA HD audio device
Программа-оцифровщик: Izotope RX 4 Advanced
Обработка: Izotope RX 4 Advanced
foobar2000 1.2.2 / Dynamic Range Meter 1.1.1
log date: 2015-11-10 19:31:01

--------------------------------------------------------------------------------
Analyzed: The Who / Live At Leads (Original)
--------------------------------------------------------------------------------

DR Peak RMS Duration Track
--------------------------------------------------------------------------------
DR11 -0.99 dB -14.49 dB 4:53 ?-Young Man Blues
DR11 0.00 dB -13.06 dB 2:21 ?-Substitute
DR11 -0.72 dB -12.98 dB 3:30 ?-Summertime Blues
DR11 -1.40 dB -13.94 dB 4:34 ?-Shakin' All Over
DR12 -0.64 dB -15.28 dB 14:49 ?-My Generation
DR12 -0.49 dB -17.18 dB 7:58 ?-Magic Bus
--------------------------------------------------------------------------------

Number of tracks: 6
Official DR value: DR11

Samplerate: 96000 Hz
Channels: 2
Bits per sample: 24
Bitrate: 2857 kbps
Codec: FLAC
================================================================================
Из коллекций моего друга Сосо Ч.
(а дружили мы с детского сада....)
Царство ему небесная!
Правила, инструкции, FAQ!!!
Торрент  Добавлен [24 авг 2016, 12:19] Скачать торрент Магнет ссылка
Скачать торрент
[ Размер 16.61 КБ / Просмотров 17 ]

Статус
Проверен 
 
Размер  796.1 МБ
Приватный: Нет (DHT включён)
.torrent скачан  2
 


     Отправить личное сообщение
   
Страница 1 из 1
Показать сообщения за:  Поле сортировки  
Начать новую тему Ответить на тему


Сейчас этот форум просматривают: нет зарегистрированных пользователей и гости: 0


Вы не можете начинать темы
Вы не можете отвечать на сообщения
Вы не можете редактировать свои сообщения
Вы не можете удалять свои сообщения
Вы не можете добавлять вложения

Перейти:  
cron
cron