Начать новую тему Ответить на тему
Статистика раздачи
Размер: 811.69 МБ | Добавлен: 24 авг 2016, 12:34 | Скачали: 0
Сидеров: 7  [0 байт/сек]    Личеров: 1  [0 байт/сек]
Пред. тема | След. тема 

Автор
Сообщение

СообщениеДобавлено: 24 авг 2016, 12:34 

Ответить с цитатой 

The Rolling Stones - Through The Past, Darkly (Big Hits Vol. 2)

Жанр: Rock
Год выхода альбома: 1969
Год выпуска диска: 2007
Производитель дисков: Japan - Universal Music - UIJY-9002
Аудио кодек: flac
Тип рипа: tracks
Формат записи: 24/192
Формат раздачи: 24/96
Продолжительность: 39:03

Треклист:
1. Paint It, Black - 3:26
2. Ruby Tuesday - 3:21
3. She’s a Rainbow - 4:17
4. Jumpin’ Jack Flash - 3:47
5. Mother’s Little Helper - 2:51
6. Let’s Spend the Night Together - 3:41
7. Honky Tonk Women - 3:07
8. Dandelion - 3:38
9. 2000 Light Years from Home - 4:55
10. Have You Seen Your Mother, Baby, Standing in the Shadow? - 2:39
11. Street Fighting Man - 3:20

Описание:
Through the Past, Darkly (Big Hits Vol. 2) is The Rolling Stones’second official compilation album, released in 1969 shortly following Brian Jones’s departure from the group and subsequent death. The album was released by Decca Records in the United Kingdom and London Records/ABKCO Records in the United States.In September, Through the Past, Darkly (Big Hits Vol. 2) — dedicated to Jones — appeared with an octagonal-shaped album cover. Because their first “Big Hits” compilation had been released in separate formats, with the Aftermath-era material appearing only on its UK edition, the American edition of “Big Hits Vol. 2” included hit singles from the “Aftermath” period.The British track listing included the more obscure “You Better Move On”, from The Rolling Stones’ self-titled 1964 debut EP and “Sittin’ on a Fence”, an Aftermath outtake originally released in 1967 on the US-compiled Flowers album. In addition to those songs, many tracks, notably single-only releases, were collected for the first time on a UK Rolling Stones album: “Let’s Spend the Night Together”, “Ruby Tuesday”, “We Love You”, “Dandelion” and “Honky Tonk Women”.
Both versions of Through the Past, Darkly (Big Hits Vol. 2) proved to be popular releases, reaching #2 in the UK and US with enduring sales.
The name of the album is a play on a line from the KJV translation of I Corinthians 13: “For now we see through a glass, darkly, but then face to face: . . .”, but it is more likely the Stones intended a homage to Ingmar Bergman and his 1961 film Through a Glass Darkly.
In the inside flap of the album, there is a tribute to Jones, which reads: “When this you see, remember me, and bear me in your mind. Let all the world say what they may, speak of me as you find.”

Заметка от aksman:
As usual with these japanese 200g re-issues everything was perfectly produced....
From the remake of the original limited octagonal cover up to the pressing and sound quality.
A wonderful release!


Музыканты:
Mick Jagger – lead vocals, guitar, harmonica, and keyboards
Brian Jones – guitar, harmonica, sitar, tambura, mellotron, recorder, and organ, backing vocals
Keith Richards – guitar, keyboards, and backing vocals
Mick Taylor – guitar
Charlie Watts – drums, percussion
Bill Wyman – bass guitar, synthesizer, keyboards, and backing vocals


Дополнительная информация:
О релизе: рип от aksman
Подробно о диске:
Hannl "limited" Record Cleaning Machine with Rotating Brush
TT: Bergmann Audio "Magne" (with air-bearing platter)
Tonearm: Bergmann Magne (tangential/linear air-bearing tonearm)
Cartridge: Ortofon MC A 90
Phono Amp: Nagra BPS (battery driven pre amp; 100 Ohm load)
E-MU 0404 external USB 2.0 Audiointerface
Interconnects by Silent Wire (NF-7)
Wavelab 6.1 recording software (recording & manual click removal)
iZotope RX Advanced 2.0 (resampling & audio restoration)
Traders Little Helper (SBE fix on 16/44.1)

Vacuum Cleaning > Bergmann Magne > Nagra BPS > Laptop > Wavelab 6.1 (24/192) > manual click removal (not neccessary this time)
analyze (no clipping, no DC Bias offset) > resample to 24/96 (16/44.1) > split into individual Tracks > FLAC encoded (Vers. 1.21)

No silence been removed, please burn gapless to match original tracklayout.
Код:
Код:
foobar2000 1.1.8 / Dynamic Range Meter 1.1.1
log date: 2011-11-26 00:07:51

--------------------------------------------------------------------------------
Analyzed: The Rolling Stones / Through the Past, Darkly (Big Hits Volume 2)
--------------------------------------------------------------------------------

DR         Peak         RMS     Duration Track
--------------------------------------------------------------------------------
DR13      -1.34 dB   -16.40 dB      3:26 01-Paint It, Black
DR11      -2.92 dB   -15.95 dB      3:21 02-Ruby Tuesday
DR12      -2.13 dB   -17.49 dB      4:17 03-She's a Rainbow
DR12      -1.62 dB   -15.10 dB      3:47 04-Jumpin' Jack Flash
DR13      -0.84 dB   -15.70 dB      2:51 05-Mother's Little Helper
DR12      -1.87 dB   -15.26 dB      3:41 06-Let's Spend the Night Together
DR12      -0.42 dB   -14.77 dB      3:07 07-Honky Tonk Women
DR11      -1.60 dB   -14.77 dB      3:38 08-Dandelion
DR14      -1.64 dB   -19.85 dB      4:55 09-2000 Light Years from Home
DR11      -3.49 dB   -16.05 dB      2:39 10-Have You Seen Your Mother, Baby, Standing in the Shadow
DR11      -2.31 dB   -15.80 dB      3:20 11-Street Fighting Man
--------------------------------------------------------------------------------

Number of tracks:  11
Official DR value: DR12

Samplerate:        96000 Hz
Channels:          2
Bits per sample:   24
Bitrate:           2905 kbps
Codec:             FLAC
================================================================================

She's a Rainbow

2000 Light Years from Home
She's a Rainbow

2000 Light Years from Home
She's a Rainbow

2000 Light Years from Home
Правила, инструкции, FAQ!!!
Торрент  Добавлен [24 авг 2016, 12:34] Скачать торрент Магнет ссылка
Скачать торрент
[ Размер 18.06 КБ / Просмотров 55 ]

Статус
Проверен 
 
Размер  811.69 МБ
Приватный: Нет (DHT включён)
.torrent скачан  0
 


     Отправить личное сообщение
   
Страница 1 из 1
Показать сообщения за:  Поле сортировки  
Начать новую тему Ответить на тему


Сейчас этот форум просматривают: нет зарегистрированных пользователей и гости: 0


Вы не можете начинать темы
Вы не можете отвечать на сообщения
Вы не можете редактировать свои сообщения
Вы не можете удалять свои сообщения
Вы не можете добавлять вложения

Перейти:  
cron
cron