Начать новую тему Ответить на тему
Статистика раздачи
Размер: 851.49 МБ | Добавлен: 24 авг 2016, 11:30 | Скачали: 1
Сидеров: 25  [0 байт/сек]    Личеров: 6  [0 байт/сек]
Пред. тема | След. тема 

Автор
Сообщение

СообщениеДобавлено: 24 авг 2016, 11:30 

Ответить с цитатой 

The Rolling Stones - Let it Bleed

Жанр: Rock
Год выхода альбома: 1969
Год выпуска диска: 2007
Производитель дисков: Japan - Universal Music - UIJY-9023
Аудио кодек: flac
Тип рипа: tracks
Формат записи: 24/192
Формат раздачи: 24/96
Продолжительность: 43:01

Треклист:
The track listing on the back of the album jacket did not follow the one on the album itself. According to Brownjohn, he altered the track listing purely for visual reasons; the correct order was shown on the record’s label. Additionally, “Gimme Shelter” is rendered as “Gimmie Shelter” on the jacket.

1. Gimme Shelter - 4:34
2. Love in Vain - 4:24
3. Country Honk - 3:10
4. Live with Me - 3:36
5. Let It Bleed - 5:34
6. Midnight Rambler - 6:58
7. You Got the Silver - 2:53
8. Monkey Man - 4:16
9. You Can’t Always Get What You Want - 7:35

Описание:
Let It Bleed is the eighth British and tenth American album by English rock band The Rolling Stones, released in December 1969 by Decca Records in the United Kingdom and London Records in the United States. Released shortly after the band’s 1969 American Tour, it is the follow-up to 1968′s Beggars Banquet and the last album by the band to feature Brian Jones as well as the first to feature Mick Taylor.

Заметка от aksman:
While Side one was manufactures perfectly with nearly no click, Side two been full of little tinyl clicks...
Okay for listening via speakers but not okay for a quality rip. A standard washing on my RCM makes it a little better but still not acceptable. Another 30 minute spin on the RCM solved the problem finally.
The sound of this release is awesome, even better than the japanese "Beggars Banquet".


Музыканты:
Mick Jagger – lead and backing vocals, harmonica on “Gimme Shelter” and “Midnight Rambler”
Keith Richards – acoustic, electric and slide guitar, bass guitar on “Live with Me”, backing vocals, lead vocals on “You Got the Silver”
Brian Jones – autoharp on “You Got the Silver”, percussion on “Midnight Rambler”
Mick Taylor – electric guitar on “Live with Me”, slide guitar on “Country Honk”
Charlie Watts – drums (except “You Can’t Always Get What You Want”)
Bill Wyman – bass guitar (except “Country Honk” and “Live with Me”), autoharp on “Let It Bleed”, vibes on “Monkey Man”


Дополнительная информация:
О релизе: рип от aksman
Подробно о диске:
Hannl "limited" Record Cleaning Machine with Rotating Brush
TT: Bergmann Audio "Magne" (with air-bearing platter)
Tonearm: Bergmann Magne (tangential/linear air-bearing tonearm)
Cartridge: Ortofon MC A 90
Phono Amp: Nagra BPS (battery driven pre amp; 100 Ohm load)
E-MU 0404 external USB 2.0 Audiointerface
Interconnects by Silent Wire (NF-7)
Wavelab 6.1 recording software (recording & manual click removal)
iZotope RX Advanced 2.0 (resampling & audio restoration)
Traders Little Helper (SBE fix on 16/44.1)

Vacuum Cleaning > Bergmann Magne > Nagra BPS > Laptop > Wavelab 6.1 (24/192) > manual click removal
analyze (no clipping, no DC Bias offset) > resample to 24/96 (16/44.1) > split into individual Tracks > FLAC encoded (Vers. 1.21)

No silence been removed, please burn gapless to match original tracklayout.
Код:
Код:
foobar2000 1.1.8 / Dynamic Range Meter 1.1.1
log date: 2011-11-26 00:44:11

--------------------------------------------------------------------------------
Analyzed: The Rolling Stones / Let it Bleed
--------------------------------------------------------------------------------

DR         Peak         RMS     Duration Track
--------------------------------------------------------------------------------
DR12      -1.55 dB   -15.20 dB      4:34 01-Gimme Shelter
DR12      -2.15 dB   -17.16 dB      4:24 02-Love in Vain
DR14      -3.73 dB   -20.48 dB      3:10 03-Country Honk
DR14      -2.52 dB   -18.14 dB      3:36 04-Live with Me
DR11      -3.32 dB   -16.38 dB      5:34 05-Let It Bleed
DR12      -1.43 dB   -16.96 dB      6:58 06-Midnight Rambler
DR12      -3.20 dB   -19.50 dB      2:53 07-You Got the Silver
DR12      -2.74 dB   -17.05 dB      4:16 08-Monkey Man
DR12      -2.31 dB   -18.12 dB      7:35 09-You Can't Always Get What You Want
--------------------------------------------------------------------------------

Number of tracks:  9
Official DR value: DR12

Samplerate:        96000 Hz
Channels:          2
Bits per sample:   24
Bitrate:           2765 kbps
Codec:             FLAC
================================================================================

Let It Bleed

You Can’t Always Get What You Want
Let It Bleed

You Can’t Always Get What You Want
Let It Bleed

You Can’t Always Get What You Want
Правила, инструкции, FAQ!!!
Торрент  Добавлен [24 авг 2016, 11:30] Скачать торрент Магнет ссылка
Скачать торрент
[ Размер 18.57 КБ / Просмотров 21 ]

Статус
Проверен 
 
Размер  851.49 МБ
Приватный: Нет (DHT включён)
.torrent скачан  1
 


     Отправить личное сообщение
   
Страница 1 из 1
Показать сообщения за:  Поле сортировки  
Начать новую тему Ответить на тему


Сейчас этот форум просматривают: нет зарегистрированных пользователей и гости: 0


Вы не можете начинать темы
Вы не можете отвечать на сообщения
Вы не можете редактировать свои сообщения
Вы не можете удалять свои сообщения
Вы не можете добавлять вложения

Перейти:  
cron
cron