Начать новую тему Ответить на тему
Статистика раздачи
Размер: 860.68 МБ | Добавлен: 24 авг 2016, 11:39 | Скачали: 2
Сидеров: 4  [0 байт/сек]    Личеров: 1  [0 байт/сек]
Пред. тема | След. тема 

Автор
Сообщение

СообщениеДобавлено: 24 авг 2016, 11:39 

Ответить с цитатой 

The Doobie Brothers - The Captain and Me

Жанр: Rock
Носитель: LP
Год выпуска: 1973
Лейбл: Warner Bros. Records Inc., P-8325W
Страна-производитель: Japan
Аудио кодек: FLAC
Тип рипа: image+.cue
Формат записи: 24/96
Формат раздачи: 24/96
Продолжительность: 00:41:59
Треклист:
Side 1

1. Natural Thing
2. Long Train Runnin
3. China Grove
4. Dark Eyed Cajun Woman
5. Clear as the Driven Snow

Side 2

6. Without You
7. South City Midnight Lady
8. Evil Woman
9. Busted Down Around O'Connelly Corners
10. Ukiah
11. The Captain and Me

Источник оцифровки: Valiko(aka Валентин)
Код класса состояния винила: Ex
Устройство воспроизведения: VICTOR JL-B37
Головка звукоснимателя: SHURE V15/III /Stylus SAS VN35HE "Special Tracking" JICO
Предварительный усилитель: VICTOR P-3030
АЦП: ONKYO WAVIO SE-300PCIE
Программа-оцифровщик: WavePurity Professional
Обработка: не производилась
foobar2000 1.3.5 / Dynamic Range Meter 1.1.1
log date: 2015-03-14 16:25:30

--------------------------------------------------------------------------------
Analyzed: The Doobie Brothers / ?
--------------------------------------------------------------------------------

DR Peak RMS Duration Track
--------------------------------------------------------------------------------
DR12 -1.11 dB -15.41 dB 3:17 01-Side 1. Natural Thing
DR12 0.00 dB -14.90 dB 3:28 02-Long Train Runnin
DR12 -0.76 dB -15.23 dB 3:16 03-China Grove
DR12 0.00 dB -14.55 dB 4:15 04-Dark Eyed Cajun Woman
DR12 -0.55 dB -16.62 dB 5:17 05-Clear as the Driven Snow
DR11 -1.00 dB -14.39 dB 5:02 06-Side 2. Without You
DR12 -1.56 dB -16.95 dB 5:29 07-South City Midnight Lady
DR11 -1.00 dB -14.05 dB 3:22 08-Evil Woman
DR11 -8.43 dB -24.64 dB 0:44 09-Busted Down Around O'Connelly Corners
DR12 -2.83 dB -17.43 dB 3:01 10-Ukiah
DR12 -0.76 dB -15.32 dB 4:47 11-The Captain and Me
--------------------------------------------------------------------------------

Number of tracks: 11
Official DR value: DR12

Samplerate: 96000 Hz
Channels: 2
Bits per sample: 24
Bitrate: 2844 kbps
Codec: FLAC
================================================================================
The Doobie Brothers:

Tom Johnston – guitars, harmonica, vocals
Patrick Simmons – guitars, synthesizer, vocals
Tiran Porter – bass, vocals
John Hartman – drums, percussion, vocals
Michael Hossack – drums, congas, cymbals, timbales

Additional players:

Bill Payne – piano, organ, keyboards
Jeffrey "Skunk" Baxter – guitar, pedal steel guitar, steel guitar
Ted Templeman – percussion
Nick DeCaro – strings arrangement
Production

Production Coordination: Benita Brazier
Engineer: Donn Landee
Design: Barbara Casado, Design
String Arrangements: Nick DeCaro
Photography: Jill Maggid, Photography
Art Direction: Ed Thrasher, Art Direction
ARP programming: Malcolm Cecil, Robert Margouleff

Producer: Ted Templeman

Recorded: 1972-3 at Warner Brothers Studios, North Hollywood, CA
Released: March 2, 1973
#777#777#777#777#777#777
Правила, инструкции, FAQ!!!
Торрент  Добавлен [24 авг 2016, 11:39] Скачать торрент Магнет ссылка
Скачать торрент
[ Размер 17.77 КБ / Просмотров 17 ]

Статус
Проверен 
 
Размер  860.68 МБ
Приватный: Нет (DHT включён)
.torrent скачан  2
 


     Отправить личное сообщение
   
Страница 1 из 1
Показать сообщения за:  Поле сортировки  
Начать новую тему Ответить на тему


Сейчас этот форум просматривают: нет зарегистрированных пользователей и гости: 0


Вы не можете начинать темы
Вы не можете отвечать на сообщения
Вы не можете редактировать свои сообщения
Вы не можете удалять свои сообщения
Вы не можете добавлять вложения

Перейти:  
cron
cron