Начать новую тему Ответить на тему
Статистика раздачи
Размер: 260.17 МБ | Добавлен: 24 авг 2016, 12:38 | Скачали: 0
Сидеров: 5  [0 байт/сек]    Личеров: 2  [0 байт/сек]
Пред. тема | След. тема 

Автор
Сообщение

СообщениеДобавлено: 24 авг 2016, 12:38 

Ответить с цитатой 

The Beatles - Strawberry Fields Forever/Penny Lane

Жанр: Rock
Год выпуска: 1967
Лейбл: Parlophone
Страна-производитель: Yugoslavia
Аудио кодек: FLAC
Тип рипа: tracks+.cue
Формат записи: 32/192
Формат раздачи: 24/96
Продолжительность: 12.08 min
Треклист:
01. Strawberry Fields Forever
02. And Your Bird Can Sing
03. Penny Lane
04. I'm Only Sleeping

Источник оцифровки: автором раздачи
Код класса состояния винила: VG+
Устройство воспроизведения: Электроника ЭП 017С
Головка звукоснимателя: Audio-Technica AT95
Предварительный усилитель: Бриг-001
АЦП: VIA HD audio device
Программа-оцифровщик: Izotope RX III Advanced
Обработка:Izotope RX III Advanced

foobar2000 1.1.10 / Dynamic Range Meter 1.1.1
log date: 2014-12-09 12:50:22

--------------------------------------------------------------------------------
Analyzed: The Beatles / Singles
--------------------------------------------------------------------------------

DR Peak RMS Duration Track
--------------------------------------------------------------------------------
DR11 0.00 dB -14.43 dB 4:09 ?-Strawberry Fields Forever
DR9 -0.82 dB -11.00 dB 2:02 ?-And Your Bird Can Sing
DR10 -0.23 dB -11.87 dB 3:02 ?-Penny Lane
DR10 -1.41 dB -14.20 dB 3:01 ?-I'm Only Sleeping
--------------------------------------------------------------------------------

Number of tracks: 4
Official DR value: DR10

Samplerate: 96000 Hz
Channels: 2
Bits per sample: 24
Bitrate: 2944 kbps
Codec: FLAC
================================================================================
Заменено головка AT91 на AT95
Правила, инструкции, FAQ!!!
Торрент  Добавлен [24 авг 2016, 12:38] Скачать торрент Магнет ссылка
Скачать торрент
[ Размер 11.39 КБ / Просмотров 15 ]

Статус
Проверен 
 
Размер  260.17 МБ
Приватный: Нет (DHT включён)
.torrent скачан  0
 


     Отправить личное сообщение
   
Страница 1 из 1
Показать сообщения за:  Поле сортировки  
Начать новую тему Ответить на тему


Сейчас этот форум просматривают: нет зарегистрированных пользователей и гости: 0


Вы не можете начинать темы
Вы не можете отвечать на сообщения
Вы не можете редактировать свои сообщения
Вы не можете удалять свои сообщения
Вы не можете добавлять вложения

Перейти:  
cron
cron