Начать новую тему Ответить на тему
Статистика раздачи
Размер: 465.69 МБ | Добавлен: 24 авг 2016, 14:17 | Скачали: 0
Сидеров: 4  [0 байт/сек]    Личеров: 1  [0 байт/сек]
Пред. тема | След. тема 

Автор
Сообщение

СообщениеДобавлено: 24 авг 2016, 14:17 

Ответить с цитатой 

The Beatles - Rock 'N' Roll Music

Жанр: Rock
Страна-производитель диска: France "Sagem"
Год издания диска: 1978
Издатель (лейбл): EMI
Страна: U.K
Аудио кодек: APE (*.ape)
Тип рипа: image+.cue
продолжителност: 74 min
Битрейт аудио: lossless
Источник (релизер): Собствений Виниловий Диск
Наличие сканов в содержимом раздачи: нет
Код:
01 Twist and Shout
02 I Saw Her Standing There
03 You Can't Do That
04 I Wanna Be Your Man
05 I Call Your Name
06 Boys
07 Long Tall Sally
08 Rock & Roll Music
09 Slow Down
10 Kansas City-Hey-Hev-Hey-Hey!
11 Money (That's "what I v."ant)
12 Bad Boy
13 Matchbox
14 Roll Over Beethoven
15 Dizzy Miss Lizzy
16 Any Time at All
17 Drive My Car
18 Everybody's Trying to Be My Baby
19 The Night Before
20 I'm Down
21 Revolution
22 Bacк in the U.S.S.R
23 Helter Skelter
24 Taxman
25 Got to Get You into My Life
26 Hey 3ulldog
27 Birthday
28 Get Back
Код:
foobar2000 1.1.10 / Dynamic Range Meter 1.1.1
log date: 2012-04-04 14:41:36

--------------------------------------------------------------------------------
Analyzed: Beatles / Rock 'N' Roll Music (US LP)
--------------------------------------------------------------------------------

DR         Peak         RMS     Duration Track
--------------------------------------------------------------------------------
DR10      -7.30 dB   -19.92 dB      2:35 ?-Twist And Shout
DR9       -7.65 dB   -18.73 dB      2:55 ?-I Saw Her Standing There
DR10      -6.76 dB   -18.15 dB      2:36 ?-You Can't Do That
DR10      -6.77 dB   -18.90 dB      2:01 ?-I Wanna Be Your Man
DR10      -7.52 dB   -19.60 dB      2:10 ?-I Call Your Name
DR11      -6.98 dB   -20.15 dB      2:26 ?-Boys
DR10      -8.01 dB   -19.63 dB      2:04 ?-Long Tall Sally
DR10      -6.53 dB   -17.77 dB      2:32 ?-Rock And Roll Music
DR11      -8.49 dB   -20.60 dB      2:57 ?-Slow Down
DR10      -8.81 dB   -20.31 dB      2:39 ?-Kansas City/Hey Hey Hey
DR9       -7.75 dB   -18.41 dB      2:49 ?-Money (That's What I Want)
DR11      -8.31 dB   -20.85 dB      2:20 ?-Bad Boy
DR10      -9.18 dB   -21.32 dB      1:59 ?-Matchbox
DR10      -9.52 dB   -21.53 dB      2:44 ?-Roll Over Beethoven
DR10      -6.38 dB   -19.78 dB      2:51 ?-Dizzy Miss Lizzie
DR10      -7.96 dB   -20.12 dB      2:12 ?-Any Time At All
DR10      -8.62 dB   -20.69 dB      2:27 ?-Drive My Car
DR9       -8.20 dB   -19.82 dB      2:24 ?-Everybody's Trying To Be My Baby
DR10      -8.52 dB   -19.90 dB      2:33 ?-The Night Before
DR9       -8.00 dB   -19.41 dB      2:31 ?-I'm Down
DR10      -8.68 dB   -19.99 dB      3:22 ?-Revolution
DR10      -8.85 dB   -20.12 dB      2:41 ?-Back In The U.S.S.R.
DR10      -7.56 dB   -19.99 dB      4:26 ?-Helter Skelter
DR10      -9.10 dB   -21.48 dB      2:36 ?-Taxman
DR10      -6.36 dB   -20.59 dB      2:28 ?-Got To Get You Into My Life
DR11      -7.41 dB   -21.06 dB      3:12 ?-Hey Bulldog
DR11      -8.13 dB   -20.08 dB      2:42 ?-Birthday
DR10      -9.32 dB   -21.30 dB      3:04 ?-Get Back
--------------------------------------------------------------------------------

Number of tracks:  28
Official DR value: DR10

Samplerate:        44100 Hz
Channels:          2
Bits per sample:   16
Bitrate:           876 kbps
Codec:             Monkey's Audio
================================================================================
Код:
[url=http://fastpic.ru/view/37/2012/0516/9a0a82f16e416ecbf342728490424960.jpg.html][img]http://i37.fastpic.ru/thumb/2012/0516/60/9a0a82f16e416ecbf342728490424960.jpeg[/img][/url]
[url=http://fastpic.ru/view/38/2012/0516/f21e2da9835f3f1938f455c3a13ffe33.jpg.html][img]http://i38.fastpic.ru/thumb/2012/0516/33/f21e2da9835f3f1938f455c3a13ffe33.jpeg[/img][/url]
[url=http://fastpic.ru/view/38/2012/0516/66061fa17b5fa18d3f4f2b97c513e9fe.jpg.html][img]http://i38.fastpic.ru/thumb/2012/0516/fe/66061fa17b5fa18d3f4f2b97c513e9fe.jpeg[/img][/url]
[url=http://fastpic.ru/view/38/2012/0516/6530c2d2f511578ed6cffaae9f408910.jpg.html][img]http://i38.fastpic.ru/thumb/2012/0516/10/6530c2d2f511578ed6cffaae9f408910.jpeg[/img][/url]
Код:
Exact Audio Copy V0.99 prebeta 5 from 4. May 2009

Отчёт EAC об извлечении, выполненном 28. октября 2010, 22:32

Beatles / Rock 'N' Roll Music (US LP)

Дисковод: TSSTcorpCDDVDW SH-S203B   Adapter: 1  ID: 1

Режим чтения                 : Достоверность
Использование точного потока : Да
Отключение кэша аудио        : Да
Использование указателей C2  : Нет

Коррекция смещения при чтении                     : 6
Способность читать области Lead-in и Lead-out     : Нет
Заполнение пропущенных сэмплов тишиной            : Да
Удаление блоков с тишиной в начале и конце        : Нет
При вычислениях CRC использовались нулевые сэмплы : Да
Интерфейс                                         : Установленный внешний ASPI-интерфейс

Выходной формат : Внутренние WAV-операции
Формат сэмплов  : 44.100 Гц; 16 бит; стерео

TOC извлечённого CD

     Трек |   Старт  | Длительность | Начальный сектор | Конечный сектор
    ---------------------------------------------------------------------
       1  |  0:00.00 |    2:35.03   |           0      |      11627
       2  |  2:35.03 |    2:54.46   |       11628      |      24723
       3  |  5:29.49 |    2:35.50   |       24724      |      36398
       4  |  8:05.24 |    2:00.47   |       36399      |      45445
       5  | 10:05.71 |    2:09.56   |       45446      |      55176
       6  | 12:15.52 |    2:26.09   |       55177      |      66135
       7  | 14:41.61 |    2:03.62   |       66136      |      75422
       8  | 16:45.48 |    2:31.57   |       75423      |      86804
       9  | 19:17.30 |    2:56.63   |       86805      |     100067
      10  | 22:14.18 |    2:38.70   |      100068      |     111987
      11  | 24:53.13 |    2:49.08   |      111988      |     124670
      12  | 27:42.21 |    2:20.20   |      124671      |     135190
      13  | 30:02.41 |    1:58.72   |      135191      |     144112
      14  | 32:01.38 |    2:43.71   |      144113      |     156408
      15  | 34:45.34 |    2:51.10   |      156409      |     169243
      16  | 37:36.44 |    2:11.59   |      169244      |     179127
      17  | 39:48.28 |    2:27.23   |      179128      |     190175
      18  | 42:15.51 |    2:24.18   |      190176      |     200993
      19  | 44:39.69 |    2:32.71   |      200994      |     212464
      20  | 47:12.65 |    2:30.69   |      212465      |     223783
      21  | 49:43.59 |    3:21.74   |      223784      |     238932
      22  | 53:05.58 |    2:41.18   |      238933      |     251025
      23  | 55:47.01 |    4:26.06   |      251026      |     270981
      24  | 60:13.07 |    2:36.27   |      270982      |     282708
      25  | 62:49.34 |    2:27.59   |      282709      |     293792
      26  | 65:17.18 |    3:11.72   |      293793      |     308189
      27  | 68:29.15 |    2:42.20   |      308190      |     320359
      28  | 71:11.35 |    3:04.08   |      320360      |     334167

Характеристики диапазона извлечения и сообщения об ошибках

Выбранный диапазон

     Имя файла C:\Users\T-Rex\Desktop\1\Beatles - Rock 'N' Roll Music (US LP).wav

     Пиковый уровень 48.0 %
     Качество диапазона 100.0 %
     CRC копии CD493F20
     Копирование... OK

Ошибок не произошло

AccurateRip: сводка

Трек  1  нет в базе данных
Трек  2  нет в базе данных
Трек  3  нет в базе данных
Трек  4  нет в базе данных
Трек  5  нет в базе данных
Трек  6  нет в базе данных
Трек  7  нет в базе данных
Трек  8  нет в базе данных
Трек  9  нет в базе данных
Трек 10  нет в базе данных
Трек 11  нет в базе данных
Трек 12  нет в базе данных
Трек 13  нет в базе данных
Трек 14  нет в базе данных
Трек 15  нет в базе данных
Трек 16  нет в базе данных
Трек 17  нет в базе данных
Трек 18  нет в базе данных
Трек 19  нет в базе данных
Трек 20  нет в базе данных
Трек 21  нет в базе данных
Трек 22  нет в базе данных
Трек 23  нет в базе данных
Трек 24  нет в базе данных
Трек 25  нет в базе данных
Трек 26  нет в базе данных
Трек 27  нет в базе данных
Трек 28  нет в базе данных

Ни одного трека нет в базе AccurateRip

Конец отчёта
Код:
REM DISCID AF11671C
REM COMMENT "ExactAudioCopy v0.99pb5"
PERFORMER "Beatles"
TITLE "Rock 'N' Roll Music (US LP)"
FILE "Beatles - Rock 'N' Roll Music (US LP).ape" WAVE
  TRACK 01 AUDIO
    TITLE "Twist And Shout"
    PERFORMER "Beatles"
    FLAGS DCP
    INDEX 01 00:00:00
  TRACK 02 AUDIO
    TITLE "I Saw Her Standing There"
    PERFORMER "Beatles"
    FLAGS DCP
    INDEX 00 02:33:03
    INDEX 01 02:35:03
  TRACK 03 AUDIO
    TITLE "You Can't Do That"
    PERFORMER "Beatles"
    FLAGS DCP
    INDEX 00 05:27:49
    INDEX 01 05:29:49
  TRACK 04 AUDIO
    TITLE "I Wanna Be Your Man"
    PERFORMER "Beatles"
    FLAGS DCP
    INDEX 00 08:03:24
    INDEX 01 08:05:24
  TRACK 05 AUDIO
    TITLE "I Call Your Name"
    PERFORMER "Beatles"
    FLAGS DCP
    INDEX 00 10:03:71
    INDEX 01 10:05:71
  TRACK 06 AUDIO
    TITLE "Boys"
    PERFORMER "Beatles"
    FLAGS DCP
    INDEX 00 12:13:52
    INDEX 01 12:15:52
  TRACK 07 AUDIO
    TITLE "Long Tall Sally"
    PERFORMER "Beatles"
    FLAGS DCP
    INDEX 00 14:39:61
    INDEX 01 14:41:61
  TRACK 08 AUDIO
    TITLE "Rock And Roll Music"
    PERFORMER "Beatles"
    FLAGS DCP
    INDEX 00 16:43:48
    INDEX 01 16:45:48
  TRACK 09 AUDIO
    TITLE "Slow Down"
    PERFORMER "Beatles"
    FLAGS DCP
    INDEX 00 19:15:30
    INDEX 01 19:17:30
  TRACK 10 AUDIO
    TITLE "Kansas City/Hey Hey Hey"
    PERFORMER "Beatles"
    FLAGS DCP
    INDEX 00 22:12:18
    INDEX 01 22:14:18
  TRACK 11 AUDIO
    TITLE "Money (That's What I Want)"
    PERFORMER "Beatles"
    FLAGS DCP
    INDEX 00 24:51:13
    INDEX 01 24:53:13
  TRACK 12 AUDIO
    TITLE "Bad Boy"
    PERFORMER "Beatles"
    FLAGS DCP
    INDEX 00 27:40:21
    INDEX 01 27:42:21
  TRACK 13 AUDIO
    TITLE "Matchbox"
    PERFORMER "Beatles"
    FLAGS DCP
    INDEX 00 30:00:41
    INDEX 01 30:02:41
  TRACK 14 AUDIO
    TITLE "Roll Over Beethoven"
    PERFORMER "Beatles"
    FLAGS DCP
    INDEX 00 31:59:38
    INDEX 01 32:01:38
  TRACK 15 AUDIO
    TITLE "Dizzy Miss Lizzie"
    PERFORMER "Beatles"
    FLAGS DCP
    INDEX 00 34:43:34
    INDEX 01 34:45:34
  TRACK 16 AUDIO
    TITLE "Any Time At All"
    PERFORMER "Beatles"
    FLAGS DCP
    INDEX 00 37:34:44
    INDEX 01 37:36:44
  TRACK 17 AUDIO
    TITLE "Drive My Car"
    PERFORMER "Beatles"
    FLAGS DCP
    INDEX 00 39:46:28
    INDEX 01 39:48:28
  TRACK 18 AUDIO
    TITLE "Everybody's Trying To Be My Baby"
    PERFORMER "Beatles"
    FLAGS DCP
    INDEX 00 42:13:51
    INDEX 01 42:15:51
  TRACK 19 AUDIO
    TITLE "The Night Before"
    PERFORMER "Beatles"
    FLAGS DCP
    INDEX 00 44:37:69
    INDEX 01 44:39:69
  TRACK 20 AUDIO
    TITLE "I'm Down"
    PERFORMER "Beatles"
    FLAGS DCP
    INDEX 00 47:10:65
    INDEX 01 47:12:65
  TRACK 21 AUDIO
    TITLE "Revolution"
    PERFORMER "Beatles"
    FLAGS DCP
    INDEX 00 49:41:59
    INDEX 01 49:43:59
  TRACK 22 AUDIO
    TITLE "Back In The U.S.S.R."
    PERFORMER "Beatles"
    FLAGS DCP
    INDEX 00 53:03:58
    INDEX 01 53:05:58
  TRACK 23 AUDIO
    TITLE "Helter Skelter"
    PERFORMER "Beatles"
    FLAGS DCP
    INDEX 00 55:45:01
    INDEX 01 55:47:01
  TRACK 24 AUDIO
    TITLE "Taxman"
    PERFORMER "Beatles"
    FLAGS DCP
    INDEX 00 60:11:07
    INDEX 01 60:13:07
  TRACK 25 AUDIO
    TITLE "Got To Get You Into My Life"
    PERFORMER "Beatles"
    FLAGS DCP
    INDEX 00 62:47:34
    INDEX 01 62:49:34
  TRACK 26 AUDIO
    TITLE "Hey Bulldog"
    PERFORMER "Beatles"
    FLAGS DCP
    INDEX 00 65:15:18
    INDEX 01 65:17:18
  TRACK 27 AUDIO
    TITLE "Birthday"
    PERFORMER "Beatles"
    FLAGS DCP
    INDEX 00 68:27:15
    INDEX 01 68:29:15
  TRACK 28 AUDIO
    TITLE "Get Back"
    PERFORMER "Beatles"
    FLAGS DCP
    INDEX 00 71:09:35
    INDEX 01 71:11:35
проигривател Електроника ЭП-017С (диск с прямим приводом)
(выход толко с головки,пред усилител не имееть)
головка ГЗМ-005
усилитель Бриг 001
в компе звуковая Sound Blaster
оцифровал и на треки порезал в програме Неро 7-я верся
никаких филтров для улучшеня звучания не применял
Правила, инструкции, FAQ!!!
Торрент  Добавлен [24 авг 2016, 14:17] Скачать торрент Магнет ссылка
Скачать торрент
[ Размер 18.95 КБ / Просмотров 12 ]

Статус
Проверен 
 
Размер  465.69 МБ
Приватный: Нет (DHT включён)
.torrent скачан  0
 


     Отправить личное сообщение
   
Страница 1 из 1
Показать сообщения за:  Поле сортировки  
Начать новую тему Ответить на тему


Сейчас этот форум просматривают: нет зарегистрированных пользователей и гости: 0


Вы не можете начинать темы
Вы не можете отвечать на сообщения
Вы не можете редактировать свои сообщения
Вы не можете удалять свои сообщения
Вы не можете добавлять вложения

Перейти:  
cron
cron