Начать новую тему Ответить на тему
Статистика раздачи
Размер: 1.86 ГБ | Добавлен: 24 авг 2016, 12:03 | Скачали: 2
Сидеров: 46  [0 байт/сек]    Личеров: 5  [0 байт/сек]
Пред. тема | След. тема 

Автор
Сообщение

СообщениеДобавлено: 24 авг 2016, 12:03 

Ответить с цитатой 

Supertramp

Paris


Жанр: Rock
Год выпуска: 1980 (Reissue)
Лейбл: A&M Records 396 702-1, 825 727-1
Страна-производитель: Germany
Аудио кодек: FLAC
Тип рипа: tracks
Формат записи: 32/96
Формат раздачи: 24/96
Продолжительность: 01:30:18

Треклист:
16. Crime Of The Century [00:06:28]
01. School [00:05:28]
02. Ain't Nobody But Me [00:05:38]
03. The Logical Song [00:03:57]
04. Bloody Well Right [00:06:29]
05. Breakfast In America [00:04:03]
06. You Started Laughing [00:04:03]
07. Hide In Your Shell [00:06:56]
08. From Now On [00:07:01]
09. Dreamer [00:03:47]
10. Rudy [00:07:08]
11. A Soapbox Opera [00:04:51]
12. Asylum [00:06:52]
13. Take The Long Way Home [00:05:08]
14. Fools Overture [00:10:59]
15. Two Of Us [00:01:23]

Источник оцифровки: luckburz авакс
Код класса состояния винила: NM
Устройство воспроизведения: Shure M97xE Dual CS 505-3
Предварительный усилитель: Kenwood C1
АЦП: Prodigy 7.1 HiFi w/ AD712 OpAmps
Программа-оцифровщик: Adobe Audition 3
Обработка: ClickRepair
A1 - School

A2 - Ain't Nobody But Me
A1 - School
Left Right
Min Sample Value: -23322.54 -27028.02
Max Sample Value: 22161.6 25634.72
Peak Amplitude: -2.95 dB -1.67 dB
Possibly Clipped: 0 0
DC Offset: 0 0
Minimum RMS Power: -49.62 dB -51.01 dB
Maximum RMS Power: -12.29 dB -9.62 dB
Average RMS Power: -25.19 dB -24.27 dB
Total RMS Power: -23.77 dB -22.63 dB
Actual Bit Depth: 24 Bits 24 Bits

Using RMS Window of 50 ms

A2 - Ain't Nobody But Me
Left Right
Min Sample Value: -25955.35 -27813.84
Max Sample Value: 25927.65 25017.77
Peak Amplitude: -2.02 dB -1.42 dB
Possibly Clipped: 0 0
DC Offset: 0 0
Minimum RMS Power: -47.8 dB -46.97 dB
Maximum RMS Power: -10.97 dB -9.59 dB
Average RMS Power: -21.74 dB -22.44 dB
Total RMS Power: -20.76 dB -21.5 dB
Actual Bit Depth: 24 Bits 24 Bits

Using RMS Window of 50 ms
Код:
foobar2000 1.1.7 / Dynamic Range Meter 1.1.1
log date: 2012-05-06 16:23:59

--------------------------------------------------------------------------------
Analyzed: Supertramp / Paris
--------------------------------------------------------------------------------

DR         Peak         RMS     Duration Track
--------------------------------------------------------------------------------
DR14      -1.67 dB   -20.16 dB      5:29 01-School
DR13      -1.42 dB   -18.11 dB      5:38 02-Ain't Nobody But Me
DR14      -1.40 dB   -17.82 dB      3:57 03-The Logical Song
DR15      -1.21 dB   -18.87 dB      6:29 04-Bloody Well Right
DR16      -2.05 dB   -20.97 dB      4:04 05-Breakfast In America
DR15      -1.01 dB   -20.83 dB      4:03 06-You Started Laughing
DR14      -1.35 dB   -18.91 dB      6:56 07-Hide In Your Shell
DR15      -1.33 dB   -20.04 dB      7:02 08-From Now On
DR14      -2.54 dB   -20.20 dB      3:47 09-Dreamer
DR14      -4.30 dB   -21.78 dB      7:08 10-Rudy
DR16      -1.01 dB   -20.40 dB      4:51 11-A Soapbox Opera
DR14      -1.11 dB   -18.61 dB      6:53 12-Asylum
DR14      -2.35 dB   -19.97 dB      5:09 13-Take The Long Way Home
DR14      -1.45 dB   -20.49 dB     11:00 14-Fools Overture
DR13      -7.20 dB   -25.54 dB      1:24 15-Two Of Us
DR12      -1.24 dB   -16.93 dB      6:29 16-Crime Of The Century
--------------------------------------------------------------------------------

Number of tracks:  16
Official DR value: DR14

Samplerate:        96000 Hz
Channels:          2
Bits per sample:   24
Bitrate:           2861 kbps
Codec:             FLAC
================================================================================
Правила, инструкции, FAQ!!!
Торрент  Добавлен [24 авг 2016, 12:03] Скачать торрент Магнет ссылка
Скачать торрент
[ Размер 20.68 КБ / Просмотров 31 ]

Статус
Проверен 
 
Размер  1.86 ГБ
Приватный: Нет (DHT включён)
.torrent скачан  2
 


     Отправить личное сообщение
   
Страница 1 из 1
Показать сообщения за:  Поле сортировки  
Начать новую тему Ответить на тему


Сейчас этот форум просматривают: нет зарегистрированных пользователей и гости: 0


Вы не можете начинать темы
Вы не можете отвечать на сообщения
Вы не можете редактировать свои сообщения
Вы не можете удалять свои сообщения
Вы не можете добавлять вложения

Перейти:  
cron