Начать новую тему Ответить на тему
Статистика раздачи
Размер: 1.62 ГБ | Добавлен: 24 авг 2016, 12:36 | Скачали: 0
Сидеров: 0  [0 байт/сек]    Личеров: 0  [0 байт/сек]
Пред. тема | След. тема 

Автор
Сообщение

СообщениеДобавлено: 24 авг 2016, 12:36 

Ответить с цитатой 

John Bryant ‎/ John Bryant

Жанр: Rock, Soft Rock, Pop, Folk, World, & Country
Год выпуска: 1971
Лейбл: Polydor ‎/ 2383 069
Страна-производитель: UK
Аудио кодек: FLAC
Тип рипа: image+.cue
Формат записи: 24/192
Формат раздачи: 24/192
Продолжительность: 38:58
Треклист:

A1 Daybreak 3:02
A2 Lights Of Town 2:45
A3 Lester May's Country Band 3:05
A4 The Way You Are 2:48
A5 Woodbine Annie 3:36
A6 Lincoln Station 4:20
B1 Come The Day 3:25
B2 Baltimore 3:02
B3 Milkman 3:17
B4 Warm My Bed 3:09
B5 One Man Band 5:08

Источник оцифровки: автором раздачи
Код класса состояния винила: VG+
Устройство воспроизведения: DENON DP-70L
Головка звукоснимателя: Pickering XV-15/D2000Q
Предварительный усилитель: NAD PP2 M / ARCAM delta
АЦП: M-Audio Audiophile 192
Программа-оцифровщик: Sound Forge Pro 10
Обработка: Sound Forge Pro 10
REM GENRE Rock, Soft Rock, Pop, Folk, World, & Country
REM DATE 1971
REM MViktor_VINYLRIP
REM Polydor ?– 2383 069, UK
REM Producer - Wayne Bickerton
REM Recorded at Lansdowne Studios.
TITLE "John Bryant"
PERFORMER "John Bryant"
FILE "John Bryant (Side 1) 2383 069 SUPER.flac" WAVE
TRACK 01 AUDIO
TITLE "Daybreak"
PERFORMER "John Bryant"
INDEX 01 00:00:00
TRACK 02 AUDIO
TITLE "Lights Of Town"
PERFORMER "John Bryant"
INDEX 01 03:10:40
TRACK 03 AUDIO
TITLE "Lester May's Country Band"
PERFORMER "John Bryant"
INDEX 01 06:03:20
TRACK 04 AUDIO
TITLE "The Way You Are"
PERFORMER "John Bryant"
INDEX 01 09:14:10
TRACK 05 AUDIO
TITLE "Woodbine Annie"
PERFORMER "John Bryant"
INDEX 01 12:09:40
TRACK 06 AUDIO
TITLE "Lincoln Station"
PERFORMER "John Bryant"
INDEX 01 15:54:10
FILE "John Bryant (Side 2) 2383 069 SUPER.flac" WAVE
TRACK 07 AUDIO
TITLE "Come The Day"
PERFORMER "John Bryant"
INDEX 01 00:00:00
TRACK 08 AUDIO
TITLE "Baltimore"
PERFORMER "John Bryant"
INDEX 01 03:33:50
TRACK 09 AUDIO
TITLE "Milkman"
PERFORMER "John Bryant"
INDEX 01 06:42:50
TRACK 10 AUDIO
TITLE "Warm My Bed"
PERFORMER "John Bryant"
INDEX 01 10:09:30
TRACK 11 AUDIO
TITLE "One Man Band"
PERFORMER "John Bryant"
INDEX 01 13:26:50

Две минуты начала каждой стороны

Recorded At – Lansdowne Studios
Published By – Double M Music

Arranged By [Bass And Strings] – Mike Moran
Design – Hamish Grimes
Engineer – John Mackswith
Photography – Roger Brown
Producer – Wayne Bickerton
Written-by [Words And Music] – John Bryant

Matrix / Runout: 2383069 A/2 1 1 1
Matrix / Runout: 2383069 B/2 1 1

He released three singles for Fontana:
"Tell Me What You See", "A Million Miles Away", "Somebody New",
two for MCA Records incl. "I Bring The Sun / Columbine",
one for Decca "She's In Need Of Love" (1969) and various others for Polydor.
His compositions also found their way on to records by artists such as Cliff Richard & The Shadows (She's A Gypsy) and
Tim Rose.Цитата:
Цитата:
Он выпустил три сингла для Фонтана :
" Расскажи, что ты видишь "," A Million Miles Away "," кого-то нового ",
два для MCA Records вкл. "Я приношу ВС / Коломбина",
один для Decca "Она In Need Of Love" (1969) и ряд других для Polydor .
Его произведения также нашли свое место на записи таких художников, как Клифф Ричард и The Shadows (она цыганская ) и

Тим Роуз .
Правила, инструкции, FAQ!!!
Торрент  Добавлен [24 авг 2016, 12:36] Скачать торрент Магнет ссылка
Скачать торрент
[ Размер 17.21 КБ / Просмотров 10 ]

Статус
Проверен 
 
Размер  1.62 ГБ
Приватный: Нет (DHT включён)
.torrent скачан  0
 


     Отправить личное сообщение
   
Страница 1 из 1
Показать сообщения за:  Поле сортировки  
Начать новую тему Ответить на тему


Сейчас этот форум просматривают: нет зарегистрированных пользователей и гости: 0


Вы не можете начинать темы
Вы не можете отвечать на сообщения
Вы не можете редактировать свои сообщения
Вы не можете удалять свои сообщения
Вы не можете добавлять вложения

Перейти:  
cron
cron